osu file format v10

[General]
AudioFilename: 009.Takahiro Eguchi - silver temple.mp3
AudioLeadIn: 2000
PreviewTime: 43284
Countdown: 0
SampleSet: Soft
StackLeniency: 0.7
Mode: 0
LetterboxInBreaks: 1

[Editor]
Bookmarks: 22098,43431,64764,86098,107431,128764
DistanceSpacing: 1.1
BeatDivisor: 2
GridSize: 512

[Metadata]
Title:silver temple
TitleUnicode:silver temple
Artist:Eguchi Takahiro
ArtistUnicode:Eguchi Takahiro
Creator:LKs
Version:Insane
Source:
Tags:C82 electro planet samurai DANCEHALL vivicat Sallad4ever grumd Nemis
BeatmapID:177916
BeatmapSetID:59345

[Difficulty]
HPDrainRate:7
CircleSize:4
OverallDifficulty:8
ApproachRate:9
SliderMultiplier:1.7
SliderTickRate:2

[Events]
//Background and Video events
0,0,"28038910.jpg"
//Break Periods
//Storyboard Layer 0 (Background)
//Storyboard Layer 1 (Fail)
//Storyboard Layer 2 (Pass)
//Storyboard Layer 3 (Foreground)
//Storyboard Sound Samples
//Background Colour Transformations
3,100,163,162,255

[TimingPoints]
785,333.333333333333,4,2,1,62,1,0
20784,-100,4,2,1,56,0,0
22118,-100,4,2,1,65,0,0
34784,-100,4,2,2,65,0,0
34951,-100,4,2,1,65,0,0
38784,-100,4,2,2,65,0,0
38951,-100,4,2,1,65,0,0
41618,-100,4,2,1,59,0,0
41784,-100,4,2,1,65,0,0
42118,-100,4,2,1,45,0,0
42201,-100,4,2,1,55,0,0
42451,-100,4,2,1,45,0,0
42534,-100,4,2,1,55,0,0
42784,-100,4,2,1,45,0,0
42868,-100,4,2,1,55,0,0
43118,-100,4,2,1,45,0,0
43201,-100,4,2,1,55,0,0
43451,-100,4,2,2,65,0,0
44118,-100,4,2,0,42,0,0
44618,-100,4,2,0,49,0,0
46118,-100,4,2,0,42,0,0
46784,-100,4,2,0,52,0,0
47451,-100,4,2,0,47,0,0
49451,-100,4,2,0,44,0,0
50118,-100,4,2,0,41,0,0
50784,-100,4,2,0,38,0,0
51451,-100,4,2,0,45,0,0
52118,-100,4,2,0,47,0,0
52784,-100,4,2,0,50,0,0
53284,-100,4,2,1,65,0,0
54118,-100,4,2,2,55,0,0
54784,-100,4,2,0,40,0,0
55451,-100,4,2,0,43,0,0
56118,-100,4,2,0,49,0,0
56784,-100,4,2,0,50,0,0
57451,-100,4,2,0,52,0,0
58118,-100,4,2,0,49,0,0
58784,-100,4,2,0,46,0,0
59451,-100,4,2,0,49,0,0
60118,-100,4,2,0,52,0,0
60784,-100,4,2,0,46,0,0
61451,-100,4,2,0,43,0,0
62118,-100,4,2,1,65,0,0
62284,-100,4,2,1,59,0,0
62618,-100,4,2,1,65,0,0
62784,-100,4,2,1,59,0,0
62951,-100,4,2,1,65,0,0
63284,-100,4,2,1,59,0,0
63451,-100,4,2,0,65,0,0
63784,-100,4,2,0,59,0,0
64784,-100,4,2,1,65,0,0
69451,-100,4,2,2,65,0,0
69618,-100,4,2,1,65,0,0
73951,-100,4,2,2,65,0,0
74118,-100,4,2,1,65,0,0
74784,-100,4,2,2,65,0,0
74951,-100,4,2,1,65,0,0
80118,-100,4,2,2,65,0,0
80284,-100,4,2,1,65,0,0
84618,-100,4,2,2,65,0,0
84784,-100,4,2,1,65,0,0
86118,-100,4,2,5,65,0,0
86201,-100,4,2,2,61,0,0
106118,-100,4,2,0,60,0,0
106284,-100,4,2,0,57,0,0
106451,-100,4,2,0,54,0,0
106618,-100,4,2,0,51,0,0
106784,-100,4,2,0,57,0,0
106826,-100,4,2,0,54,0,0
107118,-100,4,2,0,58,0,0
107451,-100,4,2,2,65,0,0
111618,-100,4,2,2,46,0,0
111784,-100,4,2,2,62,0,0
111951,-100,4,2,2,65,0,0
112284,-100,4,2,1,65,0,0
112451,-100,4,2,2,65,0,0
116951,-100,4,2,2,54,0,0
117118,-100,4,2,2,62,0,0
117451,-100,4,2,2,65,0,0
119451,-100,4,2,2,62,0,0
119618,-100,4,2,2,59,0,0
122951,-100,4,2,1,59,0,0
123118,-100,4,2,2,59,0,0
127451,-100,4,2,1,59,0,0
127618,-100,4,2,2,59,0,0
128784,-100,4,2,2,49,0,0
128951,-100,4,2,2,56,0,0
129451,-100,4,2,2,53,0,0
130118,-100,4,2,2,50,0,0
130784,-100,4,2,2,47,0,0
131451,-100,4,2,2,44,0,0
131784,-100,4,2,2,24,0,0
132784,-100,4,2,2,21,0,0
133451,-100,4,2,2,18,0,0
134118,-100,4,2,2,15,0,0
134618,-100,4,2,2,12,0,0
135118,-100,4,2,2,9,0,0
135451,-100,4,2,2,7,0,0
135784,-100,4,2,2,5,0,0

[Colours]
Combo1 : 255,0,128
Combo2 : 0,234,234
Combo3 : 128,128,255

[HitObjects]
511,44,785,2,0,B|528:126|512:215,1,170,0|0,0:0|0:0,0:0:0
358,251,1284,2,0,B|341:169|357:80,1,170,0|0,0:0|0:0,0:0:0
426,34,1784,1,0,0:0:0
426,34,2118,6,0,B|340:17|254:33,1,170,0|0,0:0|0:0,0:0:0
272,177,2618,2,0,B|186:194|100:178,1,170,0|0,0:0|0:0,0:0:0
19,160,3118,1,0,0:0:0
19,160,3451,6,0,B|-14:246|20:325,1,170,0|0,0:0|0:0,0:0:0
173,347,3951,2,0,B|206:261|172:182,1,170,0|0,0:0|0:0,0:0:0
105,128,4451,1,0,0:0:0
105,128,4784,5,0,0:0:0
187,106,4951,1,0,0:0:0
267,133,5118,1,0,0:0:0
348,108,5284,1,0,0:0:0
428,136,5451,1,0,0:0:0
509,109,5618,1,0,0:0:0
442,53,6118,6,0,B|362:77|275:52,1,170
149,200,6618,2,0,B|229:176|316:201,1,170,0|0,0:0|0:0,0:0:0
397,234,7118,1,0,0:0:0
397,234,7451,6,0,B|424:144|393:64,1,170
249,94,7951,2,0,B|222:184|253:264,1,170
331,292,8451,1,0,0:0:0
331,292,8784,6,0,B|245:328|165:294,1,170
126,158,9284,2,0,B|212:122|292:156,1,170,0|0,0:0|0:0,0:0:0
358,209,9784,1,0,0:0:0
358,209,10118,5,0,0:0:0
435,174,10284,1,0,0:0:0
219,95,10451,1,0,0:0:0
150,45,10617,1,0,0:0:0
190,271,10784,1,0,0:0:0
182,356,10950,1,0,0:0:0
26,192,11451,6,0,B|-10:274|23:358,1,170
146,361,11951,2,0,B|110:279|143:195,1,170
179,118,12451,1,0,0:0:0
486,192,12784,6,0,B|522:274|489:358,1,170
366,361,13284,2,0,B|402:279|369:195,1,170
333,118,13784,1,0,0:0:0
257,70,13951,1,0,0:0:0
257,70,14034,1,0,0:0:0
257,70,14118,6,0,B|175:37|91:68,1,170
68,211,14618,2,0,B|150:244|234:213,1,170
315,242,15118,1,0,0:0:0
343,242,15201,1,0,0:0:0
370,249,15284,1,0,0:0:0
395,262,15368,1,0,0:0:0
417,280,15451,5,0,0:0:0
424,367,15618,1,0,0:0:0
498,238,15784,1,0,0:0:0
492,152,15951,1,0,0:0:0
410,116,16118,1,0,0:0:0
404,30,16285,1,0,0:0:0
404,30,16451,1,0,0:0:0
375,33,16534,1,0,0:0:0
345,38,16618,1,0,0:0:0
315,39,16701,1,0,0:0:0
286,40,16784,6,0,B|200:76|201:179,1,170
112,241,17284,1,0,0:0:0
107,222,17368,1,0,0:0:0
98,202,17451,1,0,0:0:0
88,186,17534,1,0,0:0:0
74,172,17618,1,0,0:0:0
57,161,17701,1,0,0:0:0
38,153,17784,1,0,0:0:0
19,147,17868,1,0,0:0:0
0,143,17951,1,0,0:0:0
0,143,18118,6,0,B|82:164|168:144,1,170
256,236,18618,2,0,B|338:215|424:235,1,170
508,262,19118,1,0,0:0:0
508,262,19201,1,0,0:0:0
508,262,19284,1,0,0:0:0
508,262,19368,1,0,0:0:0
508,262,19451,6,0,B|536:168|509:94,1,170
359,74,19951,2,0,B|331:168|358:242,1,170
428,291,20451,1,0,0:0:0
114,58,20784,6,0,B|106:17,2,28.3333333333333,0|0|0,0:0|0:0|0:0,0:0:0
157,99,20951,2,0,B|149:140,2,28.3333333333333
203,63,21118,2,0,B|195:22,2,28.3333333333333
246,104,21285,2,0,B|238:145,2,28.3333333333333
297,77,21451,2,0,B|289:36,2,28.3333333333333
340,118,21618,2,0,B|332:159,2,28.3333333333333
387,82,21784,1,0,0:0:0
399,81,21840,1,0,0:0:0
411,81,21896,1,0,0:0:0
423,81,21951,1,0,0:0:0
435,82,22007,1,0,0:0:0
447,83,22062,1,0,0:0:0
459,85,22118,6,0,B|472:125|461:174,1,85,6|0,0:0|0:0,0:0:0
385,207,22451,1,8,0:0:0
300,194,22618,1,0,0:0:0
214,208,22784,2,0,B|172:228|122:214,1,85,0|2,0:0|0:0,0:0:0
45,197,23118,1,8,0:0:0
138,344,23284,1,0,0:0:0
111,351,23368,1,0,0:0:0
84,355,23451,2,0,B|42:359|0:353,1,85,2|0,0:0|0:0,0:0:0
45,197,23784,5,8,0:0:0
139,262,23951,1,0,0:0:0
166,254,24035,1,0,0:0:0
193,251,24118,2,0,B|235:247|277:253,1,85,0|2,0:0|0:0,0:0:0
421,103,24451,2,0,B|379:107|337:101,1,85,8|0,0:0|0:0,0:0:0
248,85,24784,5,2,0:0:0
271,175,24951,1,0,0:0:0
323,252,25118,1,8,0:0:0
407,291,25284,1,0,0:0:0
500,291,25451,1,0,0:0:0
495,271,25618,5,2,0:0:0
505,143,25784,1,8,0:0:0
470,46,25951,1,0,0:0:0
402,123,26118,1,2,0:0:0
498,154,26284,1,0,0:0:0
463,57,26451,1,8,0:0:0
395,134,26618,1,0,0:0:0
291,126,26784,6,0,B|296:169|292:216,1,85,0|2,0:0|0:0,0:0:0
180,349,27118,2,0,B|175:306|179:259,1,85,8|0,0:0|0:0,0:0:0
48,180,27451,6,0,B|132:141|211:185,1,170,2|8,0:0|0:0,0:0:0
211,185,27951,1,0,0:0:0
266,316,28118,2,0,B|177:325,1,85,0|2,0:0|0:0,0:0:0
383,210,28451,2,0,B|294:201,1,85,8|0,0:0|0:0,0:0:0
298,201,28784,6,0,B|325:110|298:31,1,170,2|8,0:0|0:0,0:0:0
299,34,29284,1,0,0:0:0
476,64,29451,2,0,B|432:63|389:58,1,85,0|2,0:0|0:0,0:0:0
427,163,29784,2,0,B|471:164|514:169,1,85,8|0,0:0|0:0,0:0:0
483,278,30118,5,2,0:0:0
392,256,30284,1,0,0:0:0
305,293,30451,1,8,0:0:0
215,266,30618,1,0,0:0:0
128,298,30784,1,0,0:0:0
38,269,30951,1,2,0:0:0
15,90,31118,6,0,B|6:177,1,85,8|0,0:0|0:0,0:0:0
119,136,31451,2,0,B|110:51,1,85,2|0,0:0|0:0,0:0:0
219,177,31784,2,0,B|210:92,1,85,8|0,0:0|0:0,0:0:0
295,35,32118,5,0,0:0:0
394,56,32284,1,2,0:0:0
410,158,32451,1,8,0:0:0
509,179,32617,1,0,0:0:0
511,86,32784,6,0,B|526:168|499:262,1,170,2|8,0:0|0:0,0:0:0
461,338,33284,1,0,0:0:0
362,309,33451,1,0,0:0:0
266,344,33618,1,2,0:0:0
166,241,33784,1,8,0:0:0
194,243,33867,1,0,0:0:0
222,244,33950,1,0,0:0:0
251,243,34034,1,0,0:0:0
279,241,34118,6,0,B|320:224|336:178,1,85,2|0,0:0|0:0,0:0:0
362,92,34451,1,8,0:0:0
362,92,34618,1,0,0:0:0
194,23,34784,2,2,B|166:111|203:190,1,170,0|8,0:0|0:0,0:0:0
177,280,35284,1,0,0:0:0
85,74,35451,6,0,B|41:71|-1:68,1,85,2|0,0:0|0:0,0:0:0
221,152,35784,2,0,B|177:154|135:158,1,85,8|0,0:0|0:0,0:0:0
77,231,36118,1,0,0:0:0
86,74,36284,1,2,0:0:0
169,15,36451,6,0,B|178:57|174:101,1,85,8|0,0:0|0:0,0:0:0
257,143,36784,1,2,0:0:0
340,100,36951,1,0,0:0:0
426,63,37118,2,0,B|468:54|512:58,1,85,8|0,0:0|0:0,0:0:0
494,226,37451,2,0,B|452:235|408:231,1,85,0|2,0:0|0:0,0:0:0
427,45,37784,2,0,B|469:36|513:40,1,85,8|0,0:0|0:0,0:0:0
511,39,38118,6,0,B|535:120|512:212,1,170,2|8,0:0|0:0,0:0:0
512,207,38618,1,0,0:0:0
360,274,38784,2,2,B|336:193|359:101,1,170,0|8,0:0|0:0,0:0:0
254,37,39284,1,0,0:0:0
251,57,39368,1,0,0:0:0
244,76,39451,6,0,B|171:122|75:87,1,170,2|8,0:0|0:0,0:0:0
14,190,39951,1,0,0:0:0
23,207,40034,1,0,0:0:0
33,224,40118,2,0,B|132:212,1,85,0|2,0:0|0:0,0:0:0
111,44,40451,2,0,B|12:56,1,85,8|0,0:0|0:0,0:0:0
117,213,40784,5,2,0:0:0
198,167,40951,1,0,0:0:0
198,260,41118,1,8,0:0:0
175,120,41284,5,2,0:0:0
278,97,41451,1,0,0:0:0
244,194,41618,1,2,0:0:0
371,15,41784,5,8,0:0:0
467,68,41951,1,0,0:0:0
370,123,42118,2,0,B|374:163,5,28.3333333333333,2|0|0|0|0|0,0:0|0:0|0:0|0:0|0:0|0:0,0:0:0
350,186,42451,2,0,B|354:226,5,28.3333333333333,2|0|0|0|0|0,0:0|0:0|0:0|0:0|0:0|0:0,0:0:0
340,248,42784,5,2,0:0:0
334,266,42840,1,0,0:0:0
326,283,42896,1,0,0:0:0
315,298,42951,1,0,0:0:0
301,310,43007,1,0,0:0:0
284,320,43062,1,0,0:0:0
260,346,43118,5,2,0:0:0
241,348,43173,1,0,0:0:0
222,349,43229,1,0,0:0:0
203,349,43284,1,0,0:0:0
184,349,43340,1,0,0:0:0
165,348,43396,1,0,0:0:0
146,347,43451,5,6,0:0:0
25,226,44118,1,2,0:0:0
146,106,44784,1,2,0:0:0
266,226,45451,1,2,0:0:0
146,347,46118,5,2,0:0:0
56,191,46785,1,2,0:0:0
211,102,47451,1,2,0:0:0
300,256,48118,1,2,0:0:0
146,347,48784,5,2,0:0:0
97,164,49451,1,2,0:0:0
278,116,50117,1,2,0:0:0
326,296,50784,1,2,0:0:0
146,346,51451,5,2,0:0:0
146,147,52118,1,2,0:0:0
342,147,52784,1,2,0:0:0
342,343,53284,1,2,0:0:0
343,342,53368,1,0,0:0:0
342,343,53451,2,0,B|337:252,1,85,0|2,0:0|0:0,0:0:0
438,175,53784,2,0,B|442:259,1,85,8|0,0:0|0:0,0:0:0
342,148,54118,5,2,0:0:0
213,259,54784,1,2,0:0:0
102,131,55451,1,2,0:0:0
230,19,56118,1,2,0:0:0
342,148,56784,5,2,0:0:0
241,295,57450,1,2,0:0:0
94,195,58117,1,2,0:0:0
193,47,58784,1,2,0:0:0
342,148,59451,5,2,0:0:0
279,324,60117,1,2,0:0:0
103,262,60784,1,2,0:0:0
163,86,61451,1,2,0:0:0
341,148,62118,5,2,0:0:0
412,88,62284,1,0,0:0:0
428,180,62451,1,0,0:0:0
341,148,62618,5,2,0:0:0
419,83,62784,1,0,0:0:0
438,183,62951,1,2,0:0:0
341,148,63118,5,0,0:0:0
268,211,63284,1,0,0:0:0
171,201,63451,1,2,0:0:0
149,209,63534,1,0,0:0:0
125,215,63617,1,0,0:0:0
101,217,63701,1,0,0:0:0
77,215,63784,1,2,0:0:0
53,209,63867,1,0,0:0:0
31,200,63951,1,0,0:0:0
12,187,64034,1,0,0:0:0
21,166,64118,6,0,B|15:119,11,28.3333333333333,2|0|0|0|0|0|2|0|0|0|0|0,0:0|0:0|0:0|0:0|0:0|0:0|0:0|0:0|0:0|0:0|0:0|0:0,0:0:0
14,109,64784,5,6,0:0:0
58,16,64951,1,0,0:0:0
149,61,65118,1,8,0:0:0
202,144,65284,5,4,0:0:0
246,51,65451,1,0,0:0:0
337,96,65618,1,0,0:0:0
377,184,65784,5,8,0:0:0
421,91,65951,1,0,0:0:0
512,136,66118,1,2,0:0:0
377,184,66284,5,0,0:0:0
421,91,66451,1,8,0:0:0
512,136,66618,1,2,0:0:0
377,184,66784,5,0,0:0:0
421,91,66951,1,2,0:0:0
512,136,67118,1,8,0:0:0
377,184,67284,1,0,0:0:0
377,184,67368,1,0,0:0:0
377,184,67451,5,6,0:0:0
401,283,67618,1,0,0:0:0
425,381,67784,1,8,0:0:0
269,288,67951,5,4,0:0:0
293,189,68118,1,0,0:0:0
317,91,68284,1,2,0:0:0
149,160,68451,5,8,0:0:0
173,259,68618,1,0,0:0:0
197,357,68784,1,2,0:0:0
41,264,68951,5,0,0:0:0
65,165,69118,1,8,0:0:0
89,67,69284,1,2,0:0:0
182,17,69451,6,2,B|264:48|362:26,1,170,0|8,0:0|0:0,0:0:0
427,137,69951,1,0,0:0:0
427,137,70034,1,0,0:0:0
427,137,70118,6,0,B|450:98|437:52,2,85,6|0|8,0:0|0:0|0:0,0:0:0
264,181,70618,2,0,B|370:186,2,85,4|0|2,0:0|0:0|0:0,0:0:0
428,295,71118,2,0,B|467:318|513:305,2,85,8|0|2,0:0|0:0|0:0,0:0:0
265,181,71618,6,0,B|276:284,2,85,0|8|2,0:0|0:0|0:0,0:0:0
158,273,72118,2,0,B|163:320|133:355,3,85,0|2|8|0,0:0|0:0|0:0|0:0,0:0:0
116,368,72701,1,0,0:0:0
93,375,72784,6,0,B|9:371,2,85,6|0|8,0:0|0:0|0:0,0:0:0
228,208,73284,2,0,B|259:245|250:296,2,85,4|0|2,0:0|0:0|0:0,0:0:0
158,273,73784,1,8,0:0:0
29,96,73951,2,2,B|107:42|197:91,1,170,0|0,0:0|0:0,0:0:0
283,128,74451,1,8,0:0:0
382,150,74618,1,2,0:0:0
482,132,74784,2,2,B|517:213|480:304,1,170,0|8,0:0|0:0,0:0:0
265,374,75451,5,6,0:0:0
224,279,75618,1,0,0:0:0
284,360,75784,1,8,0:0:0
145,252,75951,5,4,0:0:0
50,293,76118,1,0,0:0:0
131,233,76284,1,0,0:0:0
133,71,76451,5,8,0:0:0
174,166,76618,1,0,0:0:0
114,85,76784,1,2,0:0:0
253,193,76951,5,0,0:0:0
348,152,77118,1,8,0:0:0
267,212,77284,1,2,0:0:0
348,152,77451,5,0,0:0:0
448,131,77618,1,2,0:0:0
499,219,77784,1,8,0:0:0
431,295,77951,1,0,0:0:0
338,254,78118,5,2,0:0:0
248,206,78284,1,0,0:0:0
155,165,78451,1,8,0:0:0
87,241,78618,1,2,0:0:0
138,329,78784,1,0,0:0:0
238,308,78951,1,2,0:0:0
348,152,79118,5,8,0:0:0
448,131,79285,1,0,0:0:0
499,219,79451,1,2,0:0:0
431,295,79618,1,0,0:0:0
338,254,79784,5,8,0:0:0
248,206,79950,1,2,0:0:0
155,165,80118,2,2,B|64:128|-2:192,1,170,0|8,0:0|0:0,0:0:0
0,191,80534,2,0,B|5:94,1,85,0|0,0:0|0:0,0:0:0
5,82,80784,5,6,0:0:0
95,57,80951,1,0,0:0:0
185,32,81118,1,8,0:0:0
275,140,81284,2,0,B|278:54,2,85,4|2|2,0:0|0:0|0:0,0:0:0
366,194,81784,2,0,B|369:280,1,85,8|0,0:0|0:0,0:0:0
368,278,82034,1,0,0:0:0
368,278,82118,5,2,0:0:0
451,338,82284,1,0,0:0:0
462,236,82451,1,8,0:0:0
455,134,82618,1,2,0:0:0
356,32,82784,6,0,B|307:28|265:35,1,85,0|2,0:0|0:0,0:0:0
223,143,83118,2,0,B|174:147|132:140,1,85,8|0,0:0|0:0,0:0:0
118,130,83368,1,0,0:0:0
100,116,83451,6,0,B|98:204,2,85,2|0|8,0:0|0:0|0:0,0:0:0
187,249,83951,2,0,B|185:337,2,85,2|0|2,0:0|0:0|0:0,0:0:0
274,211,84451,1,8,0:0:0
346,69,84618,2,2,B|425:23|507:76,1,170,0|8,0:0|0:0,0:0:0
422,157,85118,1,8,0:0:0
346,69,85284,1,0,0:0:0
234,37,85451,2,0,B|231:92,2,42.5,0|8|0,0:0|0:0|0:0,0:0:0
73,109,85784,2,0,B|113:129|169:114,1,85,8|0,0:0|0:0,0:0:0
188,205,86118,6,0,B|100:226|18:193,2,170,4|8|0,0:0|0:0|0:0,0:0:0
388,137,87118,1,8,0:0:0
451,204,87284,1,0,0:0:0
414,117,87451,6,0,B|328:170|372:267,1,170,0|8,0:0|0:0,0:0:0
412,347,87951,1,0,0:0:0
412,347,88034,1,0,0:0:0
412,347,88118,6,0,B|370:355|323:340,1,85
157,242,88451,2,0,B|197:226|246:235,1,85,8|0,0:0|0:0,0:0:0
232,361,88784,6,0,B|142:365|58:364,1,170,0|8,0:0|0:0,0:0:0
23,200,89284,2,0,B|23:245|36:291,1,85
97,158,89618,2,0,B|96:112|84:67,2,85,0|8|0,0:0|0:0|0:0,0:0:0
11,45,90118,6,0,B|92:18|178:47,1,170,0|8,0:0|0:0,0:0:0
255,99,90618,2,0,B|336:126|422:97,1,170
495,38,91118,1,8,0:0:0
502,65,91201,1,0,0:0:0
506,93,91284,1,0,0:0:0
504,121,91368,1,0,0:0:0
500,149,91451,5,0,0:0:0
265,316,91784,2,0,B|360:308,1,85,8|0,0:0|0:0,0:0:0
179,197,92118,2,0,B|274:205,1,85
352,161,92451,6,0,B|416:232|365:321,1,170,8|0,0:0|0:0,0:0:0
177,337,92951,2,0,B|185:392,2,42.5,0|0|8,0:0|0:0|0:0,0:0:0
101,258,93284,2,0,B|180:244|281:254,1,170
352,297,93784,2,0,B|395:300|444:294,1,85,8|0,0:0|0:0,0:0:0
499,193,94118,6,0,B|500:148|494:103,1,85
431,38,94451,1,8,0:0:0
406,51,94534,1,0,0:0:0
378,58,94618,1,0,0:0:0
350,58,94701,1,0,0:0:0
322,53,94784,1,0,0:0:0
228,94,94951,1,0,0:0:0
312,151,95118,1,8,0:0:0
322,53,95284,5,0,0:0:0
132,72,95451,2,0,B|100:126|105:185|151:229,1,170,0|8,0:0|0:0,0:0:0
217,306,95951,1,0,0:0:0
307,352,96118,2,0,B|223:318|140:346,1,170,0|8,0:0|0:0,0:0:0
425,202,96784,6,0,B|469:291|401:360,1,170,0|8,0:0|0:0,0:0:0
402,358,97284,1,0,0:0:0
290,187,97618,1,0,0:0:0
290,187,97784,2,0,B|286:124|285:84|282:11,1,170,8|0,0:0|0:0,0:0:0
380,66,98284,1,0,0:0:0
401,63,98368,1,0,0:0:0
422,60,98451,1,8,0:0:0
387,185,98618,2,0,B|373:288|270:284,1,170
171,269,99118,2,0,B|175:313|175:356,1,85,8|0,0:0|0:0,0:0:0
68,289,99451,6,0,B|64:220|119:197|108:121,1,170,0|8,0:0|0:0,0:0:0
69,35,99951,2,0,B|112:33|161:33,1,85
236,117,100284,1,0,0:0:0
301,50,100451,1,8,0:0:0
371,111,100618,1,0,0:0:0
308,179,100784,2,0,B|390:150|477:177,1,170,0|8,0:0|0:0,0:0:0
475,176,101284,1,0,0:0:0
490,21,101451,6,0,B|502:63|509:107,1,85
427,246,101784,2,0,B|433:286|445:328,1,85,8|0,0:0|0:0,0:0:0
445,328,102034,1,0,0:0:0
445,328,102118,6,0,B|373:364|277:339,1,170,0|8,0:0|0:0,0:0:0
189,312,102618,1,0,0:0:0
36,267,102784,1,0,0:0:0
43,149,102951,2,0,B|145:145,1,85,0|8,0:0|0:0,0:0:0
156,144,103201,1,0,0:0:0
184,143,103284,1,0,0:0:0
212,142,103368,1,0,0:0:0
241,141,103451,6,0,B|273:219|244:313,1,170,0|8,0:0|0:0,0:0:0
343,344,103951,2,0,B|370:255|356:174,1,170
492,82,104451,2,0,B|401:79,1,85,8|0,0:0|0:0,0:0:0
392,63,104701,1,0,0:0:0
378,47,104784,6,0,B|333:32|291:43,1,85
189,258,105118,2,0,B|228:269|273:254,1,85,8|0,0:0|0:0,0:0:0
73,170,105451,6,0,B|78:216|81:267,1,85
353,376,105784,2,0,B|350:337|345:291,1,85,8|0,0:0|0:0,0:0:0
117,89,106118,5,2,0:0:0
137,102,106201,1,0,0:0:0
159,112,106284,1,2,0:0:0
182,120,106367,1,2,0:0:0
206,125,106451,1,2,0:0:0
230,126,106534,1,2,0:0:0
254,125,106617,1,2,0:0:0
278,121,106701,1,2,0:0:0
303,114,106784,6,0,B|347:97,5,28.3333333333333,2|0|0|0|0|0,0:0|0:0|0:0|0:0|0:0|0:0,0:0:0
362,132,107118,2,0,B|406:115,5,28.3333333333333,2|0|0|0|0|0,0:0|0:0|0:0|0:0|0:0|0:0,0:0:0
422,149,107451,6,0,B|465:151|511:138,1,85,6|0,0:0|0:0,0:0:0
422,149,107784,1,8,0:0:0
362,244,107951,2,0,B|319:246|273:233,1,85,2|0,0:0|0:0,0:0:0
379,245,108284,1,2,0:0:0
426,350,108451,2,0,B|469:352|515:339,1,85,8|0,0:0|0:0,0:0:0
395,348,108784,5,2,0:0:0
298,314,108951,1,0,0:0:0
379,245,109118,1,8,0:0:0
437,161,109284,1,2,0:0:0
474,66,109451,5,0,0:0:0
373,82,109618,1,2,0:0:0
437,161,109784,1,8,0:0:0
474,66,109951,1,0,0:0:0
286,27,110118,6,0,B|267:68|281:116,1,85,2|0,0:0|0:0,0:0:0
286,27,110451,1,8,0:0:0
195,187,110618,2,0,B|172:147|182:98,1,85,2|0,0:0|0:0,0:0:0
203,203,110951,1,2,0:0:0
97,232,111118,2,0,B|101:277|137:311,1,85,8|0,0:0|0:0,0:0:0
91,201,111451,5,2,0:0:0
92,98,111618,1,8,0:0:0
5,151,111784,1,8,0:0:0
91,201,111951,1,2,0:0:0
225,56,112118,2,2,B|299:100|394:72,1,170,0|8,0:0|0:0,0:0:0
419,64,112534,2,0,B|433:105|426:149,1,85,0|0,0:0|0:0,0:0:0
405,226,112784,6,0,B|396:269|412:317,1,85,2|0,0:0|0:0,0:0:0
405,226,113118,1,8,0:0:0
294,180,113284,2,0,B|301:272,1,85,2|0,0:0|0:0,0:0:0
292,159,113618,1,2,0:0:0
167,96,113784,2,0,B|201:126|198:172,1,85,8|0,0:0|0:0,0:0:0
148,69,114118,5,2,0:0:0
115,165,114284,1,0,0:0:0
15,179,114451,1,8,0:0:0
25,280,114618,1,2,0:0:0
174,360,114784,2,0,B|133:371|89:362,1,85,0|2,0:0|0:0,0:0:0
254,307,115118,2,0,B|295:296|339:305,1,85,8|0,0:0|0:0,0:0:0
422,343,115451,6,0,B|519:338,1,85,2|0,0:0|0:0,0:0:0
422,343,115784,1,8,0:0:0
356,224,115951,2,0,B|259:219,1,85,2|0,0:0|0:0,0:0:0
374,224,116284,1,2,0:0:0
423,102,116451,2,0,B|520:97,1,85,8|0,0:0|0:0,0:0:0
507,97,116701,1,0,0:0:0
507,97,116784,5,2,0:0:0
379,32,116951,1,8,0:0:0
292,148,117118,1,8,0:0:0
190,89,117284,1,2,0:0:0
84,59,117451,2,2,B|30:132|73:220,1,170,2|8,0:0|0:0,0:0:0
100,218,117868,1,0,0:0:0
129,216,117951,1,0,0:0:0
157,213,118034,1,0,0:0:0
185,208,118118,5,2,0:0:0
247,278,118284,1,0,0:0:0
203,360,118451,1,8,0:0:0
202,198,118618,5,2,0:0:0
269,274,118784,1,0,0:0:0
221,364,118951,1,2,0:0:0
220,187,119118,5,8,0:0:0
293,270,119284,1,0,0:0:0
240,369,119451,1,2,0:0:0
238,175,119618,5,2,0:0:0
328,153,119784,1,8,0:0:0
419,131,119951,1,2,0:0:0
476,266,120118,5,0,0:0:0
383,254,120284,1,2,0:0:0
290,242,120451,1,8,0:0:0
197,229,120618,1,0,0:0:0
197,229,120701,1,0,0:0:0
197,229,120784,6,0,B|196:282|198:322,1,85,2|0,0:0|0:0,0:0:0
112,354,121118,1,8,0:0:0
0,267,121284,6,0,B|1:214|-1:174,1,85,2|0,0:0|0:0,0:0:0
85,142,121618,1,2,0:0:0
192,213,121784,22,0,B|191:266|193:306,1,85,8|0,0:0|0:0,0:0:0
107,338,122118,1,2,0:0:0
5,281,122284,6,0,B|6:228|4:188,1,85,0|8,0:0|0:0,0:0:0
90,156,122618,1,2,0:0:0
217,35,122784,2,2,B|132:42|47:34,1,170,0|8,0:0|0:0,0:0:0
296,112,123451,5,2,0:0:0
384,80,123618,1,0,0:0:0
472,48,123784,1,8,0:0:0
459,140,123951,5,2,0:0:0
442,232,124118,1,0,0:0:0
426,324,124284,1,2,0:0:0
353,263,124451,5,8,0:0:0
282,202,124618,1,0,0:0:0
210,142,124784,1,2,0:0:0
136,83,124951,5,2,0:0:0
121,175,125117,1,8,0:0:0
105,267,125284,1,2,0:0:0
88,360,125451,5,0,0:0:0
177,329,125618,1,2,0:0:0
265,296,125784,1,8,0:0:0
353,262,125951,1,0,0:0:0
353,263,126034,1,0,0:0:0
353,262,126118,6,0,B|444:258,2,85,2|0|8,0:0|0:0|0:0,0:0:0
295,167,126618,2,0,B|204:163,2,85,2|0|2,0:0|0:0|0:0,0:0:0
426,109,127118,1,8,0:0:0
351,29,127284,6,2,B|402:99|376:191,1,170,0|0,0:0|0:0,0:0:0
141,286,127784,2,0,B|124:248|132:203,1,85,8|0,0:0|0:0,0:0:0
86,119,128118,2,0,B|40:116,2,42.5,2|0|10,0:0|0:0|0:0,0:0:0
146,46,128451,2,0,B|240:44,1,85,8|0,0:0|0:0,0:0:0
230,44,128784,5,2,0:0:0
256,192,128868,12,0,135784,0:0:0
