osu file format v5

[General]
AudioFilename: Tales of the Abyss - Karma (Instrumental).mp3
AudioLeadIn: 993
PreviewTime: -1
Countdown: 1
SampleSet: Soft
StackLeniency: 1
Mode: 0
LetterboxInBreaks: 1

[Metadata]
Title:Karma - Spanish
Artist:Efrayn R.S.
Creator:JuanmiKun
Version:Unknown
Source:
Tags:

[Difficulty]
HPDrainRate:6
CircleSize:5
OverallDifficulty:7
SliderMultiplier:1.6
SliderTickRate:4

[Events]
//Background and Video events
0,0,"TOA.jpg"
1,0,"TOTA.avi"
//Break Periods
2,90089,97455
//Storyboard Layer 0 (Background)
//Storyboard Layer 1 (Failing)
//Storyboard Layer 2 (Passing)
//Storyboard Layer 3 (Foreground)
//Storyboard Sound Samples
//Background Colour Transformations
3,100,163,162,255

[TimingPoints]
56,615.342217015508,4,2,0,100,1

[HitObjects]
72,72,9901,1,4
128,96,10209,1,0
184,128,10516,1,0
184,128,10670,1,0
240,88,10978,1,2
240,176,11285,1,0
288,136,11593,1,2
288,224,11901,1,0
344,176,12209,5,0
360,176,12362,1,2
376,176,12516,1,0
392,176,12670,1,0
408,176,12824,1,0
424,176,12978,1,0
440,176,13132,1,0
448,240,13439,1,2
448,304,13747,1,0
432,304,13901,1,0
416,304,14055,1,0
400,304,14208,1,2
384,304,14362,1,0
312,304,14670,5,0
312,304,14824,1,4
256,272,15131,1,0
200,240,15439,1,0
200,240,15593,1,0
152,288,15901,1,2
152,192,16208,1,0
96,240,16516,1,2
96,144,16824,1,0
96,72,17131,5,0
112,72,17285,1,2
128,72,17439,1,0
144,72,17593,1,0
160,72,17747,1,0
176,72,17900,1,0
192,72,18054,1,0
256,72,18362,1,2
256,136,18670,1,0
256,152,18823,1,2
256,168,18977,1,0
256,184,19131,1,6
176,272,19593,5,0
128,272,19746,2,2,B|128:176,1,80
64,192,20362,1,0
64,128,20516,1,0
64,112,20593,1,2
64,96,20669,1,0
64,48,20823,1,0
120,48,20977,1,2
176,48,21131,1,2
232,48,21285,1,2
272,88,21439,1,0
312,48,21592,1,2
400,80,22054,5,0
432,48,22208,1,2
456,80,22362,1,0
456,80,22515,1,2
456,104,22669,1,0
456,104,22823,1,0
456,128,22977,1,2
456,128,23131,1,0
456,152,23285,1,2
456,168,23439,1,0
456,232,23746,2,0,B|440:248,1,20
408,280,24054,1,0
336,280,24515,5,2
336,280,24669,1,2
272,280,24977,2,0,B|256:264,1,20
208,216,25285,1,0
208,152,25592,1,2
264,152,25746,1,2
344,152,26054,1,0
344,200,26208,1,2
280,264,26515,1,0
304,336,26977,5,0
360,296,27131,1,2
400,240,27438,1,2
400,200,27592,1,2
400,136,27900,1,0
368,80,28207,1,2
344,64,28361,1,2
280,56,28823,1,0
248,56,28977,2,2,B|192:56,1,40
104,40,29592,6,2,B|104:128,1,80
104,184,30207,1,0
104,248,30361,1,0
104,272,30438,1,2
104,288,30515,1,0
152,288,30669,1,0
192,248,30823,1,2
240,248,30976,1,2
288,248,31130,1,2
336,288,31284,1,0
368,248,31438,1,2
456,288,31899,5,0
440,240,32053,1,2
408,200,32207,1,0
408,200,32361,1,2
376,200,32515,1,0
376,200,32669,1,0
352,240,32822,1,2
352,240,32976,1,0
336,288,33130,1,2
336,288,33284,1,0
272,288,33592,2,0,B|248:288,1,20
184,288,33899,1,0
96,288,34361,5,2
96,288,34515,1,2
96,224,34822,2,0,B|96:200,1,20
96,136,35130,1,0
120,96,35284,1,2
192,64,35592,1,2
256,64,35899,1,2
320,64,36207,1,0
360,64,36361,1,2
424,64,36668,1,2
384,112,36976,1,4
352,152,37130,1,0
288,152,37438,1,4
288,216,37745,1,2
224,216,38053,1,4
96,304,38668,5,0
96,232,38976,1,0
120,200,39130,1,0
96,168,39284,1,0
120,144,39437,1,4
120,80,39745,1,0
120,80,39899,1,4
176,112,40207,1,0
224,72,40360,1,4
224,112,40514,1,0
320,72,41130,5,0
344,144,41437,1,0
320,176,41591,1,0
344,208,41745,1,0
320,232,41899,1,4
248,192,42206,1,0
248,192,42360,1,4
248,256,42668,1,0
248,296,42822,1,4
248,336,42976,1,0
144,296,43591,5,0
144,232,43899,1,0
128,200,44052,1,0
144,168,44206,1,0
128,136,44360,1,4
128,72,44668,1,0
128,72,44822,1,4
200,72,45129,1,0
240,32,45283,1,4
240,72,45437,1,0
240,160,46052,5,2
240,224,46360,1,0
240,248,46514,1,0
240,272,46668,1,0
240,296,46822,1,4
336,112,47437,1,2
336,304,47745,1,0
336,240,48052,1,6
336,176,48360,1,0
336,112,48668,1,6
248,48,49283,5,4
184,48,49591,1,0
184,112,49898,1,0
184,176,50206,2,6,B|184:288|320:288|320:168,1,240
384,200,51437,5,0
384,160,51590,1,0
384,128,51744,1,4
320,160,52206,1,0
320,128,52360,1,4
256,96,52821,1,0
256,128,52975,1,4
256,160,53129,1,0
256,192,53283,1,0
256,312,53898,5,0
256,312,54052,1,0
256,312,54206,1,4
192,264,54513,1,0
136,208,54821,1,0
136,176,54975,1,0
192,120,55282,1,4
256,72,55744,1,0
256,160,56052,1,0
256,192,56205,1,0
256,288,56667,5,4
304,248,56975,1,0
304,192,57128,1,4
352,216,57436,1,0
352,160,57590,1,4
440,152,58052,1,0
440,200,58205,1,0
440,312,58513,5,0
376,312,58821,1,0
312,312,59128,1,4
248,312,59436,1,0
184,312,59744,1,0
120,312,60051,2,6,B|32:312|32:128|112:128,1,240
144,208,61282,5,0
176,168,61436,1,0
208,128,61590,1,4
224,216,62051,1,0
256,176,62205,1,4
328,136,62667,1,0
360,176,62820,1,4
392,216,62974,1,0
424,256,63128,1,0
432,328,63743,5,0
432,328,63897,1,0
432,328,64051,1,4
360,320,64359,1,0
304,272,64666,1,0
264,216,64974,1,0
264,176,65128,1,4
296,104,65589,1,0
344,56,65897,1,0
424,48,66205,1,0
424,120,66512,5,4
424,184,66820,1,0
424,240,66974,1,4
376,216,67282,1,0
376,272,67435,1,4
280,216,67897,1,0
280,272,68051,1,0
208,272,68358,5,0
208,248,68512,1,0
208,224,68666,1,0
136,224,68974,1,4
136,336,69589,1,0
192,288,69897,1,0
248,240,70205,1,2
304,288,70512,1,2
360,240,70820,1,2
416,328,71743,5,2
416,256,72051,1,2
416,184,72358,1,2
416,112,72666,1,0
416,24,73281,1,0
320,24,74204,5,2
272,80,74512,1,2
216,136,74820,1,2
160,88,75127,1,0
112,144,75435,1,0
112,216,75743,1,0
48,184,76050,1,0
48,336,76666,5,2
120,336,76973,1,2
192,336,77281,1,2
264,336,77589,1,0
360,336,78204,1,0
456,336,78819,5,2
456,256,79281,1,0
456,232,79435,1,2
456,160,79896,1,0
456,136,80050,1,2
456,64,80511,1,0
432,64,80665,1,2
408,64,80819,1,0
256,64,81588,5,0
208,120,81896,1,2
256,168,82204,1,0
304,120,82511,1,0
384,120,83127,1,2
384,224,83742,5,0
312,224,84050,1,0
312,296,84357,1,2
240,296,84665,1,0
240,224,84973,1,0
168,224,85280,1,0
96,224,85588,1,2
96,152,85896,1,0
168,152,86203,1,0
264,80,86819,5,2
336,80,87126,1,0
336,152,87434,1,0
336,224,87742,1,0
400,184,88049,1,2
464,144,88357,1,0
464,72,88665,2,0,B|128:72,1,320
72,192,98510,5,4
144,192,98818,1,0
144,136,98972,1,4
192,160,99279,1,0
192,104,99433,1,4
280,128,100356,5,0
344,128,100664,1,0
408,128,100972,1,4
472,128,101279,1,0
472,192,101587,1,0
472,256,101895,2,6,B|357:253|384:352|240:352,1,240
256,288,103125,5,0
256,248,103279,1,0
256,208,103433,1,4
192,248,103894,1,0
192,208,104048,1,4
128,168,104510,1,0
128,208,104664,1,4
128,240,104818,1,0
128,272,104971,1,0
56,336,105587,5,0
56,336,105741,1,0
56,336,105894,1,4
56,264,106202,1,0
56,192,106510,1,0
56,168,106664,1,0
56,96,106971,1,4
120,136,107433,1,0
184,176,107740,1,0
184,88,108048,1,0
264,176,108356,5,4
336,176,108663,1,0
336,120,108817,1,4
384,144,109125,1,0
384,88,109279,1,4
464,88,109740,1,0
464,144,109894,1,0
464,264,110202,5,0
416,224,110509,1,0
368,176,110817,1,4
312,128,111125,1,0
312,200,111432,1,0
312,272,111740,2,6,B|196:271|265:192|80:200,1,240
88,128,112971,5,0
112,128,113125,1,0
136,128,113278,1,4
200,128,113740,1,0
224,128,113894,1,4
288,128,114355,1,0
288,160,114509,1,4
288,192,114663,1,0
288,224,114817,1,0
288,320,115432,5,0
288,320,115586,1,0
288,320,115740,1,4
208,320,116048,1,0
208,248,116355,1,0
136,248,116663,1,0
136,272,116817,1,4
136,336,117278,1,0
64,320,117586,1,0
64,248,117894,1,0
64,168,118201,5,4
136,168,118509,1,0
136,112,118663,1,4
184,136,118970,1,0
184,80,119124,1,4
288,80,119586,1,0
288,136,119740,1,0
352,136,120047,5,0
376,112,120201,1,0
400,88,120355,1,0
448,40,120663,1,4
448,104,120970,1,0
448,168,121278,1,0
448,240,121586,1,0
376,240,121893,1,4
256,240,122509,1,0
136,232,123124,2,4,B|176:92|303:92|368:240,1,320
256,344,124970,5,0
256,304,125124,1,0
256,264,125278,1,0
256,192,125585,1,4
152,192,126201,1,0
152,120,126508,1,0
224,120,126816,1,4
328,120,127431,1,0
328,192,127739,1,0
256,192,128047,2,4,B|289:404|25:396|16:149|248:176,1,480
256,192,130508,2,4,B|468:225|460:-39|213:-48|240:184,1,480
256,280,132662,5,0
328,280,132969,2,4,B|488:280|488:192|256:192,1,320
160,192,134815,1,0
72,192,135431,2,4,B|102:26|432:20|432:216,1,480
440,312,137892,5,0
384,288,138200,1,0
328,256,138507,1,0
328,256,138661,1,0
272,296,138969,1,2
272,208,139277,1,0
224,248,139584,1,2
224,160,139892,1,0
168,208,140200,5,0
152,208,140354,1,2
136,208,140507,1,0
120,208,140661,1,0
104,208,140815,1,0
88,208,140969,1,0
72,208,141123,1,0
64,144,141430,1,2
64,80,141738,1,0
80,80,141892,1,0
96,80,142046,1,0
112,80,142200,1,2
128,80,142353,1,0
200,80,142661,5,0
200,80,142815,1,4
256,112,143123,1,0
312,144,143430,1,0
312,144,143584,1,0
360,96,143892,1,2
360,192,144199,1,0
416,144,144507,1,2
416,240,144815,1,0
416,312,145122,5,0
400,312,145276,1,2
384,312,145430,1,0
368,312,145584,1,0
352,312,145738,1,0
336,312,145892,1,0
320,312,146045,1,0
256,312,146353,1,2
256,248,146661,1,6
256,232,146815,1,6
256,216,146968,1,2
256,200,147122,1,4
