osu file format v5

[General]
AudioFilename: 07 I Need Some Sleep.mp3
AudioLeadIn: 0
PreviewTime: -1
Countdown: 0
SampleSet: Soft
StackLeniency: 0.7
Mode: 0
LetterboxInBreaks: 1
EditorBookmarks: 15202,51765,59734,97702,112702,131452,138952

[Metadata]
Title:I Need Some Sleep
Artist:Eels
Creator:thanthos
Version:Easy
Source:
Tags:

[Difficulty]
HPDrainRate:5
CircleSize:6
OverallDifficulty:5
SliderMultiplier:2
SliderTickRate:2

[Events]
//Background and Video events
0,0,"sleep.jpg"
//Break Periods
2,51495,58534
2,97433,111502
//Storyboard Layer 0 (Background)
//Storyboard Layer 1 (Failing)
//Storyboard Layer 2 (Passing)
//Storyboard Layer 3 (Foreground)
//Storyboard Sound Samples
//Background Colour Transformations
3,100,255,255,255

[TimingPoints]
15202.8221153846,937.5,4,2,0,100,1,0

[Colours]
Combo1 : 159,255,234
Combo2 : 0,202,244
Combo3 : 47,0,185

[HitObjects]
80,16,15202,1,0
256,16,16140,1,0
432,16,17077,1,0
432,192,18015,1,0
256,192,18952,1,0
80,192,19890,1,0
80,368,20827,1,0
256,368,21765,1,0
432,368,22702,1,0
272,272,23640,5,0
176,272,24577,2,0,B|432:272,2,200
272,176,27390,1,0
272,80,28327,1,0
272,256,29265,1,0
96,192,30671,6,0,B|256:384|448:176,1,400
352,192,33952,1,0
176,192,34890,1,0
352,192,35827,1,0
176,192,36765,1,0
256,192,37702,5,0
32,192,39109,2,0,B|240:416|496:176,1,500
16,64,42390,2,0,B|64:16|48:352|112:320,1,300
256,192,44734,1,0
480,64,45671,2,0,B|432:16|448:352|384:320,1,300
256,192,48015,1,0
32,256,48952,6,0,B|48:144|128:224|448:320|464:144,1,500
32,32,61140,5,0
128,32,61609,2,0,B|384:32,1,200
416,32,63015,2,0,B|416:256,1,200
416,320,64421,1,0
336,320,64890,2,0,B|64:320,1,200
48,320,66296,1,0
96,97,68171,5,0
96,97,68640,2,0,B|160:49|176:305|208:353|272:289,1,300
256,305,70515,1,0
255,303,70984,2,0,B|300:352|332:304|348:48|412:96,1,300
401,90,72859,1,0
384,64,75671,6,0,B|272:64|272:336|112:336,3,400
240,192,82234,1,0
128,64,83171,6,0,B|240:64|240:336|400:336,3,400
64,64,90202,6,0,B|176:64,1,100
144,128,91140,2,0,B|256:128,1,100,0|0
224,192,92077,2,0,B|336:192,1,100
304,256,93015,2,0,B|416:256,1,100,0|0
448,320,93952,6,0,B|336:320,1,100
368,256,94890,2,0,B|256:256,1,100,0|0
288,192,95827,2,0,B|176:192,1,100
208,128,96765,2,0,B|96:128,1,100,0|0
48,96,112702,5,0
144,96,113640,1,0
240,96,114577,2,0,B|448:96,2,200
144,96,117390,1,0
32,96,118327,1,0
48,304,120202,5,0
144,304,121140,2,0,B|256:304,3,100
288,304,123015,1,0
384,304,123952,6,0,B|304:224,1,100
352,272,124890,2,0,B|272:192,1,100
320,240,125827,2,0,B|240:160,1,100
288,208,126765,2,0,B|208:128,1,100
64,64,131452,6,0,B|176:64,1,100
144,128,132390,2,0,B|256:128,1,100,0|0
224,192,133327,2,0,B|336:192,1,100
304,256,134265,2,0,B|416:256,1,100,0|0
464,272,138952,6,0,B|256:48|16:272,1,500
