osu file format v13

[General]
AudioFilename: Eels - I need some sleep.mp3
AudioLeadIn: 0
PreviewTime: 52593
Countdown: 0
SampleSet: Soft
StackLeniency: 0.6
Mode: 0
LetterboxInBreaks: 1
WidescreenStoryboard: 1

[Editor]
DistanceSpacing: 1
BeatDivisor: 4
GridSize: 32
TimelineZoom: 1

[Metadata]
Title:I Need Some Sleep
TitleUnicode:I Need Some Sleep
Artist:Eels
ArtistUnicode:Eels
Creator:Pjecoo
Version:Advanced
Source:Shrek 2
Tags:-Bakari- DreamWorks Mark Oliver Everett
BeatmapID:369795
BeatmapSetID:149667

[Difficulty]
HPDrainRate:4
CircleSize:4
OverallDifficulty:4
ApproachRate:5
SliderMultiplier:1.9
SliderTickRate:2

[Events]
//Background and Video events
0,0,"313076.jpg",0,0
//Break Periods
//Storyboard Layer 0 (Background)
//Storyboard Layer 1 (Fail)
//Storyboard Layer 2 (Pass)
//Storyboard Layer 3 (Foreground)
Sprite,Foreground,Centre,"SB\Lyrics\pj.png",320,240 F,0,7699,8871,0,1 F,0,8871,14495,1 M,0,14495,,165,389 F,0,14495,15432,1,0
//Storyboard Sound Samples

[TimingPoints]
328,937.5,4,2,1,35,1,0
15328,-100,4,2,1,35,0,1
15796,-100,4,2,1,35,0,0
26532,937.5,4,2,1,35,1,0
27515,937.5,4,2,1,35,1,0
30328,937.5,4,2,1,35,1,0
52828,-100,4,2,1,55,0,1
60328,-100,4,2,1,35,0,0
71578,-100,4,2,1,25,0,0
75328,-100,4,2,1,35,0,0
78999,937.5,4,2,1,35,1,0
79546,937.5,4,2,1,35,1,0
82828,937.5,4,2,1,35,1,0
97828,-100,4,2,1,55,0,1
105328,-100,4,2,1,55,0,0
112828,-100,4,2,1,55,0,1
124078,-100,4,2,1,35,0,0
144703,-100,4,2,1,5,0,0

[Colours]
Combo1 : 191,198,208
Combo2 : 208,194,179
Combo3 : 191,197,171

[HitObjects]
42,149,328,6,0,P|87:136|134:141,1,95,2|0,0:0|0:0,0:0:0:0:
216,189,1265,2,0,P|262:194|308:181,2,95,0|0|2,0:0|0:0|0:0,0:0:0:0:
148,122,2671,1,0,0:0:0:0:
75,183,3140,2,0,P|68:229|76:276,1,95
164,311,4078,6,0,L|257:293,1,95,2|0,0:0|0:0,0:0:0:0:
265,198,5015,2,0,L|171:215,1,95,0|0,0:0|0:0,0:0:0:0:
164,311,5953,1,2,0:0:0:0:
256,292,6421,2,0,P|302:286|348:298,2,95
164,311,7828,6,0,P|79:270|57:168,1,190,2|0,0:0|0:0,0:0:0:0:
57,88,9234,1,0,0:0:0:0:
151,98,9703,1,2,0:0:0:0:
208,169,10171,1,0,0:0:0:0:
295,135,10640,2,0,P|342:128|382:151,1,95
416,240,11578,5,2,0:0:0:0:
321,226,12046,1,0,0:0:0:0:
242,172,12515,2,0,P|233:125|250:81,1,95,0|0,0:0|0:0,0:0:0:0:
340,50,13453,2,0,L|434:42,2,95,2|0|0,0:0|0:0|0:0,0:0:0:0:
245,38,14859,1,0,0:0:0:0:
169,95,15328,6,0,P|149:137|154:183,1,95,2|0,0:0|0:0,0:0:0:0:
220,253,16265,1,0,0:0:0:0:
304,209,16734,1,0,0:0:0:0:
304,209,17203,2,0,L|398:202,1,95,2|0,0:0|0:0,0:0:0:0:
471,140,18140,2,0,B|462:96|487:96|472:46,1,95
380,71,19078,5,2,0:0:0:0:
319,144,19546,2,0,P|273:156|226:150,2,95,0|2|0,0:1|0:0|0:0,0:0:0:0:
380,71,20953,1,2,0:0:0:0:
446,138,21421,2,0,B|458:232,2,95,0|2|0,0:0|0:0|0:0,0:0:0:0:
380,71,22828,6,0,P|335:56|289:66,1,95,2|0,0:0|0:0,0:0:0:0:
265,159,23765,2,0,P|219:169|174:154,1,95,0|0,0:0|0:0,0:0:0:0:
95,206,24703,2,0,P|100:296|179:342,1,190,2|0,0:0|0:0,0:0:0:0:
270,314,26109,1,0,0:0:0:0:
348,259,26532,6,0,P|382:157|237:52,1,294,2|0,0:0|0:0,0:0:0:0:
158,46,28453,1,2,0:0:0:0:
173,142,28921,2,0,P|176:188|156:231,1,95,0|2,0:0|0:0,0:0:0:0:
94,303,29859,1,0,0:0:0:0:
187,318,30328,5,2,0:0:0:0:
280,325,30796,2,0,P|392:252|355:124,1,285,0|2,0:0|0:0,0:0:0:0:
267,160,32671,1,0,0:0:0:0:
229,72,33140,1,2,0:0:0:0:
133,72,33609,1,0,0:0:0:0:
59,131,34078,6,0,P|42:175|52:221,1,95,2|0,0:0|0:0,0:0:0:0:
139,181,35015,1,2,0:0:0:0:
144,275,35484,1,0,0:0:0:0:
215,337,35953,2,0,P|308:335|375:270,1,190,2|2,0:0|0:0,0:0:0:0:
399,178,37359,1,0,0:0:0:0:
373,86,37828,5,2,0:0:0:0:
373,86,38296,2,0,B|242:21|243:137|98:82,1,285,0|2,0:0|0:0,2:0:0:0:
23,23,40171,1,0,0:0:0:0:
10,117,40640,1,2,0:0:0:0:
75,185,41109,1,0,0:0:0:0:
164,153,41578,6,0,L|258:149,1,95,2|0,0:0|0:0,0:0:0:0:
337,203,42515,2,0,P|348:248|333:292,1,95,0|0,0:0|0:0,0:0:0:0:
252,343,43453,1,2,0:0:0:0:
142,187,44390,1,0,0:0:0:0:
93,268,44859,1,0,0:0:0:0:
155,337,45328,6,0,P|202:344|245:326,1,95,2|0,0:0|0:0,0:0:0:0:
327,277,46265,2,0,P|370:259|416:265,2,95,0|0|2,0:0|0:0|0:0,0:0:0:0:
140,344,48140,1,0,0:0:0:0:
81,269,48609,1,0,0:0:0:0:
151,205,49078,6,0,P|159:158|142:114,1,95,2|0,0:0|0:0,0:0:0:0:
47,117,50015,2,0,P|30:72|38:26,2,95,0|0|2,0:0|0:0|0:0,0:0:0:0:
163,266,51890,1,2,0:0:0:0:
163,266,52359,1,0,0:0:0:0:
295,213,52828,6,0,P|331:130|279:56,1,190,2|8,3:2|0:0,0:0:0:0:
185,36,54234,1,0,0:0:0:0:
97,71,54703,2,0,P|60:154|112:228,1,190,2|8,0:0|0:0,0:0:0:0:
200,264,56109,1,0,0:0:0:0:
285,223,56578,6,0,L|335:39,1,190,2|8,0:0|0:0,0:0:0:0:
430,35,57984,1,0,0:0:0:0:
483,113,58453,2,0,L|432:296,1,190,2|8,0:0|0:0,0:0:0:0:
345,334,59859,2,8,P|298:334|283:326,2,47.5,0|8|2,0:0|0:0|0:0,0:0:0:0:
377,195,61031,5,0,0:0:0:0:
377,195,61265,2,0,P|389:146|346:83,1,95
291,57,62203,2,0,L|196:51,1,95,2|0,0:0|0:0,0:0:0:0:
111,94,63140,1,0,0:0:0:0:
81,183,63609,6,0,L|78:235,2,47.5
111,94,64546,1,0,0:0:0:0:
199,64,65015,2,0,P|246:54|290:70,1,95,2|0,0:0|0:0,0:0:0:0:
343,149,65953,2,0,P|318:224|196:243,1,190,2|0,0:0|0:0,0:0:0:0:
43,178,67828,5,2,0:0:0:0:
91,97,68296,2,0,P|135:78|181:86,1,95,0|8,0:0|0:0,0:0:0:0:
264,132,69234,1,0,0:0:0:0:
332,197,69703,2,0,P|378:204|421:186,2,95,2|0|8,0:0|0:0|0:0,0:0:0:0:
264,132,71109,1,0,0:0:0:0:
256,192,71578,12,8,74390,0:0:0:0:
96,121,75328,5,2,0:0:0:0:
129,209,75796,2,0,P|173:229|226:213,1,95,0|8,0:0|0:0,0:0:0:0:
279,134,76734,1,0,0:0:0:0:
372,148,77203,2,0,P|416:129|474:133,2,95,2|0|8,0:0|0:0|0:0,0:0:0:0:
327,232,78609,1,0,0:0:0:0:
252,288,78999,6,0,P|190:307|137:286,1,111,2|2,0:0|0:0,0:0:0:0:
101,210,80014,1,8,0:0:0:0:
195,175,80483,1,2,0:0:0:0:
289,191,80952,1,2,0:0:0:0:
376,154,81421,1,2,0:0:0:0:
376,154,81889,2,0,L|391:247,1,95,8|0,0:0|0:0,0:0:0:0:
396,271,82592,1,8,0:0:0:0:
400,294,82828,5,2,0:0:0:0:
320,345,83296,1,0,0:0:0:0:
277,259,83765,2,0,P|205:203|120:236,2,190,8|2|8,0:0|0:0|0:0,0:0:0:0:
191,301,86109,1,0,0:0:0:0:
101,333,86578,6,0,P|58:313|32:274,1,95,2|0,0:0|0:0,0:0:0:0:
44,181,87515,1,8,0:0:0:0:
88,96,87984,2,0,L|135:119,1,47.5,2|0,0:0|0:0,0:0:0:0:
170,139,88453,2,0,B|264:146,1,95,2|0,0:0|0:0,0:0:0:0:
368,125,89390,1,8,0:0:0:0:
368,125,90328,6,0,P|440:181|425:271,1,190,2|8,0:0|0:0,0:0:0:0:
345,323,91734,2,0,P|297:320|255:340,2,95,0|2|0,0:0|0:0|0:0,0:0:0:0:
434,355,93140,1,8,0:0:0:0:
474,169,94078,6,8,P|468:78|388:33,1,190,2|8,0:0|0:0,0:0:0:0:
294,47,95484,2,0,L|199:54,2,95,0|2|0,0:0|0:0|0:0,0:0:0:0:
350,123,96890,1,12,0:0:0:0:
397,205,97359,1,8,0:0:0:0:
397,205,97593,1,8,0:0:0:0:
397,205,97828,6,8,P|371:292|284:320,1,190,2|8,0:0|0:0,0:0:0:0:
201,273,99234,1,0,0:0:0:0:
158,187,99703,2,8,P|183:99|270:71,1,190,2|8,0:0|0:0,0:0:0:0:
357,106,101109,1,0,0:0:0:0:
432,163,101578,6,0,P|477:153|507:118,2,95,2|0|8,0:0|0:0|0:0,0:0:0:0:
357,106,102984,1,0,0:0:0:0:
317,132,103218,2,8,L|311:179,1,47.5,8|2,0:0|0:0,0:0:0:0:
236,238,103921,1,0,0:0:0:0:
293,313,104390,2,0,L|388:308,1,95,8|0,0:0|0:0,0:0:0:0:
460,245,105328,6,8,P|486:157|432:83,1,190,2|8,0:0|0:0,0:0:0:0:
342,114,106734,2,8,L|338:161,2,47.5,0|8|2,0:0|0:0|0:0,0:0:0:0:
279,42,107671,1,0,0:0:0:0:
184,30,108140,1,8,0:0:0:0:
115,96,108609,1,0,0:0:0:0:
95,188,109078,6,8,P|111:278|191:322,1,190,2|8,0:0|0:0,0:0:0:0:
285,308,110484,2,8,L|358:296,1,47.5,0|8,0:0|0:0,0:0:0:0:
377,287,110953,2,0,P|388:241|373:197,1,95,2|0,0:0|0:0,0:0:0:0:
333,110,111890,1,12,0:0:0:0:
257,171,112359,1,8,0:0:0:0:
257,171,112593,1,0,0:0:0:0:
257,171,112828,5,2,0:0:0:0:
153,112,113296,2,0,P|134:155|142:201,1,95,0|8,0:0|0:0,0:0:0:0:
204,274,114234,2,0,L|163:322,1,47.5,0|8,0:0|0:0,0:0:0:0:
141,345,114703,1,2,0:0:0:0:
56,301,115171,2,0,P|36:258|41:211,1,95,0|8,0:0|0:0,0:0:0:0:
101,137,116109,1,0,0:0:0:0:
195,126,116578,5,2,0:0:0:0:
289,117,117046,1,0,0:0:0:0:
348,189,117515,2,0,P|357:236|340:279,1,95,8|0,0:0|0:0,0:0:0:0:
298,302,118218,2,8,L|250:304,1,47.5,8|2,0:0|0:0,0:0:0:0:
156,287,118921,1,0,0:0:0:0:
178,194,119390,1,8,0:0:0:0:
83,204,119859,1,0,0:0:0:0:
113,115,120328,6,0,P|188:62|278:85,1,190,2|8,0:0|0:0,0:0:0:0:
329,165,121734,2,0,L|334:212,2,47.5,0|8|2,0:0|0:0|0:0,0:0:0:0:
397,98,122671,1,0,0:0:0:0:
317,45,123140,2,0,P|270:35|223:38,1,95,8|0,0:0|0:0,0:0:0:0:
137,78,124078,5,2,0:0:0:0:
94,163,124546,2,0,L|88:257,2,95,0|8|0,0:0|0:0|0:0,0:0:0:0:
86,140,125718,1,8,0:0:0:0:
77,117,125953,1,2,0:0:0:0:
143,48,126421,2,0,P|188:36|234:47,1,95,0|8,0:0|0:0,0:0:0:0:
311,103,127359,1,0,0:0:0:0:
379,169,127828,6,0,L|374:263,1,95,2|0,0:0|0:0,0:0:0:0:
415,349,128765,1,8,0:0:0:0:
319,347,129234,2,0,L|272:338,2,47.5,0|8|2,0:0|0:0|0:0,0:0:0:0:
415,349,130171,2,0,P|439:308|442:261,1,95,0|8,0:0|0:0,0:0:0:0:
478,173,131109,1,0,0:0:0:0:
411,105,131578,5,2,0:0:0:0:
411,105,132046,2,0,P|363:107|320:87,1,95,0|8,0:0|0:0,0:0:0:0:
235,45,132984,2,0,L|187:39,2,47.5,0|8|2,0:0|0:0|0:0,0:0:0:0:
240,139,133921,1,0,0:0:0:0:
153,177,134390,2,0,P|140:227|159:276,1,95,8|0,0:0|0:0,0:0:0:0:
236,312,135328,6,0,P|282:313|346:278,1,95
376,213,136265,1,8,0:0:0:0:
320,135,136734,2,0,L|320:82,2,47.5,0|8|2,0:0|0:0|0:0,0:0:0:0:
268,215,137671,2,0,P|224:233|177:232,1,95,0|8,0:0|0:0,0:0:0:0:
91,192,138609,1,0,0:0:0:0:
91,192,138843,1,0,0:0:0:0:
91,192,139078,2,0,B|117:143|170:124|219:141|219:141|258:103,1,190
256,192,140953,12,0,144703,0:0:0:0:
