osu file format v5

[General]
AudioFilename: 777.mp3
AudioLeadIn: 1500
PreviewTime: -1
Countdown: 0
SampleSet: Soft
StackLeniency: 0.2
Mode: 0
LetterboxInBreaks: 1

[Metadata]
Title:777
Artist:EeL
Creator:Takuma
Version:Insane
Source:
Tags:

[Difficulty]
HPDrainRate:5
CircleSize:5
OverallDifficulty:5
SliderMultiplier:1.4
SliderTickRate:1

[Events]
//Background and Video events
0,0,"777new3.png"
//Break Periods
2,64590,70990
//Storyboard Layer 0 (Background)
//Storyboard Layer 1 (Failing)
//Storyboard Layer 2 (Passing)
//Storyboard Layer 3 (Foreground)
//Storyboard Sound Samples
//Background Colour Transformations
3,100,163,162,255

[TimingPoints]
8590,300,4,2,0,50,1,0
9750,-100,4,1,0,100,0,0
54752,-100,4,1,0,100,0,0
93750,-200,4,2,0,100,0,0

[Colours]
Combo1 : 255,193,100
Combo2 : 126,248,133
Combo3 : 108,165,249
Combo4 : 250,141,211

[HitObjects]
128,320,8590,1,0
128,320,8740,1,0
192,320,8890,1,0
192,320,9040,1,0
192,256,9190,1,0
192,256,9340,1,0
256,256,9490,1,0
256,256,9640,5,0
256,192,9790,2,0,B|320:144|400:200,2,140,4|0|0
168,104,10690,2,0,B|120:48|120:184|32:96,1,140
24,168,11140,1,0
24,168,11290,1,0
24,168,11440,1,0
24,232,11590,2,0,B|96:232,1,70
160,232,11890,6,0,B|160:312,1,70
216,336,12190,2,0,B|360:240,1,140
384,296,12640,1,0
332,259,12790,2,0,B|332:99,1,140
332,119,13240,1,0
336,56,13390,2,0,B|256:56,1,70
200,56,13690,2,0,B|200:136,1,70
136,128,13990,6,0,B|64:128|24:208,1,140,4|4
32,264,14440,1,0
96,264,14590,2,0,B|168:264,1,70,4|0
232,264,14890,2,0,B|232:184,1,70
296,192,15190,2,0,B|368:192,1,70
368,256,15490,2,0,B|440:256,1,70
440,192,15790,2,0,B|440:112,1,70
440,56,16090,6,0,B|368:56,1,70
304,56,16390,2,0,B|248:104,1,70
200,144,16690,2,0,B|128:144,1,70
64,144,16990,2,0,B|64:96|16:96,1,70
64,144,17290,2,0,B|64:200|104:200,1,70
152,224,17590,2,0,B|152:296,1,70
216,312,17890,2,0,B|216:240,1,70
240,184,18190,5,0
280,136,18340,1,0
344,136,18490,1,0
384,184,18640,1,0
424,136,18790,1,4
424,136,19090,1,4
344,40,19390,2,0,B|192:40,1,140
204,40,19840,5,0
136,40,19990,2,0,B|136:112,1,70
136,176,20290,1,0
136,176,20590,2,0,B|216:176,1,70
272,176,20890,2,0,B|272:248,1,70
272,312,21190,2,0,B|352:312|352:240|424:240,1,140
456,216,21640,1,0
456,144,21790,6,0,B|456:64|360:24,1,140
312,32,22240,1,0
248,64,22390,2,0,B|304:96|232:112,2,70
104,64,22990,2,0,B|104:152,1,70
168,120,23290,2,0,B|168:192,1,70
240,192,23590,2,0,B|384:192,1,140,4|4
448,192,24040,1,0
448,264,24190,6,0,B|392:344|328:272,1,140
264,280,24640,1,0
192,280,24790,2,0,B|192:360,2,70
80,192,25390,2,0,B|40:128|128:136|80:48,1,140
152,48,25840,1,0
200,96,25990,2,0,B|264:56|304:128|360:72,1,140
408,88,26440,1,0
408,88,26590,5,0
408,224,26890,1,0
264,224,27190,1,0
408,224,27490,1,0
408,88,27790,1,0
336,88,27940,1,0
336,88,28015,1,0
336,88,28090,5,0
264,88,28240,1,0
192,104,28390,1,0
128,128,28540,1,0
80,184,28690,1,0
72,256,28840,1,0
72,328,28990,1,4
208,328,29290,5,0
208,184,29590,1,0
344,184,29890,1,0
344,40,30190,2,0,B|416:40,1,70
464,88,30490,2,0,B|464:160,1,70
464,224,30790,2,0,B|400:296|312:248,1,140
272,240,31240,1,0
208,216,31390,6,0,B|128:168|112:288,1,140
184,280,31840,1,0
208,216,31990,2,0,B|296:152|216:96,1,140
352,48,32590,1,0
424,48,32740,2,0,B|424:128,1,70
424,184,33040,1,0
424,256,33190,2,0,B|368:200|360:312|288:248,1,140,4|4
296,112,33790,5,0
208,224,34090,1,0
120,112,34390,1,0
120,184,34540,1,0
48,184,34690,2,0,B|48:336,1,140
120,320,35140,2,0,B|192:320,2,70
190,320,35590,2,0,B|312:232,1,140,4|4
432,184,36190,6,0,B|432:40,1,140
288,48,36790,2,0,B|136:48,1,140
144,184,37390,1,0
184,240,37540,1,0
224,184,37690,1,0
264,240,37840,1,0
336,240,37990,1,4
384,184,38140,5,4
432,136,38290,1,0
432,136,38590,2,0,B|336:32|280:192|152:88,1,280
112,56,39340,2,0,B|56:112,1,70,0|0
16,232,39790,2,0,B|125:322|181:162|277:266,1,280
328,312,40540,2,0,B|400:256,1,70
464,160,40990,2,0,B|320:160,1,140
360,96,41440,6,0,B|216:96,1,140
152,96,41890,2,0,B|152:176,1,70
200,216,42190,1,0
152,272,42340,1,0
200,320,42490,1,0
200,320,42640,2,0,B|256:368|336:304,1,140
384,272,43090,2,0,B|336:208|464:200|344:112,1,140,0|4
336,88,43540,5,0
336,88,43690,1,0
336,88,43840,1,0
336,88,43990,1,0
72,192,44590,2,0,B|32:160|72:120,1,70,0|0
72,192,44890,2,0,B|104:224|72:256,1,70
72,192,45190,2,0,B|216:88|344:184,1,280,0|4
392,200,45940,5,0
448,240,46090,2,0,B|488:312,2,70
392,280,46540,1,0
336,320,46690,1,0
280,280,46840,1,0
208,280,46990,1,4
136,280,47140,1,4
136,208,47290,5,0
64,208,47440,1,4
64,136,47590,2,4,B|144:136,1,70,0|0
200,136,47890,2,4,B|200:48,1,70,4|0
272,64,48190,2,0,B|384:136|272:192|488:240,1,280
473,236,48940,2,0,B|448:312,1,70
312,312,49390,2,0,B|224:232|128:368|40:296,1,280
46,300,50140,6,0,B|88:232,1,70
136,112,50590,2,0,B|280:112,1,140
248,176,51040,2,0,B|392:176,1,140
456,176,51490,2,0,B|456:248,1,70
384,248,51790,1,4
384,248,51940,1,4
312,248,52090,1,0
240,248,52240,6,0,B|240:320,2,70,4|0|0
168,248,52690,2,0,B|128:184|112:288|40:232,1,140,0|4
48,168,53140,1,0
48,168,53290,1,0
48,168,53440,1,0
48,168,53590,1,0
120,168,53740,2,0,B|120:88,1,70
120,24,54040,5,0
192,24,54190,2,0,B|192:200,1,140,4|4
472,168,54752,1,0
344,336,55052,1,0
136,336,55352,1,4
80,288,55502,1,0
136,240,55652,1,0
136,96,55952,5,0
184,144,56102,1,0
232,96,56252,1,0
368,96,56552,1,0
416,144,56702,1,0
368,192,56852,1,0
296,192,57002,1,0
296,264,57152,6,0,B|216:264,1,70
152,264,57452,2,0,B|96:208,1,70
48,168,57752,2,0,B|48:24,1,140
120,32,58202,1,0
192,32,58352,2,0,B|336:32,1,140
400,32,58802,1,0
472,32,58952,2,0,B|472:104,3,70
473,101,59552,6,0,B|385:95|345:167,1,140
304,208,60002,1,0
304,280,60152,2,0,B|240:344|160:280,1,140,4|0
64,208,60752,2,0,B|64:56,1,140
136,72,61202,1,0
136,144,61352,1,0
208,144,61502,1,0
256,96,61652,5,0
304,144,61802,1,0
360,96,61952,1,0
408,144,62102,1,0
360,96,62252,1,0
304,144,62402,1,0
256,96,62552,1,0
208,224,62852,5,0
136,224,63002,1,0
136,296,63152,1,0
208,296,63302,1,0
208,296,63377,1,0
208,296,63452,1,0
208,296,63602,1,0
280,296,63752,6,0,B|280:216,1,70,4|0
352,224,64052,1,4
352,296,64202,1,0
424,296,64352,1,4
256,192,72190,12,4,74590
256,192,74740,6,0,B|256:120,1,70
256,48,75040,2,0,B|328:48,1,70
392,48,75340,2,0,B|392:128,1,70
464,120,75640,2,0,B|464:200,1,70
392,192,75940,2,0,B|312:192,1,70
320,264,76240,2,0,B|248:264,1,70
176,264,76540,2,0,B|120:312,1,70
64,264,76840,6,0,B|64:168,1,70
64,120,77140,2,0,B|136:120,1,70
200,120,77440,2,0,B|200:48,1,70
272,48,77740,2,0,B|344:48,1,70
344,120,78040,2,0,B|344:192,1,70
416,192,78340,2,0,B|496:192,1,70
488,264,78640,2,0,B|488:336,1,70
416,336,78940,6,0,B|336:336,2,70
346,336,79390,2,0,B|288:280,1,70
256,232,79690,1,0
216,288,79840,1,0
144,288,79990,2,0,B|64:288,1,70
16,248,80290,1,0
72,208,80440,1,0
72,136,80590,6,0,B|72:64,1,70
144,64,80890,2,0,B|144:144,1,70
216,136,81190,2,0,B|264:136,6,35
216,208,81790,2,0,B|296:208,1,70
264,272,82090,2,0,B|344:272,1,70
400,272,82390,2,0,B|400:200,1,70
448,152,82690,2,0,B|392:208,1,70
328,200,82990,5,0
328,128,83140,1,0
328,200,83290,1,0
328,128,83440,1,0
328,200,83590,1,0
328,128,83740,1,0
328,200,83890,1,0
328,128,84040,5,0
256,128,84190,2,0,B|192:72|120:136,1,140,4|0
80,176,84640,1,0
80,248,84790,2,0,B|80:320,2,70
152,248,85240,2,0,B|296:248,1,140
352,288,85690,2,0,B|352:136,1,140
352,80,86140,1,0
280,80,86290,5,0
280,152,86440,1,0
280,80,86590,2,0,B|184:32|120:120,1,140
192,144,87040,2,0,B|120:200|48:152,1,140
16,216,87490,1,0
64,272,87640,1,0
200,272,87940,1,0
272,272,88090,5,0
200,272,88240,1,0
200,344,88390,1,4
352,344,88690,2,0,B|456:224,1,140,0|4
488,184,89140,1,0
448,128,89290,2,0,B|368:128,2,70
448,56,89740,1,0
376,56,89890,5,0
304,56,90040,2,0,B|304:208,1,140
232,192,90490,1,0
232,264,90640,1,0
160,264,90790,2,0,B|160:184,1,70
88,192,91090,2,0,B|88:120,1,70
88,48,91390,1,0
88,48,91690,5,0
224,48,91990,1,0
264,104,92140,1,0
304,48,92290,1,0
376,48,92440,2,0,B|376:200,1,140
448,192,92890,2,0,B|448:120,2,70,0|0|4
448,328,93490,2,0,B|272:328,1,140,0|4
264,272,94090,5,0
192,272,94390,1,0
144,224,94690,1,0
144,224,94840,1,0
192,176,95140,1,0
192,176,95290,1,0
192,104,95590,2,0,B|224:64|272:128,1,70
280,168,96190,6,0,B|344:216|424:160,4,140
240,224,98890,1,0
280,280,99190,1,0
352,280,99490,1,0
352,280,99640,1,0
400,224,99940,1,0
400,224,100090,1,0
400,224,100240,5,0
400,224,100390,2,0,B|400:144,1,70
400,80,100990,2,0,B|336:40|264:96,1,140
224,144,101890,1,0
224,144,102040,2,0,B|184:184|160:112|120:176,1,105
80,216,102790,1,0
128,264,103090,1,2
