osu file format v9

[General]
AudioFilename: Edward Maya & Vika Jigulina - Stereo Love.mp3
AudioLeadIn: 1500
PreviewTime: 120994
Countdown: 0
SampleSet: Soft
StackLeniency: 0.7
Mode: 0
LetterboxInBreaks: 0
EpilepsyWarning: 1

[Editor]
DistanceSpacing: 0.8
BeatDivisor: 4
GridSize: 8

[Metadata]
Title:Stereo Love
Artist:Edward Maya feat. Vika Jigulina
Creator:Barney Stinson
Version:Normal
Source:
Tags:Lolicore Flandre NeoRainier HellDawn

[Difficulty]
HPDrainRate:4
CircleSize:3
OverallDifficulty:3
ApproachRate:4
SliderMultiplier:1.4
SliderTickRate:2

[Events]
//Background and Video events
0,0,"bg.jpg"
//Break Periods
2,30285,32780
2,113670,119709
//Storyboard Layer 0 (Background)
Sprite,Background,Centre,"bg.jpg",320,240 F,0,0,,0
Sprite,Background,Centre,"SB\bg.jpg",320,240 F,0,121029,,1 S,0,121029,,0.8 F,0,151266,,1
Sprite,Background,Centre,"SB\bg2-pulse.jpg",320,240 F,0,31502,32447,0,1 F,0,120557,120911,1,0
//Storyboard Layer 1 (Fail)
//Storyboard Layer 2 (Pass)
//Storyboard Layer 3 (Foreground)
Sprite,Foreground,Centre,"Lyrics\L1.png",320,240 F,0,4346,4583,0,1 M,0,4346,11433,280,82,390,126 S,0,4346,11433,0.90784,0.8054402 F,0,4583,10961,1 F,0,10961,11433,1,0
Sprite,Foreground,Centre,"Lyrics\L2.png",320,240 M,0,5754,11423,468,219,377,228 F,0,5764,6000,0,1 S,0,5764,11433,1,1.2048 F,0,6000,10961,1 F,0,10961,11433,1,0 M,0,11423,11438,377,228,407,229
Sprite,Foreground,Centre,"Lyrics\L3.png",320,240 S,0,7171,7407,2.13664,1.39936 F,0,7181,7417,0,1 S,0,7407,11423,1.39936,1.04096 F,0,7417,10961,1 F,0,10961,11433,1,0 M,0,11423,,199,369
Sprite,Foreground,Centre,"Lyrics\L4.png",320,240 F,0,11669,11906,0,1 M,0,11669,18992,418,413,281,413 F,0,11906,18520,1 F,0,18520,18992,1,0
Sprite,Foreground,Centre,"Lyrics\L5.png",320,240 F,0,13559,13795,0,1 M,0,13559,18992,342,292,638,293 F,0,13795,18520,1 S,0,15213,18992,1,0.8054398 F,0,18520,18992,1,0
Sprite,Foreground,Centre,"Lyrics\L6.png",320,240 F,0,14976,15213,0,1 M,0,14976,18047,666,156,520,152 S,0,14976,18047,0.8259199,1.204193 F,0,15213,18520,1 M,0,18047,18992,520,152,387,164 S,0,18047,18992,1.204193,0.9590399 F,0,18520,18992,1,0
Sprite,Foreground,Centre,"Lyrics\L7.png",320,240 F,0,19228,19465,0,1 M,0,19228,25370,306,241,309,412 S,0,19228,25370,0.7644797,1.01024 F,0,19465,24898,1 F,0,24898,25370,1,0
Sprite,Foreground,Centre,"Lyrics\L8.png",320,240 F,0,21118,21354,0,1 M,0,21118,25370,482,216,544,61 S,0,21118,25370,1,1.26624 F,0,21354,24898,1 F,0,24898,25370,1,0
Sprite,Foreground,Centre,"Lyrics\L9.png",320,240 F,0,22181,22299,0 F,0,22299,22535,0,1 M,0,22299,25370,460,250,679,247 S,0,22299,25370,0.7235199,1.67584 F,0,22535,24898,1 F,0,24898,25370,1,0 M,0,25370,,679,247
Sprite,Foreground,Centre,"Lyrics\L12.png",320,240 R,0,25606,,-1.576959 F,0,25606,25843,0,1 M,0,25606,27496,98,148,99,66 F,0,25843,27260,1 F,0,27260,27496,1,0
Sprite,Foreground,Centre,"Lyrics\L12.png",320,240 R,0,27496,,1.576961 F,0,27496,27732,0,1 M,0,27496,28913,488,350,490,428 F,0,27732,28677,1 F,0,28677,28913,1,0 F,0,28913,,0
Sprite,Foreground,Centre,"Lyrics\L13.png",320,240 F,0,29150,31748,1 M,0,29150,31984,547,116,614,115 S,0,29150,31984,1,1.27648 F,0,31748,31984,1,0
Sprite,Foreground,Centre,"Lyrics\L14.png",320,240 M,0,29622,31984,652,240,570,244 S,0,29622,31984,1.48128,1.16384 F,0,31748,31984,1,0
Sprite,Foreground,Centre,"Lyrics\L15.png",320,240 M,0,30095,32220,502,366,615,381 S,0,30095,32220,1,1.50176 F,0,31748,32220,1,0
Sprite,Foreground,Centre,"SB\Girl1.png",320,240 L,0,3 F,0,45921,46394,1,0 S,0,45921,46394,1,1.0512 L,1880,3 F,0,45921,46394,1,0 S,0,45921,46394,1,1.0512 L,3780,3 F,0,45921,46394,1,0 S,0,45921,46394,1,1.0512 L,5670,3 F,0,45921,46394,1,0 S,0,45921,46394,1,1.0512 L,7550,3 F,0,45921,46394,1,0 S,0,45921,46394,1,1.0512 L,9440,3 F,0,45921,46394,1,0 S,0,45921,46394,1,1.0512 L,11320,3 F,0,45921,46394,1,0 S,0,45921,46394,1,1.0512 L,13200,3 F,0,45921,46394,1,0 S,0,45921,46394,1,1.0512
Sprite,Foreground,Centre,"SB\bg2-pulse.jpg",320,240 L,0,1 F,0,47339,47811,1,0 S,0,47339,47811,1,1.06144 L,1880,1 F,0,47339,47811,1,0 S,0,47339,47811,1,1.06144 L,3780,1 F,0,47339,47811,1,0 S,0,47339,47811,1,1.06144 L,5660,1 F,0,47339,47811,1,0 S,0,47339,47811,1,1.06144 L,7560,1 F,0,47339,47811,1,0 S,0,47339,47811,1,1.06144 L,9440,1 F,0,47339,47811,1,0 S,0,47339,47811,1,1.06144 L,11330,1 F,0,47339,47811,1,0 S,0,47339,47811,1,1.06144
Sprite,Foreground,Centre,"SB\Girl1-L.png",320,240 L,0,1 F,0,60567,61512,1,0 S,0,60567,61512,1,1.13312 L,1880,1 F,0,60567,61512,1,0 S,0,60567,61512,1,1.13312 L,3780,1 F,0,60567,61512,1,0 S,0,60567,61512,1,1.13312 L,5660,1 F,0,60567,61512,1,0 S,0,60567,61512,1,1.13312 L,7560,1 F,0,60567,61512,1,0 S,0,60567,61512,1,1.13312 L,9440,1 F,0,60567,61512,1,0 S,0,60567,61512,1,1.13312 L,11330,1 F,0,60567,61512,1,0 S,0,60567,61512,1,1.13312 L,13220,1 F,0,60567,61512,1,0 S,0,60567,61512,1,1.13312
Sprite,Foreground,Centre,"SB\Girl1-L.png",320,240 L,0,1 F,0,90803,91748,1,0 L,1880,1 F,0,90803,91748,1,0 L,3780,1 F,0,90803,91748,1,0
Sprite,Foreground,Centre,"SB\Girl1-L.png",320,240 L,0,1 F,0,96472,97417,1,0 S,0,96472,97417,1,1.04096 L,1880,1 F,0,96472,97417,1,0 S,0,96472,97417,1,1.04096 L,3780,1 F,0,96472,97417,1,0 S,0,96472,97417,1,1.04096
Sprite,Foreground,Centre,"SB\Girl1-L.png",320,240 L,0,1 F,0,102142,103087,1,0 L,1880,1 F,0,102142,103087,1,0
Sprite,Foreground,Centre,"SB\Girl1-L.png",320,240 F,0,105921,107339,1,0 S,0,105921,107339,1,1.07168
Sprite,Foreground,TopRight,"SB\lightright.png",640,0 L,0,1 F,0,105921,106394,1,0 L,1880,1 F,0,105921,106394,1,0 L,3780,1 F,0,105921,106394,1,0 L,5660,1 F,0,105921,106394,1,0 L,7560,1 F,0,105921,106394,1,0
Sprite,Foreground,TopLeft,"SB\lightleft.png",0,0 F,0,115370,116315,1,0
Sprite,Foreground,TopRight,"SB\lightright.png",640,0 F,0,117260,118205,1,0
Sprite,Foreground,TopLeft,"SB\lightleft.png",0,0 F,0,119150,120095,1,0
Sprite,Foreground,TopRight,"SB\lightright.png",640,0 F,0,119150,120095,1,0
Sprite,Foreground,Centre,"SB\effectwhite.png",320,240 S,0,120803,121039,0.1,2.9 F,0,120803,121147,1,0
Sprite,Foreground,Centre,"SB\Flowers.png",275,323 L,0,1 F,0,121984,122929,1,0 S,0,121984,122929,1,1.08 L,1880,1 F,0,121984,122929,1,0 S,0,121984,122929,1,1.08 L,3780,1 F,0,121984,122929,1,0 S,0,121984,122929,1,1.08 L,5660,1 F,0,121984,122929,1,0 S,0,121984,122929,1,1.08 L,7550,1 F,0,121984,122929,1,0 S,0,121984,122929,1,1.08 L,9440,1 F,0,121984,122929,1,0 S,0,121984,122929,1,1.08 L,11330,1 F,0,121984,122929,1,0 S,0,121984,122929,1,1.08 L,13220,1 F,0,121984,122929,1,0 S,0,121984,122929,1,1.08 L,13220,1 F,0,121984,122929,1,0 S,0,121984,122929,1,1.08 L,15110,1 F,0,121984,122929,1,0 S,0,121984,122929,1,1.08 L,17000,1 F,0,121984,122929,1,0 S,0,121984,122929,1,1.08 L,18890,1 F,0,121984,122929,1,0 S,0,121984,122929,1,1.08 L,20780,1 F,0,121984,122929,1,0 S,0,121984,122929,1,1.08 L,22670,1 F,0,121984,122929,1,0 S,0,121984,122929,1,1.08 L,24560,1 F,0,121984,122929,1,0 S,0,121984,122929,1,1.08 L,26450,1 F,0,121984,122929,1,0 S,0,121984,122929,1,1.08
Sprite,Foreground,Centre,"SB\Girl.png",248,265 L,0,1 F,0,122929,123402,1,0 S,0,122929,123402,1,1.06 L,1880,1 F,0,122929,123402,1,0 S,0,122929,123402,1,1.06 L,3780,1 F,0,122929,123402,1,0 S,0,122929,123402,1,1.06 L,5660,1 F,0,122929,123402,1,0 S,0,122929,123402,1,1.06 L,7550,1 F,0,122929,123402,1,0 S,0,122929,123402,1,1.06 L,9440,1 F,0,122929,123402,1,0 S,0,122929,123402,1,1.06 L,11330,1 F,0,122929,123402,1,0 S,0,122929,123402,1,1.06 L,13220,1 F,0,122929,123402,1,0 S,0,122929,123402,1,1.06 L,15110,1 F,0,122929,123402,1,0 S,0,122929,123402,1,1.06 L,17000,1 F,0,122929,123402,1,0 S,0,122929,123402,1,1.06 L,18890,1 F,0,122929,123402,1,0 S,0,122929,123402,1,1.06 L,20780,1 F,0,122929,123402,1,0 S,0,122929,123402,1,1.06 L,22670,1 F,0,122929,123402,1,0 S,0,122929,123402,1,1.06 L,24560,1 F,0,122929,123402,1,0 S,0,122929,123402,1,1.06
Sprite,Foreground,Centre,"SB\bg-pulse.jpg",320,240 F,0,149386,150331,1,0 S,0,149386,150331,1,1.07168
Sprite,Foreground,Centre,"SB\bg3.jpg",320,240 F,0,151276,,1 F,0,181276,181748,1,0
Sprite,Foreground,Centre,"SB\Girl2.png",320,240 L,0,56 F,0,151276,151748,1,0 S,0,151276,151748,1,1.03072
Sprite,Foreground,Centre,"Lyrics\L16.png",320,240 S,0,151276,,0.7951999 M,0,151276,153402,466,419,411,420 F,0,153165,153402,1,0
Sprite,Foreground,Centre,"Lyrics\L17.png",320,240 S,0,153638,,0.8259199 F,0,153638,153874,0,1 M,0,153638,155045,231,92,307,92 F,0,153874,154819,1 F,0,154819,155055,1,0
Sprite,Foreground,Centre,"Lyrics\L18.png",320,240 F,0,154346,154583,0,1 M,0,154346,155528,177,200,220,200 S,0,154583,,0.9999999 F,0,154583,155291,1 F,0,155291,155528,1,0
Sprite,Foreground,Centre,"Lyrics\L19.png",320,240 F,0,154583,154819,0,1 M,0,154583,155764,153,260,132,260 F,0,154819,155528,1 F,0,155528,155764,1,0
Sprite,Foreground,Centre,"Lyrics\20.png",320,240 M,0,154809,155764,249,293,252,346 F,0,154819,155055,0,1 F,0,155055,155528,1 F,0,155528,155764,1,0
Sprite,Foreground,Centre,"Lyrics\L21.png",320,240 F,0,155291,155528,0,1 M,0,155291,157407,276,108,352,108 F,0,155528,157181,1 F,0,157181,157417,1,0
Sprite,Foreground,Centre,"Lyrics\23.png",320,240 F,0,155528,155764,0,1 M,0,155528,157407,268,178,342,178 F,0,155764,157181,1 F,0,157181,157417,1,0
Sprite,Foreground,Centre,"Lyrics\L23.png",320,240 F,0,155764,156000,0,1 M,0,155764,157417,232,293,322,293 S,0,155764,157417,1,1.1024 F,0,156000,157181,1 F,0,157181,157417,1,0
Sprite,Foreground,Centre,"Lyrics\L24.png",320,240 F,0,156236,156472,0.9027199,1 M,0,156236,157417,447,361,378,361 F,0,156472,157181,1 F,0,157181,157417,1,0
Sprite,Foreground,Centre,"Lyrics\L25.png",320,240 F,0,156472,156709,0,1 M,0,156472,157417,139,358,194,358 S,0,156472,157417,1,1.1024 F,0,156709,157181,1 F,0,157181,157417,1,0
Sprite,Foreground,Centre,"Lyrics\L26.png",320,240 S,0,157417,,0.8668799 F,0,157417,157654,0,1 M,0,157417,159307,444,421,377,421 F,0,157654,159071,1 F,0,159071,159307,1,0
Sprite,Foreground,Centre,"Lyrics\L27.png",320,240 S,0,159307,,0.8361599 F,0,159307,159543,0,1 M,0,159307,161197,367,81,434,80 F,0,159543,160961,1 F,0,160961,161197,1,0
Sprite,Foreground,Centre,"Lyrics\L28.png",320,240 S,0,161197,,0.8873599 F,0,161197,161433,0,1 M,0,161197,162850,445,421,391,420 F,0,161433,162614,1 F,0,162614,162850,1,0
Sprite,Foreground,Centre,"Lyrics\L29.png",320,240 S,0,162850,,0.80544 F,0,162850,163087,0,1 M,0,162850,164976,355,77,407,78 F,0,163087,164740,1 F,0,164740,164976,1,0
Sprite,Foreground,Centre,"Lyrics\L31.png",320,240 M,0,164966,166157,262,199,312,199 F,0,164976,165213,0,0.9385599 S,0,164976,166157,1,1.06144 F,0,165213,165921,0.9385599 F,0,165921,166157,0.9385599,0
Sprite,Foreground,Centre,"Lyrics\31.png",320,240 F,0,165685,165921,0,1 M,0,165685,166866,370,295,307,295 S,0,165685,166866,1,1.09216 F,0,165921,166276,1 F,0,166276,166630,1 F,0,166630,166866,1,0
Sprite,Foreground,Centre,"Lyrics\L32.png",320,240 S,0,166866,,0.8054401 F,0,166866,167102,0,1 M,0,166866,168756,403,419,366,421 F,0,167102,168520,1 F,0,168520,168756,1,0
Sprite,Foreground,Centre,"Lyrics\L34.png",320,240 S,0,168756,,0.77472 F,0,168756,168992,0,1 M,0,168756,171354,332,77,385,77 F,0,168992,171118,1 F,0,171118,171354,1,0
Sprite,Foreground,Centre,"Lyrics\L35.png",320,240 S,0,170409,,0.91808 F,0,170409,170646,0,1 M,0,170409,172299,425,109,363,108 F,0,170646,172063,1 F,0,172063,172299,1,0
Sprite,Foreground,Centre,"Lyrics\L36.png",320,240 M,0,172772,174651,323,167,323,109 F,0,174425,174661,1,0
Sprite,Foreground,Centre,"Lyrics\L37.png",320,240 M,0,173008,174661,182,248,115,248 S,0,173008,174661,1,0.8771202 F,0,174425,174661,1,0
Sprite,Foreground,Centre,"Lyrics\L38.png",320,240 M,0,173244,174661,433,246,476,246 S,0,173244,174661,1,1.12288 F,0,174425,174661,1,0
Sprite,Foreground,Centre,"Lyrics\L39.png",320,240 M,0,173480,174661,318,316,318,385 F,0,174425,174661,1,0
Sprite,Foreground,Centre,"Lyrics\40.png",320,240 M,0,173953,,312,250 S,0,173953,174602,1.45056,1.27136 F,0,174425,174602,1,0
Sprite,Foreground,Centre,"Lyrics\L41.png",320,240 M,0,174651,174888,316,248,317,247 S,0,174661,174898,1,1.23552
Sprite,Foreground,Centre,"Lyrics\L42.png",320,240 M,0,174888,175124,332,245,342,253 S,0,174898,175134,1,1.24576
Sprite,Foreground,Centre,"Lyrics\L43.png",320,240 M,0,175134,175360,329,257,341,263 S,0,175134,175370,1,1.24576
Sprite,Foreground,Centre,"Lyrics\L45.png",320,240 M,0,175370,175833,352,265,367,269 S,0,175370,175843,1,1.34816 F,0,175606,175843,1,0
Sprite,Foreground,Centre,"Lyrics\L46.png",320,240 M,0,175833,176305,382,287,410,304 S,0,175843,176315,1,1.38912 F,0,176197,176315,1,0
Sprite,Foreground,Centre,"Lyrics\L47.png",320,240 S,0,176315,,0.9180802 F,0,176315,176551,0,1 M,0,176315,177959,380,421,340,421 F,0,176551,177732,1 F,0,177732,177969,1,0
Sprite,Foreground,Centre,"Lyrics\L48.png",320,240 M,0,178195,,118,116 F,0,179622,179858,1,0
Sprite,Foreground,Centre,"Lyrics\L49.png",320,240 M,0,178441,178903,271,153,271,112 M,0,178903,179612,271,112,271,107 F,0,179622,,1 F,0,179622,179858,1,0
Sprite,Foreground,Centre,"Lyrics\L25.png",320,240 M,0,178903,,270,244 F,0,179622,179858,1,0
Sprite,Foreground,Centre,"Lyrics\L51.png",320,240 M,0,179140,,255,346 F,0,179622,179858,1,0
Sprite,Foreground,Centre,"Lyrics\L52.png",320,240 M,0,179376,,434,279 F,0,179622,179858,1,0
Sprite,Foreground,Centre,"SB\effectwhite.png",320,240 S,0,151039,151276,0.1808,5 F,0,151276,151620,0.8975999,0 S,0,151276,151620,5
Sprite,Foreground,TopLeft,"SB\lightleft.png",0,0 L,0,30 F,0,151689,151748,0,1 F,0,151748,152220,1,0 F,0,152220,152634,0
Sprite,Foreground,TopRight,"SB\lightright.png",640,0 L,0,29 F,0,152161,152220,0,1 F,0,152220,152693,1,0 F,0,152693,153106,0
Sprite,Foreground,Centre,"SB\White.jpg",320,240 F,0,75557,75675,0,1 F,0,75675,76620,1,0
Sprite,Foreground,Centre,"SB\White.jpg",320,240 F,0,31502,32210,1,0 F,0,33392,33864,1,0 F,0,35281,35754,1,0 F,0,37171,37644,1,0 F,0,39061,39533,1,0 F,0,40951,41423,1,0 F,0,42840,43313,1,0 F,0,43549,45439,0,1 F,0,45439,45675,1,0
Sprite,Foreground,Centre,"SB\Attract.png",320,240 L,121029,59 F,1,0,473,0.8,0 S,1,0,473,1.01
Sprite,Foreground,Centre,"SB\Strobe.png",320,240 L,121029,59 S,0,0,473,0,1.65
//Storyboard Sound Samples
//Background Colour Transformations
3,100,163,162,255

[TimingPoints]
85,472.44094488189,4,2,1,5,1,0
4100,-100,4,2,1,45,0,0
7407,-100,4,2,1,25,0,0
10360,-100,4,2,1,15,0,0
11305,-100,4,2,1,5,0,0
11896,-100,4,2,1,45,0,0
14966,-100,4,2,1,25,0,0
17919,-100,4,2,1,15,0,0
18982,-100,4,2,1,5,0,0
19455,-100,4,2,1,45,0,0
22525,-100,4,2,1,25,0,0
25478,-100,4,2,1,25,0,0
25833,-100,4,2,1,45,0,0
27250,-100,4,2,1,25,0,0
27722,-100,4,2,1,45,0,0
44966,-100,4,1,1,60,0,0
76147,-100,4,1,1,5,0,0
79455,-100,4,2,1,5,0,0
79927,-100,4,2,1,45,0,0
82998,-100,4,2,1,5,0,0
87486,-100,4,2,1,45,0,0
90793,-100,4,2,1,5,0,0
95045,-100,4,2,1,45,0,0
98352,-100,4,2,1,5,0,0
101423,-100,4,2,1,45,0,0
102840,-100,4,2,1,5,0,0
103313,-100,4,2,1,45,0,0
121029,-100,4,1,1,70,0,1
127053,-100,4,1,2,70,0,1
127998,-100,4,1,1,70,0,1
149376,-100,4,1,1,70,0,0
151266,-100,4,1,1,70,0,1
181502,-100,4,1,1,5,0,0

[Colours]
Combo1 : 253,89,87
Combo2 : 186,235,232
Combo3 : 192,192,192
Combo4 : 190,217,100

[HitObjects]
256,192,557,12,0,3864
88,64,4336,6,0,B|136:112|152:40|224:80,1,140
216,136,5045,1,2
256,240,5518,2,0,B|264:288|304:296|344:288|352:232,1,140
456,192,6462,2,0,B|488:144|512:136|512:136|488:128|480:64,1,140,2|0
424,248,7407,6,0,B|333:298|163:298|63:237,1,350
176,184,9061,1,2
80,120,9533,2,0,B|152:80|288:80|368:128,2,280,0|2|0
80,120,11896,6,0,B|134:183|32:184|104:272,1,140
144,248,12604,1,0
248,280,13077,1,2
336,208,13549,1,0
456,208,14022,2,0,B|512:272|408:272|472:344,1,140,0|2
120,160,15203,6,0,B|192:120|328:120|408:168,1,280
304,232,16620,1,2
392,304,17092,2,0,B|320:344|184:344|104:296,2,280,0|2|0
392,304,19455,5,0
440,200,19927,1,0
440,144,20163,1,2
384,48,20636,2,0,B|344:96|296:-16|248:56,2,140,0|0|2
320,136,22053,1,0
184,304,22762,6,0,B|144:232|144:96|192:16,1,280
256,120,24179,1,2
328,32,24651,2,0,B|368:104|368:240|320:320,1,280
384,304,25833,5,0
424,344,26069,1,0
464,304,26305,2,0,B|424:240|424:104|464:32,1,280
352,48,27722,5,0
304,72,27959,1,0
288,128,28195,2,0,B|212:38|136:219|30:98,1,280,0|2
56,216,29612,1,0
128,296,30085,1,0
128,104,34100,6,0,B|128:56|56:32,2,105,0|2|0
216,176,35281,2,0,B|152:232|232:280|152:376,1,210,4|0
72,368,36344,6,0,B|72:256,1,105
120,160,37171,2,0,B|176:104|256:216|336:112,1,210,4|0
400,136,38234,6,0,B|400:240,1,105
304,304,39061,1,6
176,200,39770,6,0,B|176:320,2,105,0|2|0
256,104,40951,2,0,B|256:200|360:200,1,140,4|0
344,256,41659,5,0
400,320,42014,1,2
456,256,42368,1,0
400,160,42840,1,4
256,192,43549,12,0,44966
72,72,45911,5,8
144,160,46384,1,0
208,72,46856,1,8
280,160,47329,1,0
392,160,47801,5,8
336,256,48273,1,0
224,256,48746,2,0,B|168:304|136:200|80:288,1,140,8|0
56,160,49691,5,0
152,104,50163,1,8
208,104,50399,2,0,B|256:104|352:104,1,140
440,160,51344,1,8
440,272,51817,2,0,B|368:384|208:160|112:296,1,350,0|8
40,208,53470,5,0
128,144,53943,1,8
128,256,54415,2,0,B|128:326,1,70,0|8
248,208,55360,5,0
360,208,55833,1,8
304,304,56305,2,0,B|304:376,1,70,0|8
456,304,57250,5,0
408,208,57722,2,0,B|408:128,1,70,8|0
336,56,58431,2,0,B|488:56,1,140,0|8
408,144,59376,2,0,B|48:144,1,350,0|4
120,40,61029,5,0
232,40,61502,1,8
312,120,61974,1,0
312,232,62447,1,8
200,232,62919,5,0
120,152,63392,1,8
64,152,63628,2,0,B|8:208|112:256|32:352,1,210,0|8
144,336,64809,6,0,B|214:336,1,70
272,336,65281,1,8
344,248,65754,1,0
264,168,66226,1,8
184,248,66699,5,0
184,192,66935,1,0
184,136,67171,2,0,B|88:136,1,70,8|0
56,136,67644,1,0
56,192,67880,1,0
120,280,68352,5,0
216,336,68825,1,0
312,280,69297,2,0,B|336:248|320:248|304:248|304:232|336:208,1,70,0|0
320,160,69770,1,8
216,208,70242,5,0
168,112,70714,1,0
264,64,71187,1,8
320,160,71659,1,0
488,152,72368,6,0,B|488:240,1,70,0|0
432,224,72840,1,8
352,304,73313,2,0,B|440:304,1,70,0|8
416,136,74258,6,0,B|272:136,1,140,0|8
160,136,75203,1,0
104,136,75439,1,0
256,192,76147,12,0,79455
128,64,79927,6,0,B|280:64,1,140
328,64,80636,2,0,B|424:64|416:160,1,140,2|0
328,216,81581,1,0
216,216,82053,1,2
144,304,82525,1,0
256,192,82998,12,0,87014
40,72,87486,6,0,B|0:136|96:136|24:216,1,140,0|2
96,200,88195,2,0,B|56:264|152:264|80:344,1,140,0|2
192,344,89140,1,0
224,296,89376,1,0
192,248,89612,1,2
256,152,90084,1,0
256,192,90793,12,0,94573
152,136,95045,5,0
256,96,95518,1,2
360,136,95990,1,0
360,192,96226,2,0,B|360:344,2,140,2|2|2
472,192,97644,1,0
256,192,98352,12,0,100714
80,168,101423,5,0
128,136,101659,1,0
176,168,101896,2,0,B|486:168,1,280,0|2
392,256,103313,5,0
344,288,103549,1,0
296,256,103785,2,0,B|-1:256,1,280,0|2
72,160,105203,2,0,B|192:72,1,140,0|2
240,96,105911,6,0,B|290:135|282:183,1,70
280,208,106384,2,2,B|280:256|328:256,1,70,0|2
376,256,106856,2,0,B|416:256|416:192,1,70
416,152,107329,1,0
304,152,107801,6,0,B|232:152|232:112,1,70
240,80,108273,2,2,B|240:32|288:32,1,70,0|2
336,24,108746,1,0
432,80,109218,1,0
336,136,109691,6,0,B|280:136|288:200,1,70
288,232,110163,2,2,B|290:321|288:320,1,70,0|2
352,304,110636,1,0
464,304,111108,1,0
408,208,111581,6,0,B|320:208,1,70
280,208,112053,2,0,B|280:128,1,70,0|2
280,80,112525,1,0
168,96,112998,1,2
96,176,113470,1,4
216,88,121029,5,4
272,184,121502,1,0
320,208,121738,1,8
368,184,121974,1,0
392,72,122447,6,0,B|248:72,1,140,0|8
320,160,123392,2,0,B|160:160,1,140,0|8
248,248,124336,2,0,B|104:248,1,140
112,136,125281,6,0,B|256:136,1,140
328,56,126226,1,8
408,136,126699,2,0,B|520:136|528:320|392:320,1,280
296,320,128116,1,8
224,232,128588,6,0,B|104:200|104:56,1,210,2|0
104,79,129533,1,0
208,112,130006,1,8
288,192,130478,5,0
216,280,130951,1,8
288,368,131423,1,2
360,280,131896,1,8
440,200,132368,1,0
440,88,132840,5,8
328,88,133313,1,0
256,176,133785,1,8
256,288,134258,2,0,B|46:288,2,210,0|0|8
256,176,136147,5,4
384,280,136856,2,0,B|472:280,2,70
328,280,137565,1,8
256,192,138037,5,0
192,96,138510,2,0,B|344:96,1,140,8|0
420,26,139455,2,0,B|420:166,1,140,8|0
331,97,140399,6,0,B|330:299|474:299,1,280,8|8
374,355,141817,2,0,B|222:355,1,140,0|8
232,240,142762,1,0
192,136,143234,1,8
96,200,143707,5,4
248,128,144415,1,8
248,184,144651,2,0,B|248:328,1,140,0|8
160,256,145596,6,0,B|16:256,1,140,0|8
24,144,146541,2,0,B|168:144,1,140,0|8
256,80,147486,1,0
344,144,147959,2,0,B|503:144,2,140,8|0|8
256,192,149376,12,0,151266
264,104,151974,5,0
296,56,152210,1,0
344,56,152447,1,0
376,104,152683,1,8
320,200,153155,1,0
156,167,153864,5,0
120,128,154100,1,0
88,168,154336,1,0
48,128,154573,1,8
46,244,155045,1,0
144,304,155518,6,0,B|233:308|234:223,1,140,0|8
228,111,156462,1,0
284,111,156699,1,8
408,352,157880,5,0
296,352,158352,1,8
240,256,158825,1,0
72,112,159770,5,0
184,112,160242,1,8
240,208,160714,1,0
376,96,161423,5,0
376,152,161659,1,0
304,240,162132,1,8
192,240,162604,1,0
96,184,163077,5,8
96,72,163549,1,0
192,128,164022,1,8
288,72,164494,1,0
344,232,165203,6,0,B|339:296|286:291,1,70,0|8
256,296,165675,1,0
200,296,165911,1,0
144,200,166384,1,8
240,64,167092,5,0
288,32,167329,1,0
336,64,167565,1,0
288,96,167801,1,8
288,208,168273,1,8
144,112,168982,5,0
88,128,169218,1,0
88,184,169455,1,0
136,208,169691,2,0,B|212:209,1,70,8|0
208,264,170163,2,0,B|360:264,1,140,0|8
360,152,171108,5,0
360,40,171581,1,8
248,40,172053,1,0
56,160,172998,5,8
88,264,173470,1,0
176,200,173943,1,0
400,192,174888,5,8
400,304,175360,1,0
288,304,175833,1,0
192,168,176541,6,0,B|251:123,1,70
360,120,177250,1,8
472,120,177722,1,0
472,232,178195,1,0
360,232,178667,1,8
416,328,179140,1,0
256,192,179612,12,0,181502
