osu file format v9

[General]
AudioFilename: Edward Maya & Vika Jigulina - Stereo Love.mp3
AudioLeadIn: 1500
PreviewTime: 120994
Countdown: 0
SampleSet: Normal
StackLeniency: 0.7
Mode: 0
LetterboxInBreaks: 0
EpilepsyWarning: 1

[Editor]
Bookmarks: 30321,45911,79927,101896,121029,151266
DistanceSpacing: 0.8
BeatDivisor: 4
GridSize: 4

[Metadata]
Title:Stereo Love
Artist:Edward Maya feat. Vika Jigulina
Creator:Barney Stinson
Version:Insane
Source:
Tags:Lolicore Flandre NeoRainier HellDawn

[Difficulty]
HPDrainRate:7
CircleSize:4
OverallDifficulty:7
ApproachRate:8
SliderMultiplier:2.5
SliderTickRate:2

[Events]
//Background and Video events
0,0,"bg.jpg"
//Break Periods
2,115560,120279
//Storyboard Layer 0 (Background)
Sprite,Background,Centre,"bg.jpg",320,240 F,0,0,,0
Sprite,Background,Centre,"SB\bg.jpg",320,240 F,0,121029,,1 S,0,121029,,0.8 F,0,151266,,1
Sprite,Background,Centre,"SB\bg2-pulse.jpg",320,240 F,0,31502,32447,0,1 F,0,120557,120911,1,0
//Storyboard Layer 1 (Fail)
//Storyboard Layer 2 (Pass)
//Storyboard Layer 3 (Foreground)
Sprite,Foreground,Centre,"Lyrics\L1.png",320,240 F,0,4346,4583,0,1 M,0,4346,11433,280,82,390,126 S,0,4346,11433,0.90784,0.8054402 F,0,4583,10961,1 F,0,10961,11433,1,0
Sprite,Foreground,Centre,"Lyrics\L2.png",320,240 M,0,5754,11423,468,219,377,228 F,0,5764,6000,0,1 S,0,5764,11433,1,1.2048 F,0,6000,10961,1 F,0,10961,11433,1,0 M,0,11423,11438,377,228,407,229
Sprite,Foreground,Centre,"Lyrics\L3.png",320,240 S,0,7171,7407,2.13664,1.39936 F,0,7181,7417,0,1 S,0,7407,11423,1.39936,1.04096 F,0,7417,10961,1 F,0,10961,11433,1,0 M,0,11423,,199,369
Sprite,Foreground,Centre,"Lyrics\L4.png",320,240 F,0,11669,11906,0,1 M,0,11669,18992,418,413,281,413 F,0,11906,18520,1 F,0,18520,18992,1,0
Sprite,Foreground,Centre,"Lyrics\L5.png",320,240 F,0,13559,13795,0,1 M,0,13559,18992,342,292,638,293 F,0,13795,18520,1 S,0,15213,18992,1,0.8054398 F,0,18520,18992,1,0
Sprite,Foreground,Centre,"Lyrics\L6.png",320,240 F,0,14976,15213,0,1 M,0,14976,18047,666,156,520,152 S,0,14976,18047,0.8259199,1.204193 F,0,15213,18520,1 M,0,18047,18992,520,152,387,164 S,0,18047,18992,1.204193,0.9590399 F,0,18520,18992,1,0
Sprite,Foreground,Centre,"Lyrics\L7.png",320,240 F,0,19228,19465,0,1 M,0,19228,25370,306,241,309,412 S,0,19228,25370,0.7644797,1.01024 F,0,19465,24898,1 F,0,24898,25370,1,0
Sprite,Foreground,Centre,"Lyrics\L8.png",320,240 F,0,21118,21354,0,1 M,0,21118,25370,482,216,544,61 S,0,21118,25370,1,1.26624 F,0,21354,24898,1 F,0,24898,25370,1,0
Sprite,Foreground,Centre,"Lyrics\L9.png",320,240 F,0,22181,22299,0 F,0,22299,22535,0,1 M,0,22299,25370,460,250,679,247 S,0,22299,25370,0.7235199,1.67584 F,0,22535,24898,1 F,0,24898,25370,1,0 M,0,25370,,679,247
Sprite,Foreground,Centre,"Lyrics\L12.png",320,240 R,0,25606,,-1.576959 F,0,25606,25843,0,1 M,0,25606,27496,98,148,99,66 F,0,25843,27260,1 F,0,27260,27496,1,0
Sprite,Foreground,Centre,"Lyrics\L12.png",320,240 R,0,27496,,1.576961 F,0,27496,27732,0,1 M,0,27496,28913,488,350,490,428 F,0,27732,28677,1 F,0,28677,28913,1,0 F,0,28913,,0
Sprite,Foreground,Centre,"Lyrics\L13.png",320,240 F,0,29150,31748,1 M,0,29150,31984,547,116,614,115 S,0,29150,31984,1,1.27648 F,0,31748,31984,1,0
Sprite,Foreground,Centre,"Lyrics\L14.png",320,240 M,0,29622,31984,652,240,570,244 S,0,29622,31984,1.48128,1.16384 F,0,31748,31984,1,0
Sprite,Foreground,Centre,"Lyrics\L15.png",320,240 M,0,30095,32220,502,366,615,381 S,0,30095,32220,1,1.50176 F,0,31748,32220,1,0
Sprite,Foreground,Centre,"SB\Girl1.png",320,240 L,0,3 F,0,45921,46394,1,0 S,0,45921,46394,1,1.0512 L,1880,3 F,0,45921,46394,1,0 S,0,45921,46394,1,1.0512 L,3780,3 F,0,45921,46394,1,0 S,0,45921,46394,1,1.0512 L,5670,3 F,0,45921,46394,1,0 S,0,45921,46394,1,1.0512 L,7550,3 F,0,45921,46394,1,0 S,0,45921,46394,1,1.0512 L,9440,3 F,0,45921,46394,1,0 S,0,45921,46394,1,1.0512 L,11320,3 F,0,45921,46394,1,0 S,0,45921,46394,1,1.0512 L,13200,3 F,0,45921,46394,1,0 S,0,45921,46394,1,1.0512
Sprite,Foreground,Centre,"SB\bg2-pulse.jpg",320,240 L,0,1 F,0,47339,47811,1,0 S,0,47339,47811,1,1.06144 L,1880,1 F,0,47339,47811,1,0 S,0,47339,47811,1,1.06144 L,3780,1 F,0,47339,47811,1,0 S,0,47339,47811,1,1.06144 L,5660,1 F,0,47339,47811,1,0 S,0,47339,47811,1,1.06144 L,7560,1 F,0,47339,47811,1,0 S,0,47339,47811,1,1.06144 L,9440,1 F,0,47339,47811,1,0 S,0,47339,47811,1,1.06144 L,11330,1 F,0,47339,47811,1,0 S,0,47339,47811,1,1.06144
Sprite,Foreground,Centre,"SB\Girl1-L.png",320,240 L,0,1 F,0,60567,61512,1,0 S,0,60567,61512,1,1.13312 L,1880,1 F,0,60567,61512,1,0 S,0,60567,61512,1,1.13312 L,3780,1 F,0,60567,61512,1,0 S,0,60567,61512,1,1.13312 L,5660,1 F,0,60567,61512,1,0 S,0,60567,61512,1,1.13312 L,7560,1 F,0,60567,61512,1,0 S,0,60567,61512,1,1.13312 L,9440,1 F,0,60567,61512,1,0 S,0,60567,61512,1,1.13312 L,11330,1 F,0,60567,61512,1,0 S,0,60567,61512,1,1.13312 L,13220,1 F,0,60567,61512,1,0 S,0,60567,61512,1,1.13312
Sprite,Foreground,Centre,"SB\Girl1-L.png",320,240 L,0,1 F,0,90803,91748,1,0 L,1880,1 F,0,90803,91748,1,0 L,3780,1 F,0,90803,91748,1,0
Sprite,Foreground,Centre,"SB\Girl1-L.png",320,240 L,0,1 F,0,96472,97417,1,0 S,0,96472,97417,1,1.04096 L,1880,1 F,0,96472,97417,1,0 S,0,96472,97417,1,1.04096 L,3780,1 F,0,96472,97417,1,0 S,0,96472,97417,1,1.04096
Sprite,Foreground,Centre,"SB\Girl1-L.png",320,240 L,0,1 F,0,102142,103087,1,0 L,1880,1 F,0,102142,103087,1,0
Sprite,Foreground,Centre,"SB\Girl1-L.png",320,240 F,0,105921,107339,1,0 S,0,105921,107339,1,1.07168
Sprite,Foreground,TopRight,"SB\lightright.png",640,0 L,0,1 F,0,105921,106394,1,0 L,1880,1 F,0,105921,106394,1,0 L,3780,1 F,0,105921,106394,1,0 L,5660,1 F,0,105921,106394,1,0 L,7560,1 F,0,105921,106394,1,0
Sprite,Foreground,TopLeft,"SB\lightleft.png",0,0 F,0,115370,116315,1,0
Sprite,Foreground,TopRight,"SB\lightright.png",640,0 F,0,117260,118205,1,0
Sprite,Foreground,TopLeft,"SB\lightleft.png",0,0 F,0,119150,120095,1,0
Sprite,Foreground,TopRight,"SB\lightright.png",640,0 F,0,119150,120095,1,0
Sprite,Foreground,Centre,"SB\effectwhite.png",320,240 S,0,120803,121039,0.1,2.9 F,0,120803,121147,1,0
Sprite,Foreground,Centre,"SB\Flowers.png",275,323 L,0,1 F,0,121984,122929,1,0 S,0,121984,122929,1,1.08 L,1880,1 F,0,121984,122929,1,0 S,0,121984,122929,1,1.08 L,3780,1 F,0,121984,122929,1,0 S,0,121984,122929,1,1.08 L,5660,1 F,0,121984,122929,1,0 S,0,121984,122929,1,1.08 L,7550,1 F,0,121984,122929,1,0 S,0,121984,122929,1,1.08 L,9440,1 F,0,121984,122929,1,0 S,0,121984,122929,1,1.08 L,11330,1 F,0,121984,122929,1,0 S,0,121984,122929,1,1.08 L,13220,1 F,0,121984,122929,1,0 S,0,121984,122929,1,1.08 L,13220,1 F,0,121984,122929,1,0 S,0,121984,122929,1,1.08 L,15110,1 F,0,121984,122929,1,0 S,0,121984,122929,1,1.08 L,17000,1 F,0,121984,122929,1,0 S,0,121984,122929,1,1.08 L,18890,1 F,0,121984,122929,1,0 S,0,121984,122929,1,1.08 L,20780,1 F,0,121984,122929,1,0 S,0,121984,122929,1,1.08 L,22670,1 F,0,121984,122929,1,0 S,0,121984,122929,1,1.08 L,24560,1 F,0,121984,122929,1,0 S,0,121984,122929,1,1.08 L,26450,1 F,0,121984,122929,1,0 S,0,121984,122929,1,1.08
Sprite,Foreground,Centre,"SB\Girl.png",248,265 L,0,1 F,0,122929,123402,1,0 S,0,122929,123402,1,1.06 L,1880,1 F,0,122929,123402,1,0 S,0,122929,123402,1,1.06 L,3780,1 F,0,122929,123402,1,0 S,0,122929,123402,1,1.06 L,5660,1 F,0,122929,123402,1,0 S,0,122929,123402,1,1.06 L,7550,1 F,0,122929,123402,1,0 S,0,122929,123402,1,1.06 L,9440,1 F,0,122929,123402,1,0 S,0,122929,123402,1,1.06 L,11330,1 F,0,122929,123402,1,0 S,0,122929,123402,1,1.06 L,13220,1 F,0,122929,123402,1,0 S,0,122929,123402,1,1.06 L,15110,1 F,0,122929,123402,1,0 S,0,122929,123402,1,1.06 L,17000,1 F,0,122929,123402,1,0 S,0,122929,123402,1,1.06 L,18890,1 F,0,122929,123402,1,0 S,0,122929,123402,1,1.06 L,20780,1 F,0,122929,123402,1,0 S,0,122929,123402,1,1.06 L,22670,1 F,0,122929,123402,1,0 S,0,122929,123402,1,1.06 L,24560,1 F,0,122929,123402,1,0 S,0,122929,123402,1,1.06
Sprite,Foreground,Centre,"SB\bg-pulse.jpg",320,240 F,0,149386,150331,1,0 S,0,149386,150331,1,1.07168
Sprite,Foreground,Centre,"SB\bg3.jpg",320,240 F,0,151276,,1 F,0,181276,181748,1,0
Sprite,Foreground,Centre,"SB\Girl2.png",320,240 L,0,56 F,0,151276,151748,1,0 S,0,151276,151748,1,1.03072
Sprite,Foreground,Centre,"Lyrics\L16.png",320,240 S,0,151276,,0.7951999 M,0,151276,153402,466,419,411,420 F,0,153165,153402,1,0
Sprite,Foreground,Centre,"Lyrics\L17.png",320,240 S,0,153638,,0.8259199 F,0,153638,153874,0,1 M,0,153638,155045,231,92,307,92 F,0,153874,154819,1 F,0,154819,155055,1,0
Sprite,Foreground,Centre,"Lyrics\L18.png",320,240 F,0,154346,154583,0,1 M,0,154346,155528,177,200,220,200 S,0,154583,,0.9999999 F,0,154583,155291,1 F,0,155291,155528,1,0
Sprite,Foreground,Centre,"Lyrics\L19.png",320,240 F,0,154583,154819,0,1 M,0,154583,155764,153,260,132,260 F,0,154819,155528,1 F,0,155528,155764,1,0
Sprite,Foreground,Centre,"Lyrics\20.png",320,240 M,0,154809,155764,249,293,252,346 F,0,154819,155055,0,1 F,0,155055,155528,1 F,0,155528,155764,1,0
Sprite,Foreground,Centre,"Lyrics\L21.png",320,240 F,0,155291,155528,0,1 M,0,155291,157407,276,108,352,108 F,0,155528,157181,1 F,0,157181,157417,1,0
Sprite,Foreground,Centre,"Lyrics\23.png",320,240 F,0,155528,155764,0,1 M,0,155528,157407,268,178,342,178 F,0,155764,157181,1 F,0,157181,157417,1,0
Sprite,Foreground,Centre,"Lyrics\L23.png",320,240 F,0,155764,156000,0,1 M,0,155764,157417,232,293,322,293 S,0,155764,157417,1,1.1024 F,0,156000,157181,1 F,0,157181,157417,1,0
Sprite,Foreground,Centre,"Lyrics\L24.png",320,240 F,0,156236,156472,0.9027199,1 M,0,156236,157417,447,361,378,361 F,0,156472,157181,1 F,0,157181,157417,1,0
Sprite,Foreground,Centre,"Lyrics\L25.png",320,240 F,0,156472,156709,0,1 M,0,156472,157417,139,358,194,358 S,0,156472,157417,1,1.1024 F,0,156709,157181,1 F,0,157181,157417,1,0
Sprite,Foreground,Centre,"Lyrics\L26.png",320,240 S,0,157417,,0.8668799 F,0,157417,157654,0,1 M,0,157417,159307,444,421,377,421 F,0,157654,159071,1 F,0,159071,159307,1,0
Sprite,Foreground,Centre,"Lyrics\L27.png",320,240 S,0,159307,,0.8361599 F,0,159307,159543,0,1 M,0,159307,161197,367,81,434,80 F,0,159543,160961,1 F,0,160961,161197,1,0
Sprite,Foreground,Centre,"Lyrics\L28.png",320,240 S,0,161197,,0.8873599 F,0,161197,161433,0,1 M,0,161197,162850,445,421,391,420 F,0,161433,162614,1 F,0,162614,162850,1,0
Sprite,Foreground,Centre,"Lyrics\L29.png",320,240 S,0,162850,,0.80544 F,0,162850,163087,0,1 M,0,162850,164976,355,77,407,78 F,0,163087,164740,1 F,0,164740,164976,1,0
Sprite,Foreground,Centre,"Lyrics\L31.png",320,240 M,0,164966,166157,262,199,312,199 F,0,164976,165213,0,0.9385599 S,0,164976,166157,1,1.06144 F,0,165213,165921,0.9385599 F,0,165921,166157,0.9385599,0
Sprite,Foreground,Centre,"Lyrics\31.png",320,240 F,0,165685,165921,0,1 M,0,165685,166866,370,295,307,295 S,0,165685,166866,1,1.09216 F,0,165921,166276,1 F,0,166276,166630,1 F,0,166630,166866,1,0
Sprite,Foreground,Centre,"Lyrics\L32.png",320,240 S,0,166866,,0.8054401 F,0,166866,167102,0,1 M,0,166866,168756,403,419,366,421 F,0,167102,168520,1 F,0,168520,168756,1,0
Sprite,Foreground,Centre,"Lyrics\L34.png",320,240 S,0,168756,,0.77472 F,0,168756,168992,0,1 M,0,168756,171354,332,77,385,77 F,0,168992,171118,1 F,0,171118,171354,1,0
Sprite,Foreground,Centre,"Lyrics\L35.png",320,240 S,0,170409,,0.91808 F,0,170409,170646,0,1 M,0,170409,172299,425,109,363,108 F,0,170646,172063,1 F,0,172063,172299,1,0
Sprite,Foreground,Centre,"Lyrics\L36.png",320,240 M,0,172772,174651,323,167,323,109 F,0,174425,174661,1,0
Sprite,Foreground,Centre,"Lyrics\L37.png",320,240 M,0,173008,174661,182,248,115,248 S,0,173008,174661,1,0.8771202 F,0,174425,174661,1,0
Sprite,Foreground,Centre,"Lyrics\L38.png",320,240 M,0,173244,174661,433,246,476,246 S,0,173244,174661,1,1.12288 F,0,174425,174661,1,0
Sprite,Foreground,Centre,"Lyrics\L39.png",320,240 M,0,173480,174661,318,316,318,385 F,0,174425,174661,1,0
Sprite,Foreground,Centre,"Lyrics\40.png",320,240 M,0,173953,,312,250 S,0,173953,174602,1.45056,1.27136 F,0,174425,174602,1,0
Sprite,Foreground,Centre,"Lyrics\L41.png",320,240 M,0,174651,174888,316,248,317,247 S,0,174661,174898,1,1.23552
Sprite,Foreground,Centre,"Lyrics\L42.png",320,240 M,0,174888,175124,332,245,342,253 S,0,174898,175134,1,1.24576
Sprite,Foreground,Centre,"Lyrics\L43.png",320,240 M,0,175134,175360,329,257,341,263 S,0,175134,175370,1,1.24576
Sprite,Foreground,Centre,"Lyrics\L45.png",320,240 M,0,175370,175833,352,265,367,269 S,0,175370,175843,1,1.34816 F,0,175606,175843,1,0
Sprite,Foreground,Centre,"Lyrics\L46.png",320,240 M,0,175833,176305,382,287,410,304 S,0,175843,176315,1,1.38912 F,0,176197,176315,1,0
Sprite,Foreground,Centre,"Lyrics\L47.png",320,240 S,0,176315,,0.9180802 F,0,176315,176551,0,1 M,0,176315,177959,380,421,340,421 F,0,176551,177732,1 F,0,177732,177969,1,0
Sprite,Foreground,Centre,"Lyrics\L48.png",320,240 M,0,178195,,118,116 F,0,179622,179858,1,0
Sprite,Foreground,Centre,"Lyrics\L49.png",320,240 M,0,178441,178903,271,153,271,112 M,0,178903,179612,271,112,271,107 F,0,179622,,1 F,0,179622,179858,1,0
Sprite,Foreground,Centre,"Lyrics\L25.png",320,240 M,0,178903,,270,244 F,0,179622,179858,1,0
Sprite,Foreground,Centre,"Lyrics\L51.png",320,240 M,0,179140,,255,346 F,0,179622,179858,1,0
Sprite,Foreground,Centre,"Lyrics\L52.png",320,240 M,0,179376,,434,279 F,0,179622,179858,1,0
Sprite,Foreground,Centre,"SB\effectwhite.png",320,240 S,0,151039,151276,0.1808,5 F,0,151276,151620,0.8975999,0 S,0,151276,151620,5
Sprite,Foreground,TopLeft,"SB\lightleft.png",0,0 L,0,30 F,0,151689,151748,0,1 F,0,151748,152220,1,0 F,0,152220,152634,0
Sprite,Foreground,TopRight,"SB\lightright.png",640,0 L,0,29 F,0,152161,152220,0,1 F,0,152220,152693,1,0 F,0,152693,153106,0
Sprite,Foreground,Centre,"SB\White.jpg",320,240 F,0,75557,75675,0,1 F,0,75675,76620,1,0
Sprite,Foreground,Centre,"SB\White.jpg",320,240 F,0,31502,32210,1,0 F,0,33392,33864,1,0 F,0,35281,35754,1,0 F,0,37171,37644,1,0 F,0,39061,39533,1,0 F,0,40951,41423,1,0 F,0,42840,43313,1,0 F,0,43549,45439,0,1 F,0,45439,45675,1,0
Sprite,Foreground,Centre,"SB\Attract.png",320,240 L,121029,59 F,1,0,473,0.8,0 S,1,0,473,1.01
Sprite,Foreground,Centre,"SB\Strobe.png",320,240 L,121029,59 S,0,0,473,0,1.65
//Storyboard Sound Samples
//Background Colour Transformations
3,100,163,162,255

[TimingPoints]
85,472.44094488189,4,2,0,5,1,0
4336,-100,4,2,0,45,0,0
7407,-100,4,2,0,25,0,0
9415,-100,4,2,0,55,0,0
9651,-100,4,2,0,30,0,0
11896,-100,4,2,1,45,0,0
15085,-100,4,2,1,35,0,0
15321,-100,4,2,1,25,0,0
16974,-100,4,2,1,55,0,0
17210,-100,4,2,1,25,0,0
19455,-100,4,2,1,45,0,0
22644,-100,4,2,1,55,0,0
22880,-100,4,2,1,25,0,0
24533,-100,4,2,1,55,0,0
25031,-100,4,2,1,25,0,0
25833,-100,4,2,1,45,0,0
26305,-200,4,2,1,45,0,0
27250,-200,4,2,1,20,0,0
27722,-100,4,2,1,45,0,0
28195,-200,4,2,1,45,0,0
29140,-100,4,2,1,25,0,0
29612,-100,4,2,1,45,0,0
31502,-200,4,2,1,45,0,0
31974,-100,4,2,1,45,0,0
33392,-200,4,2,1,45,0,0
33864,-100,4,2,1,45,0,0
37171,-200,4,2,1,45,0,0
37644,-100,4,2,1,45,0,0
42840,-200,4,2,1,45,0,0
43549,-100,4,2,1,45,0,0
45439,-100,4,1,1,50,0,0
45912,-100,4,1,1,50,0,0
47092,-200,4,2,1,100,0,0
47565,-100,4,2,1,100,0,0
47801,-100,4,1,1,50,0,0
48982,-133.333333333333,4,2,1,100,0,0
49455,-100,4,2,1,100,0,0
49691,-100,4,1,1,50,0,0
51817,-200,4,2,1,100,0,0
52998,-200,4,1,1,50,0,0
54651,-200,4,2,1,100,0,0
55124,-100,4,2,1,100,0,0
55242,-100,4,1,1,50,0,0
56541,-200,4,2,1,100,0,0
57014,-100,4,2,1,100,0,0
57250,-100,4,1,1,50,0,0
59376,-200,4,1,1,50,0,0
61266,-100,4,1,1,50,0,0
69297,-200,4,1,1,50,0,0
69770,-100,4,1,1,50,0,0
75675,-100,4,2,1,5,0,0
79922,-100,4,2,1,45,0,0
81108,-200,4,2,1,45,0,0
81581,-100,4,2,1,45,0,0
82289,-200,4,2,1,45,0,0
82998,-100,4,2,1,45,0,0
83234,-100,4,2,1,5,0,0
87486,-100,4,2,1,45,0,0
88667,-200,4,2,1,45,0,0
89140,-100,4,2,1,45,0,0
90793,-100,4,2,1,5,0,0
95045,-100,4,2,1,45,0,0
96699,-200,4,2,1,45,0,0
97171,-100,4,2,1,45,0,0
98352,-100,4,2,1,5,0,0
101423,-100,4,2,1,45,0,0
101896,-200,4,2,1,45,0,0
102840,-200,4,2,1,5,0,0
103313,-200,4,2,1,45,0,0
104258,-100,4,2,1,45,0,0
106384,-100,4,2,1,45,0,0
121029,-100,4,1,1,70,0,1
126226,-200,4,1,1,70,0,1
126935,-100,4,1,1,70,0,1
133785,-200,4,1,1,70,0,1
134494,-100,4,1,1,70,0,1
141581,-200,4,1,1,70,0,1
142289,-100,4,1,1,70,0,1
148903,-200,4,1,1,70,0,1
149612,-100,4,1,1,70,0,1
156462,-200,4,1,1,70,0,1
156935,-100,4,1,1,70,0,1
162604,-200,4,1,1,70,0,1
163077,-100,4,1,1,70,0,1
164258,-200,4,1,1,70,0,1
164730,-100,4,1,1,70,0,1
170163,-200,4,1,1,70,0,1
170636,-100,4,1,1,70,0,1
171817,-200,4,1,1,70,0,1
172762,-100,4,1,1,70,0,1
179612,-100,4,1,1,70,0,0
181502,-100,4,1,1,5,0,0

[Colours]
Combo1 : 253,89,87
Combo2 : 186,235,232
Combo3 : 192,192,192
Combo4 : 190,217,100

[HitObjects]
256,192,557,12,0,3864
184,192,4336,5,0
256,120,4573,1,0
328,192,4809,1,2
256,264,5045,1,0
440,192,5518,5,0
256,24,5990,1,0
72,192,6462,1,2
256,360,6935,1,0
208,64,7644,5,2
256,64,7762,1,0
304,64,7880,1,0
232,132,8116,2,0,B|232:204|144:204,1,125
280,132,8588,2,0,B|280:204|368:204,1,125
256,216,9061,2,0,B|256:344,1,125
304,340,9533,5,2
256,340,9651,1,0
208,340,9770,1,0
280,272,10006,2,0,B|280:200|368:200,1,125
232,272,10478,2,0,B|232:200|144:200,1,125
256,188,10951,2,0,B|256:60,1,125
256,63,11423,1,0
208,132,11896,5,0
308,132,12132,1,0
308,232,12368,1,2
208,232,12604,1,0
80,352,13077,5,0
80,24,13549,1,0
432,24,14022,1,2
432,360,14494,1,0
432,140,15203,5,2
432,188,15321,1,0
432,236,15439,1,0
364,164,15675,2,0,B|292:164|292:76,1,125
364,212,16147,2,0,B|292:212|292:300,1,125
280,188,16620,2,0,B|152:188,1,125
32,244,17092,5,2
32,196,17210,1,0
32,148,17329,1,0
100,220,17565,2,0,B|172:220|172:308,1,125
100,172,18037,2,0,B|172:172|172:84,1,125
184,196,18510,2,0,B|312:195,1,125
309,195,18982,1,0
152,272,19455,5,0
216,192,19691,1,0
272,272,19927,1,2
328,192,20163,1,0
384,272,20399,2,0,B|472:272|472:176,1,125
472,152,20754,1,0
472,104,20872,1,2
384,56,21108,5,0
184,56,21581,1,2
184,256,22053,1,0
32,244,22762,5,2
32,196,22880,1,0
32,148,22998,1,0
100,220,23234,2,0,B|172:220|172:308,1,125
100,172,23707,2,0,B|172:172|172:84,1,125
184,196,24179,2,0,B|312:195,1,125
480,244,24651,5,2
480,196,24770,1,0
480,148,24888,1,0
392,196,25124,2,0,B|320:196|252:196,1,125
160,232,25596,1,0
96,144,25833,5,0
160,64,26069,1,2
224,144,26305,2,0,B|324:220|400:80|472:160,1,250,0|2
96,240,27722,5,0
160,320,27958,1,0
224,240,28195,2,0,B|284:308|360:168|460:244,1,250,0|2
128,80,29612,5,0
128,176,29848,1,2
192,256,30085,1,0
240,280,30203,1,0
288,256,30321,1,0
480,32,30793,5,0
32,32,31266,1,0
120,80,31502,2,0,B|128:72|128:72|136:80|136:80|144:72|144:72|152:80|152:80|160:72|160:72|168:80|168:80|176:72|176:72|184:80|184:80|192:72|192:72|200:80|200:80|208:72|208:72,1,125,6|2
256,72,32092,1,0
288,112,32210,1,0
368,56,32447,1,0
448,112,32683,1,2
368,176,32919,1,0
368,176,33155,1,0
364,272,33392,2,0,B|356:264|356:264|348:272|348:272|340:264|340:264|332:272|332:272|324:264|324:264|316:272|316:272|308:264|308:264|300:272|300:272|292:264|292:264|284:272|284:272|273:264|273:264|268:272|268:272|256:264|256:264,1,125,6|2
240,268,33982,1,0
208,228,34100,1,0
248,136,34336,5,0
152,136,34573,1,2
88,216,34809,1,0
152,288,35045,1,0
252,288,35281,2,0,B|352:336|412:184|304:128,1,250,4|0
284,108,35872,1,0
324,76,35990,1,0
464,296,36344,5,0
464,344,36462,1,2
368,344,36699,1,0
288,288,36935,1,0
244,216,37171,2,0,B|252:208|252:208|260:216|260:216|268:208|268:208|276:216|276:216|284:208|284:208|292:216|292:216|300:208|300:208|308:216|308:216|316:208|316:208|324:216|324:216|332:208|332:208|340:216,1,125,6|2
384,208,37762,1,0
384,160,37880,1,0
280,52,38234,5,0
232,52,38352,1,2
308,120,38588,1,0
208,120,38825,1,0
256,208,39061,2,0,B|248:215|248:215|256:215|256:215|248:223|248:223|256:223|256:223|248:231|248:231|256:231|256:231|248:239|248:239|256:240|256:240|248:247|248:247|256:247|256:247|248:255|248:255|256:255|256:255|248:263|248:263|256:263|256:263|248:271|248:271|256:271|256:271|248:279|248:279|256:279|256:279|248:287|248:287|256:287|256:287|248:295|248:295|256:295|256:295|248:303|248:303|256:303|256:303|248:311|248:311|256:312,1,250,6|2
296,72,39770,5,0
388,192,40124,1,0
300,312,40478,1,0
184,72,40951,2,0,B|136:112|136:184|168:184|200:184|200:256|152:320,1,250,6|2
256,316,41659,5,0
308,228,41896,1,0
296,180,42014,1,0
308,132,42132,1,2
408,132,42368,1,0
420,84,42486,1,0
408,36,42604,1,2
216,36,42840,2,0,B|152:116|120:4|48:84,1,187.5,4|0
256,192,44022,12,0,45439
464,336,45911,5,8
440,248,46147,1,0
392,160,46384,1,0
344,248,46620,2,0,B|208:248,1,125,0|0
120,248,47092,2,0,B|160:160|160:216|120:120,1,125,2|2
126,135,47801,5,8
76,48,48037,2,8,B|108:3|144:64|192:32,1,125,0|0
331,56,48510,2,0,B|256:56|256:136,1,125,0|0
256,212,48982,2,0,B|264:212|264:212|256:220|256:220|264:220|264:220|256:228|256:228|264:228|264:228|256:236|256:236|264:236|264:236|256:244|256:244|264:244|264:244|256:252|256:252|264:252|264:252|256:260|256:260|264:260|264:260|256:268|256:268|264:268|264:268|256:276|256:276|264:276|264:276|256:284|256:284|264:284|264:284|256:292|256:292|264:292|264:292|256:300|256:300|260:312|260:312,1,187.499994412065,2|2
144,232,49691,5,8
96,144,49927,1,0
192,144,50163,1,0
144,56,50399,1,0
244,56,50636,1,8
292,144,50872,1,0
316,188,50990,1,0
292,232,51108,1,8
256,324,51344,5,0
256,124,51817,2,0,B|255:252,2,125,0|2|2
256,72,52998,1,0
32,32,53470,5,8
96,112,53707,1,0
160,32,53943,1,0
224,112,54179,1,0
288,32,54415,1,0
348,112,54651,2,0,B|348:224|280:224,1,125,2|2
252,220,55242,5,0
204,220,55360,1,8
228,316,55596,1,0
328,316,55833,1,0
352,272,55951,1,0
376,316,56069,1,0
408,384,56305,1,0
440,316,56541,2,0,B|508:316|508:180,1,125,2|2
400,220,57250,6,0,B|348:272|324:184|264:248,1,125,8|0
284,132,57722,1,0
400,132,57959,1,0
400,32,58195,1,8
284,32,58431,1,0
344,224,58903,1,0
456,320,59376,2,0,B|344:384|344:272|216:344,1,250
120,152,60793,6,0,B|120:88,2,62.5,0|0|8
472,296,61738,1,2
64,296,62210,1,8
192,152,62683,5,0
232,120,62801,1,0
232,72,62919,1,8
328,32,63155,1,0
416,208,63628,1,2
388,168,63746,1,0
360,208,63864,1,8
260,208,64100,1,0
64,240,64809,5,0
104,208,64927,1,0
104,112,65163,1,8
200,112,65399,1,0
200,64,65518,1,0
288,48,65754,1,0
320,88,65872,1,0
288,128,65990,1,0
352,224,66462,5,0
312,256,66581,1,0
264,256,66699,1,8
224,176,66935,1,0
196,80,67171,1,0
224,40,67289,1,0
252,80,67407,1,8
352,80,67644,1,0
376,176,67880,1,0
32,176,68352,5,0
128,208,68588,1,8
224,176,68825,1,0
432,68,69297,2,0,B|280:68,1,125,2|8
120,96,70242,5,0
96,136,70360,1,0
120,176,70478,1,8
120,276,70714,1,0
196,212,70951,1,0
268,280,71187,1,2
340,212,71423,1,8
416,280,71659,1,0
180,92,72368,5,8
140,124,72486,1,0
76,192,72722,1,0
140,272,72959,1,8
180,304,73077,1,0
180,192,73313,1,8
232,192,73431,1,0
280,192,73549,1,0
304,40,74022,5,0
256,60,74140,1,0
208,44,74258,1,8
256,132,74494,1,0
356,136,74730,1,0
160,136,74966,1,8
256,232,75203,1,0
256,232,75439,1,0
256,192,75675,12,0,79455
80,144,79927,5,0
144,216,80163,1,0
240,216,80399,1,2
304,144,80636,1,0
476,44,81108,2,0,B|472:140|364:140,1,125
404,184,81699,1,0
404,232,81817,1,0
404,332,82053,1,2
208,288,82525,2,0,B|72:288,1,125,0|2
256,192,83234,12,0,87014
48,176,87486,5,0
160,80,87722,1,0
288,176,87959,1,2
392,80,88195,1,0
352,108,88313,1,0
392,136,88431,1,0
392,232,88667,2,0,B|400:296|312:328,1,125,2|0
280,296,89258,1,0
240,324,89376,1,2
256,208,89612,1,0
212,116,89848,5,0
256,92,89966,1,0
300,116,90084,1,2
256,208,90321,1,0
256,208,90557,1,2
256,192,90793,12,0,94573
107,110,95045,5,0
192,208,95281,1,0
288,112,95518,1,0
360,208,95754,1,2
384,168,95872,1,0
408,120,95990,1,0
492,172,96226,1,2
468,212,96344,1,0
444,260,96462,1,0
204,176,96699,6,0,B|172:116|156:156|112:88,1,125,0|0
64,96,97289,1,0
64,144,97407,1,0
104,236,97644,1,2
140,268,97762,1,0
188,288,97880,1,0
288,292,98116,1,2
256,192,98352,12,0,100714
48,72,101423,5,0
144,184,101659,1,2
248,72,101896,2,0,B|216:128|248:128|272:128|272:176|240:208,2,125,0|0|2
384,80,103313,5,0
464,256,103549,1,0
304,260,103785,2,0,B|248:284|232:212|160:276,1,125,0|2
44,116,104730,5,0
236,56,105203,1,0
312,124,105439,1,2
380,200,105675,1,0
408,240,105793,1,0
380,284,105911,1,4
184,248,106384,5,0
112,176,106620,1,2
184,104,106856,1,0
256,176,107092,1,0
328,104,107329,1,2
400,176,107565,1,0
328,248,107801,1,4
168,120,108273,6,0,B|216:152|264:88|320:152,1,125,0|2
328,56,108746,1,0
424,96,108982,1,0
328,128,109218,1,2
328,228,109455,1,0
304,272,109573,1,0
328,312,109691,1,4
160,176,110163,6,0,B|168:168|168:168|160:160|160:160|168:152|168:152|160:144|160:144|168:136|168:136|160:128|160:128|168:120|168:120|160:112|160:112|168:104|168:104|160:96|160:96|168:88|168:88|160:80|160:80|168:72|168:72|160:88,1,125,0|2
264,40,110636,1,0
264,248,110872,1,0
56,248,111108,1,2
56,40,111344,1,0
160,144,111581,1,4
320,144,112053,5,0
296,192,112171,1,0
256,216,112289,1,0
156,216,112525,1,2
80,152,112762,1,0
156,88,112998,1,0
228,152,113234,1,2
272,124,113352,1,0
320,152,113470,1,4
160,304,113943,5,2
56,192,114179,1,0
160,64,114415,1,0
256,192,114651,1,2
352,64,114888,1,0
440,192,115124,1,0
352,304,115360,1,6
136,80,121029,5,0
216,144,121266,1,0
256,112,121384,1,0
296,144,121502,1,8
368,72,121738,1,0
440,144,121974,1,0
368,216,122210,1,0
420,300,122447,1,8
372,312,122565,1,0
324,300,122683,1,0
264,232,122919,5,0
248,280,123037,1,0
204,304,123155,1,0
104,304,123392,1,8
104,204,123628,1,0
388,200,123864,5,0
344,228,123982,1,0
300,204,124100,1,8
196,68,124336,1,0
104,204,124573,1,8
12,68,124809,1,0
104,204,125045,6,0,B|104:308|212:308,1,125,0|0
236,232,125518,1,0
284,232,125636,1,0
332,232,125754,1,8
284,144,125990,1,0
372,320,126226,2,0,B|311:282|263:370|194:311,1,187.5,0|0
96,312,127171,5,8
144,224,127407,1,0
144,124,127644,1,0
164,80,127762,1,0
184,124,127880,1,8
272,172,128116,1,0
272,72,128352,1,8
424,240,128588,6,0,B|354:294|320:216|240:264,1,187.5,0|0
245,261,129061,1,0
184,180,129297,1,8
184,80,129533,1,0
284,80,129770,1,8
284,180,130006,2,0,B|288:256|384:258,1,125,0|8
416,176,130478,5,0
456,152,130596,1,0
480,112,130714,1,8
480,12,130951,1,0
380,12,131187,2,0,B|300:12|268:68,1,125,0|0
162,15,131659,2,0,B|237:14|272:64,1,125,0|8
176,112,132132,1,0
264,160,132368,1,0
64,160,132604,6,0,B|56:168|56:168|64:176|64:176|56:184|56:184|64:192|64:192|56:200|56:200|64:208|64:208|56:216|56:216|64:224|64:224|56:232|56:232|64:240|64:240|56:248,1,125,0|8
152,288,133077,1,0
200,288,133195,1,0
240,256,133313,1,8
240,256,133549,1,0
240,152,133785,2,0,B|288:88|352:184|424:128,1,187.5
416,32,134730,5,8
316,32,134966,1,0
268,40,135084,1,0
220,32,135203,1,0
268,120,135439,1,8
200,192,135675,1,0
340,192,135911,1,8
340,192,136147,5,0
424,140,136384,1,0
472,140,136502,1,8
448,96,136620,1,8
336,84,136856,1,0
256,24,137092,1,0
176,84,137329,1,0
100,140,137565,2,0,B|92:148|92:148|84:140|84:140|76:148|76:148|68:140|68:140|60:148|60:148|52:140|52:140|44:148|44:148|36:140|36:140|28:148|28:148|20:140|20:140|12:148,1,125,8|0
120,208,138037,5,0
144,248,138155,1,0
192,264,138273,1,8
260,140,138510,2,0,B|212:100|300:68|244:4,1,125,0|8
356,24,138982,1,0
392,60,139100,1,0
356,96,139218,1,8
356,196,139455,1,0
256,112,139691,1,8
156,196,139927,1,0
156,296,140163,5,0
256,312,140399,1,8
356,296,140636,1,0
208,212,140872,1,0
256,196,140990,1,0
304,212,141108,1,8
382,154,141344,1,8
464,212,141581,2,0,B|508:160|508:88|460:32,1,187.5,0|8
288,152,142525,5,0
128,152,142762,1,0
168,120,142880,1,0
208,152,142998,1,0
168,244,143234,1,8
208,336,143470,1,0
308,336,143707,5,0
344,300,143825,1,0
348,252,143943,1,0
344,152,144179,1,8
312,60,144415,2,0,B|260:104|256:12|152:100,2,125
404,112,145124,1,0
432,152,145242,1,0
404,192,145360,1,8
288,272,145596,6,0,B|224:295|165:274,1,125,0|8
206,158,146069,2,0,B|206:226|166:274,1,125,0|8
128,156,146541,2,0,B|127:224|167:272,1,125,0|8
52,312,147014,2,0,B|99:272|167:272,1,125,0|8
168,272,147486,1,8
251,219,147722,5,0
292,190,147840,1,0
292,140,147959,1,8
387,74,148195,1,0
439,159,148431,1,0
433,208,148549,1,0
406,250,148667,1,8
360,272,148785,1,0
312,272,148903,2,0,B|280:303|226:232|176:298|125:273,1,187.5,8|0
144,177,149848,5,8
229,35,150084,1,0
375,37,150321,1,0
458,176,150557,1,8
304,256,150793,1,0
301,124,151029,1,8
40,339,151266,5,0
72,300,151384,1,0
94,255,151502,1,0
96,156,151738,1,8
148,68,151974,1,0
248,68,152210,1,0
300,152,152447,1,0
200,152,152683,1,8
204,252,152919,1,0
304,252,153155,2,0,B|353:331|408:244,2,125,0|0|8
397,175,153864,5,0
398,124,153982,1,0
354,148,154100,1,0
270,116,154336,1,0
174,86,154573,1,8
80,121,154809,1,0
175,152,155045,1,0
303,274,155518,5,8
384,215,155754,1,0
303,154,155990,1,0
223,215,156226,1,0
136,160,156462,2,0,B|184:224|96:224|148:291,1,125
285,41,157644,5,0
198,47,157880,1,0
140,115,158116,1,0
135,209,158352,1,8
176,240,158470,1,0
216,208,158588,1,0
312,208,158825,1,0
58,57,159533,5,0
32,96,159651,1,0
32,144,159770,1,0
30,245,160006,1,8
98,318,160242,1,0
169,247,160478,1,8
237,319,160714,1,0
401,94,161423,6,0,B|368:121|305:52|238:133,1,125
179,102,161896,1,8
88,144,162132,2,0,B|48:200|88:264,1,125
184,264,162604,2,0,B|336:264,1,125
419,194,163313,1,0
417,93,163549,1,8
367,93,163667,1,0
329,125,163785,1,0
248,159,164022,1,0
248,256,164258,2,0,B|216:224|176:312|126:243,1,125,0|0
142,54,165203,5,0
217,54,165439,1,8
259,80,165557,1,0
301,53,165675,1,0
307,152,165911,1,0
312,248,166147,1,8
313,297,166266,1,0
362,299,166384,1,0
402,214,166620,5,0
398,113,166856,1,0
321,49,167092,1,8
221,49,167329,2,0,B|159:49|121:117,1,125
115,164,167683,1,0
116,214,167801,1,8
216,216,168037,1,0
273,134,168273,1,0
332,212,168510,1,0
377,189,168628,1,0
424,212,168746,1,8
376,300,168982,6,0,B|344:360|264:348,1,125
192,292,169455,1,0
136,204,169691,1,8
136,100,169927,1,0
224,64,170163,2,0,B|368:64,1,125,0|8
304,156,170872,1,0
288,256,171108,1,0
192,288,171344,1,0
96,288,171581,1,8
96,288,171817,2,0,B|96:144,2,125,0|0|0
184,328,172998,5,0
184,224,173234,1,0
280,216,173470,1,8
280,168,173588,1,0
280,120,173707,1,0
184,120,173943,1,0
32,64,174179,5,0
32,64,174297,1,0
32,64,174415,1,8
80,168,174651,1,0
120,200,174770,1,0
160,168,174888,1,0
240,104,175124,1,8
344,104,175360,1,0
392,120,175478,1,0
428,156,175596,1,8
444,204,175714,1,0
440,252,175833,1,0
256,56,176541,5,0
335,302,176777,1,0
126,149,177014,1,0
385,149,177250,1,0
176,302,177486,1,8
165,161,178195,5,0
200,268,178431,1,8
256,96,178667,1,0
311,268,178903,1,0
346,161,179140,1,0
256,192,179376,1,0
256,192,179612,12,0,181502
