osu file format v9

[General]
AudioFilename: edward_maya_and_vika_jigulina_-_desert_rain.mp3
AudioLeadIn: 2000
PreviewTime: 90530
Countdown: 0
SampleSet: Normal
StackLeniency: 0.7
Mode: 0
LetterboxInBreaks: 1
StoryFireInFront: 0

[Editor]
Bookmarks: 15511,30511,45511,73636,105511,120511,135511,148636,180511,195511,210511,225511
DistanceSpacing: 1.2
BeatDivisor: 4
GridSize: 4

[Metadata]
Title:Desert Rain
Artist:Edward Maya feat. Vika Jigulina
Creator:Aleks719
Version:Hard
Source:
Tags:Mayavin records dance Roddie IceBeam cesc h3k1ru Card N'FoRcE

[Difficulty]
HPDrainRate:6
CircleSize:4
OverallDifficulty:6
ApproachRate:7
SliderMultiplier:1.5
SliderTickRate:1

[Events]
//Background and Video events
0,0,"flower.jpg"
//Break Periods
2,105730,119630
2,180730,194630
//Storyboard Layer 0 (Background)
//Storyboard Layer 1 (Fail)
//Storyboard Layer 2 (Pass)
//Storyboard Layer 3 (Foreground)
//Storyboard Sound Samples
//Background Colour Transformations
3,100,171,145,101

[TimingPoints]
530,468.75,4,2,0,35,1,0
7894,-100,4,2,0,20,0,0
8129,-100,4,2,0,35,0,0
15394,-100,4,1,0,35,0,0
16683,-100,4,2,0,45,0,0
17152,-100,4,1,0,35,0,0
18558,-100,4,2,0,45,0,0
19027,-100,4,1,0,35,0,0
20433,-100,4,2,0,45,0,0
20902,-100,4,1,0,35,0,0
22426,-100,4,2,0,45,0,0
22894,-100,4,1,0,35,0,0
24183,-100,4,2,0,45,0,0
24652,-100,4,1,0,35,0,0
26058,-100,4,2,0,45,0,0
26527,-100,4,1,0,35,0,0
27113,-100,4,2,0,45,0,0
27347,-100,4,1,0,35,0,0
28051,-100,4,2,0,45,0,0
30277,-100,4,1,0,40,0,0
34144,-100,4,2,0,45,0,0
34554,-100,4,1,0,40,0,0
37601,-100,4,2,0,45,0,0
37894,-100,4,1,0,40,0,0
40941,-100,4,2,0,45,0,0
41234,-100,4,1,0,40,0,0
42640,-100,4,2,0,45,0,0
43051,-100,4,1,0,40,0,0
45746,-100,4,1,0,40,0,0
47152,-100,4,2,0,45,0,0
47621,-100,4,1,0,40,0,0
49027,-100,4,2,0,45,0,0
49496,-100,4,1,0,40,0,0
52777,-100,4,1,0,30,0,0
53246,-100,4,1,0,40,0,0
57347,-100,4,2,0,45,0,0
57582,-100,4,1,0,40,0,0
58285,-100,4,2,0,45,0,0
58988,-100,4,1,0,40,0,0
61566,-100,4,2,0,45,0,0
61801,-100,4,1,0,40,0,0
62035,-100,4,2,0,45,0,0
62269,-100,4,1,0,40,0,0
63441,-100,4,2,0,45,0,0
63676,-100,4,1,0,40,0,0
63910,-100,4,2,0,45,0,0
64144,-100,4,1,0,40,0,0
65785,-100,4,2,0,45,0,0
66957,-100,4,1,0,40,0,0
69066,-100,4,2,0,45,0,0
69301,-100,4,1,0,40,0,0
69535,-100,4,2,0,45,0,0
70121,-100,4,1,0,40,0,0
70941,-100,4,2,0,45,0,0
71176,-100,4,1,0,40,0,0
71527,-100,4,2,0,45,0,0
71996,-100,4,1,0,40,0,0
72465,-100,4,1,0,30,0,0
72933,-100,4,1,0,20,0,0
73988,-100,4,1,0,30,0,0
74457,-100,4,1,0,40,0,0
75530,-100,4,1,0,45,0,1
90295,-100,4,1,0,45,0,0
90530,-100,4,1,0,45,0,1
105530,-100,4,1,0,25,0,0
120277,-100,4,1,0,40,0,0
120746,-100,4,2,0,45,0,0
146996,-100,4,1,0,30,0,0
147483,-100,4,1,0,25,0,0
147933,-100,4,1,0,20,0,0
148988,-100,4,1,0,30,0,0
149457,-100,4,1,0,40,0,0
150530,-100,4,1,0,45,0,1
165295,-100,4,1,0,45,0,0
165530,-100,4,1,0,45,0,1
180530,-100,4,1,0,25,0,0
195277,-133.333333333333,4,1,0,40,0,0
195746,-133.333333333333,4,2,0,45,0,0
197287,-133.333333333333,4,2,0,35,0,0
197522,-133.333333333333,4,2,0,45,0,0
199162,-133.333333333333,4,2,0,35,0,0
199397,-133.333333333333,4,2,0,45,0,0
201037,-133.333333333333,4,2,0,35,0,0
201272,-133.333333333333,4,2,0,45,0,0
202912,-133.333333333333,4,2,0,35,0,0
203147,-133.333333333333,4,2,0,45,0,0
204787,-133.333333333333,4,2,0,35,0,0
205022,-133.333333333333,4,2,0,45,0,0
210043,-133.333333333333,4,2,0,45,0,0
210530,-100,4,1,0,45,0,1
225295,-100,4,1,0,45,0,0
225530,-100,4,1,0,45,0,1
239123,-100,4,1,0,35,0,1
239592,-100,4,1,0,25,0,1
240061,-100,4,1,0,15,0,1
240530,-100,4,1,0,5,0,0

[Colours]
Combo1 : 0,128,0
Combo2 : 64,128,128
Combo3 : 255,0,0
Combo4 : 128,0,255
Combo5 : 255,128,0

[HitObjects]
256,192,530,12,2,4280
80,192,4983,2,0,B|64:104|64:104,2,75,2|0|2
184,336,5920,2,0,B|256:312|256:312|336:336,1,150,0|2
256,168,6858,1,0
432,192,7326,2,0,B|448:104|448:104,2,75,2|0|2
412,280,8030,5,4
336,328,8264,1,0
156,328,8733,1,2
80,276,8967,1,0
60,188,9201,1,2
92,104,9436,1,0
256,176,9905,5,0
256,176,10139,1,2
432,132,10608,1,2
372,68,10842,2,0,B|344:44|300:32,2,75,0|2|0
384,248,11780,1,2
16,288,12483,5,0
16,288,12717,2,0,B|80:312|80:312|152:304|152:304|233:328|233:328,2,225,2|2|0
40,200,14358,1,2
160,64,14826,1,0
184,152,15061,1,0
256,208,15295,1,2
344,240,15530,5,4
168,240,15998,1,0
256,88,16467,1,0
256,272,16936,1,2
96,192,17405,6,0,B|72:304,2,112.5
112,104,18342,2,0,B|96:16,2,75,0|2|4
144,280,19280,5,4
232,176,19631,2,0,B|280:216,1,37.5
344,240,19983,1,0
432,240,20217,1,0
496,176,20451,1,2
448,96,20686,1,4
272,80,21155,6,0,B|351:102|373:181,1,150,4|0
284,172,21858,1,0
200,204,22092,2,0,B|250:232|256:271,1,75
168,288,22561,2,0,B|139:316|139:316,2,37.5,2|2|2
104,216,23030,5,4
152,136,23264,2,0,B|123:108|123:108,2,37.5,0|0|0
216,200,23733,2,0,B|296:256|376:240,1,150,0|2
448,232,24436,1,4
344,88,24905,6,0,B|232:112,2,112.5,0|0|0
416,136,25842,2,0,B|504:152,2,75,0|2|4
256,48,26780,5,4
176,88,27014,1,0
96,128,27248,1,2
256,216,27717,1,0
336,256,27951,1,0
416,296,28186,1,2
240,256,28655,6,0,B|168:232|84:256,1,150,2|6
264,200,29592,2,0,B|336:176|420:200,1,150,2|6
300,60,30530,6,0,B|264:48|224:60,1,75,4|0
263,141,30998,2,0,B|223:157|189:141,1,75,8|0
226,60,31467,2,0,B|190:48|150:60,1,75
64,88,31936,1,8
184,224,32405,6,0,B|256:256|332:224,1,150,0|8
464,104,33342,2,0,B|392:72|316:104,1,150,0|8
160,192,34280,5,2
144,204,34397,1,2
128,216,34514,1,2
152,304,34748,1,8
244,304,34983,1,0
268,216,35217,1,0
196,160,35451,2,0,B|180:120|204:56,1,75,0|8
420,56,36155,5,4
460,276,36623,1,8
236,252,37092,1,0
180,36,37561,2,0,B|128:32,2,37.5,8|2|2
268,56,38030,5,4
344,104,38264,1,0
376,188,38498,1,8
344,272,38733,1,0
268,320,38967,1,0
192,272,39201,1,0
152,192,39436,1,8
344,272,39905,5,4
424,164,40256,1,0
424,164,40373,1,8
376,88,40608,2,0,B|336:72|272:96,1,75,0|0
216,112,41076,1,2
200,124,41194,1,2
184,136,41311,1,8
40,264,41780,6,0,B|56:356|148:368|232:356|256:256,1,300,4|2
192,196,42951,1,2
100,196,43186,1,8
284,196,43655,5,4
140,24,44123,1,8
64,236,44592,1,0
284,196,45061,2,0,B|356:228|432:196,1,150,8|4
120,256,45998,6,0,B|88:184|120:108,1,150,8|0
172,36,46701,1,0
224,112,46936,1,8
204,200,47170,1,2
256,276,47405,1,4
396,256,47873,6,0,B|428:184|396:108,1,150,8|0
340,36,48576,1,0
288,112,48811,1,8
308,200,49045,1,2
256,276,49280,1,4
256,116,49748,6,0,B|216:60|124:60,1,150,8|0
256,184,50686,2,0,B|296:128|388:128,1,150,8|0
256,252,51623,2,0,B|216:196|124:196,1,150,8|0
256,320,52561,2,0,B|296:264|388:264,1,150,8|4
212,236,53498,6,0,B|156:196|156:104,1,150,8|0
224,44,54201,1,0
248,132,54436,1,8
308,200,54670,1,0
380,252,54905,1,4
152,352,55373,6,0,B|68:352|32:268,1,150,8|0
96,208,56076,1,0
180,236,56311,1,8
248,180,56545,1,0
332,212,56780,1,4
504,156,57248,5,8
420,184,57483,1,2
420,272,57717,1,0
336,304,57951,1,0
316,312,58069,1,0
296,320,58186,1,8
212,352,58420,2,0,B|120:376|64:316,1,150,2|2
28,244,59123,6,0,B|8:160|8:160,2,75,8|0|0
120,244,59826,1,0
160,164,60061,1,8
236,116,60295,1,0
300,52,60530,1,4
160,164,60998,5,8
296,284,61467,1,0
372,236,61701,1,2
460,244,61936,1,8
440,156,62170,1,2
480,76,62405,1,4
304,112,62873,5,8
256,284,63342,1,0
184,228,63576,1,2
92,228,63811,1,8
20,284,64045,1,2
92,228,64280,1,4
144,56,64748,5,8
232,68,64983,2,0,B|328:108,1,75
384,132,65451,1,0
396,140,65569,1,0
408,148,65686,1,8
360,224,65920,2,0,B|288:256|212:224,2,150,2|2|2
448,240,67092,2,0,B|460:296|424:348,1,112.5,0|0
416,356,67561,2,0,B|372:344|316:360,2,75,8|0|4
236,192,68498,5,8
60,228,68967,2,0,B|48:192|64:152,1,75,0|2
148,120,69436,2,0,B|160:156|144:196,1,75,8|2
128,284,69905,1,4
280,192,70373,5,8
456,228,70842,2,0,B|468:192|452:152,1,75,0|2
368,120,71311,2,0,B|356:156|372:196,1,75,8|2
384,284,71780,1,4
256,100,72248,5,0
144,296,72717,1,0
368,296,73186,1,0
100,256,73655,6,2,B|60:296,2,37.5
100,164,74123,2,2,B|56:120,2,37.5
192,164,74592,2,2,B|232:124,2,37.5,2|2|2
196,256,75061,1,0
272,304,75295,1,0
364,308,75530,5,4
472,228,75881,1,0
472,228,75998,2,0,B|488:188|464:124,1,75,8|0
392,120,76467,1,0
380,132,76584,1,0
292,104,76819,1,0
280,92,76936,1,10
104,68,77405,5,2
104,88,77522,1,2
104,108,77639,1,2
104,196,77873,2,0,B|60:240,2,37.5,8|0|2
196,196,78342,1,0
216,196,78459,1,0
236,196,78576,1,2
188,112,78811,1,10
256,280,79280,5,4
380,336,79631,1,0
380,336,79748,2,0,B|396:296|372:232,1,75,8|0
312,204,80217,1,0
312,188,80334,1,0
380,136,80569,1,0
380,136,80686,2,0,B|364:96|388:32,2,75,10|0|2
400,224,81389,5,2
424,312,81623,1,8
500,260,81858,1,2
476,172,82092,1,0
400,224,82326,1,2
324,276,82561,2,0,B|304:336,2,37.5,10|2|2
312,184,83030,5,2
300,172,83147,1,2
288,160,83264,1,2
256,76,83498,1,8
180,124,83733,1,2
120,192,83967,1,0
180,260,84201,1,2
256,308,84436,1,10
396,192,84905,5,2
408,180,85022,1,2
420,168,85139,1,2
420,80,85373,2,0,B|456:44,2,37.5,8|0|2
328,76,85842,1,0
316,64,85959,1,0
304,52,86076,1,2
256,128,86311,1,10
92,200,86780,5,4
108,112,87014,1,2
196,100,87248,2,0,B|235:83|263:20,2,75,8|2|0
232,184,87951,1,2
232,184,88186,1,10
332,332,88655,5,6
316,244,88889,1,2
344,160,89123,1,8
396,88,89358,2,0,B|300:48,1,75,2|0
236,64,89826,1,2
160,116,90061,1,6
256,332,90530,5,4
432,192,90998,1,8
256,52,91467,1,0
80,192,91936,1,8
256,332,92405,5,2
292,248,92639,1,0
360,188,92873,1,8
292,128,93108,1,0
224,188,93342,2,0,B|152:220|76:188,1,150,2|10
20,120,94045,1,2
78,189,94280,6,0,B|128:184|160:152,1,75,0|0
204,96,94748,1,8
268,160,94983,1,0
268,252,95217,2,0,B|340:220|416:252,2,150,2|8|2
188,296,96389,5,2
108,336,96623,1,8
28,296,96858,1,2
28,208,97092,1,0
108,164,97326,1,2
188,208,97561,2,0,B|236:180,2,37.5,10|2|2
108,252,98030,5,4
196,96,98498,1,8
280,256,98967,1,0
364,96,99436,1,8
448,256,99905,1,2
280,192,100373,5,8
188,196,100608,2,0,B|120:252,1,75,0|2
232,96,101311,2,0,B|304:128|380:96,1,150,8|2
328,268,102248,2,0,B|256:236|180:268,1,150,8|2
304,132,103186,1,8
256,192,103655,12,4,105530
256,192,120530,5,4
108,88,120998,2,0,B|180:56|256:88,1,150,8|0
332,128,121701,1,0
396,192,121936,1,8
432,276,122170,1,2
452,364,122405,1,4
328,236,122873,6,0,B|256:268|180:236,1,150,8|0
168,328,123576,1,0
256,352,123811,1,8
344,332,124045,1,2
256,312,124280,1,4
236,132,124748,6,0,B|196:76|104:76,1,150,8|0
276,132,125686,2,0,B|316:76|408:76,1,150,8|0
408,256,126623,2,0,B|368:200|276:200,1,150,8|0
104,256,127561,2,0,B|144:200|236:200,1,150,8|4
368,324,128498,6,0,B|312:284|312:192,1,150,8|0
300,100,129201,1,2
300,100,129436,1,8
376,148,129670,1,0
432,220,129905,1,4
300,100,130373,6,0,B|300:184|216:220,1,150,8|0
132,224,131076,1,2
48,192,131311,1,8
68,280,131545,1,0
36,364,131780,1,4
212,272,132248,5,8
256,192,132483,2,0,B|296:96,1,75
352,180,132951,2,0,B|432:144,1,75,0|8
504,112,133420,2,0,B|536:184|504:260,1,150,2|2
432,312,134123,6,0,B|356:352|356:352,2,75,8|0|0
400,228,134826,1,2
320,188,135061,1,8
232,196,135295,1,0
152,152,135530,1,4
152,152,135998,5,8
288,272,136467,1,0
372,236,136701,1,2
348,148,136936,1,8
440,156,137170,1,2
480,76,137405,1,4
304,112,137873,5,8
256,284,138342,1,0
184,340,138576,1,2
92,340,138811,1,8
20,284,139045,1,2
20,284,139280,1,4
112,132,139748,5,8
112,132,139983,2,0,B|200:96,1,75
264,68,140451,2,0,B|296:36,2,37.5,2|0|8
244,156,140920,2,0,B|316:188|392:156,2,150,2|2|2
160,128,142092,2,0,B|132:184|136:244,1,112.5,0|2
144,248,142561,2,0,B|188:260|244:244,2,75,8|0|4
316,192,143498,5,8
152,120,143967,2,0,B|188:108|228:124,1,75,0|2
188,204,144436,2,0,B|152:216|112:200,1,75,8|2
40,148,144905,1,4
112,312,145373,5,8
292,328,145842,2,0,B|304:292|288:252,1,75,0|2
380,252,146311,2,0,B|368:288|384:328,1,75,8|2
464,284,146780,1,4
168,320,147248,5,0
48,44,147717,1,0
348,80,148186,1,0
124,280,148655,6,2,B|84:320,2,37.5
124,188,149123,2,2,B|80:144,2,37.5
216,188,149592,2,2,B|256:148,2,37.5,2|2|2
220,280,150061,1,0
308,300,150295,1,0
396,280,150530,5,4
308,180,150881,1,0
316,168,150998,2,0,B|332:128|308:64,1,75,8|0
260,24,151467,1,0
172,32,151701,1,0
88,64,151936,1,10
168,224,152405,6,0,B|124:268,2,37.5,2|2|2
232,160,152873,1,8
252,160,152990,1,0
272,160,153108,1,2
336,96,153342,2,0,B|384:48,2,37.5,0|0|2
336,96,153811,1,10
256,256,154280,5,4
136,320,154631,1,0
144,328,154748,2,0,B|184:344|248:320,1,75,8|0
308,320,155217,1,0
316,312,155334,1,0
388,260,155569,1,0
396,252,155686,2,0,B|435:235|463:172,2,75,10|0|2
304,232,156389,6,0,B|264:136,1,75,2|8
200,212,156858,2,0,B|120:176,1,75,2|0
52,140,157326,1,2
52,48,157561,2,0,B|52:-16,2,37.5,10|2|2
52,140,158030,6,0,B|68:240,1,75,4|2
140,168,158498,2,0,B|220:204,1,75,8|2
212,108,158967,2,0,B|312:84,1,75,0|2
372,68,159436,1,10
372,248,159905,6,0,B|364:312,2,37.5,2|2|2
304,188,160373,1,8
284,188,160490,1,0
264,188,160608,1,2
196,248,160842,2,0,B|204:308,2,37.5,0|0|2
184,160,161311,1,10
184,160,161780,5,4
108,208,162014,1,2
96,220,162131,1,0
84,232,162248,2,0,B|101:271|164:299,2,75,8|2|0
64,144,162951,2,0,B|128:80,1,75,2|10
312,68,163655,5,6
356,148,163889,1,2
380,236,164123,1,8
428,312,164358,2,0,B|332:352,1,75,2|0
272,360,164826,1,2
184,340,165061,1,2
64,64,165530,5,4
448,64,165998,1,8
448,320,166467,1,0
64,320,166936,1,8
64,64,167405,5,6
240,28,167873,1,8
192,104,168108,1,0
144,180,168342,2,0,B|216:212|292:180,1,150,2|10
372,144,169045,1,2
180,336,169748,5,8
156,248,169983,1,0
180,160,170217,2,0,B|108:128|32:160,2,150,2|8|2
256,208,171389,5,2
336,248,171623,1,8
416,208,171858,1,2
416,120,172092,1,0
336,76,172326,1,2
256,120,172561,2,0,B|208:96,2,37.5,10|2|2
336,164,173030,5,4
156,164,173498,2,0,B|82:192|51:268,2,150,8|2|8
256,312,174905,1,2
392,192,175373,2,0,B|416:160|464:156|464:156,2,75,8|0|2
256,312,176311,6,0,B|184:344|108:312,1,150,8|2
184,148,177248,2,0,B|256:116|332:148,1,150,8|2
256,312,178186,1,8
256,192,178655,12,4,180530
256,192,195530,5,4
72,280,196233,1,2
72,280,196467,2,0,B|40:248|36:192,2,84.3749974854291,2|2|2
120,328,197405,1,4
252,172,198108,5,2
252,172,198342,2,0,B|220:108|160:88,1,112.499996647239,0|2
184,228,199280,2,0,B|120:292|24:292,2,168.749994970858,4|2|2
276,128,201155,1,4
436,344,202092,6,0,B|464:272,1,56.2499983236194,2|0
364,192,202795,2,0,B|348:128,1,56.2499983236194,2|4
152,92,203733,5,2
152,92,203967,2,0,B|116:56|64:56,2,84.3749974854291,2|2|2
200,140,204905,1,4
144,336,205608,5,2
144,336,205842,2,0,B|204:312|268:340,2,112.499996647239,0|2|2
92,212,207248,2,0,B|120:140,1,56.2499983236194,0|2
248,148,207951,2,0,B|268:200,2,56.2499983236194,2|0|0
224,84,208655,5,2
348,132,209123,2,0,B|408:168|404:252|348:296,1,168.749994970858,2|2
232,280,210295,1,2
184,204,210530,5,4
304,140,210881,1,0
312,132,210998,2,0,B|328:92|304:28,1,75,8|0
236,104,211467,2,0,B|220:144|244:208,2,75,0|0|10
416,104,212405,6,0,B|468:112,2,37.5,2|2|2
396,192,212873,2,0,B|336:192,2,37.5,8|0|2
420,280,213342,2,0,B|484:272,2,37.5,0|0|2
332,292,213811,1,10
228,144,214280,5,4
108,204,214631,1,0
100,196,214748,2,0,B|84:156|108:92,2,75,8|0|0
144,276,215451,1,0
212,336,215686,2,0,B|244:368|304:368,2,75,10|0|2
244,252,216389,6,0,B|284:156,1,75,2|8
348,232,216858,2,0,B|428:196,1,75,2|0
500,168,217326,1,2
468,84,217561,2,0,B|436:32,2,37.5,10|2|2
500,168,218030,6,0,B|484:268,1,75,4|2
452,324,218498,2,0,B|372:360,1,75,8|2
312,300,218967,2,0,B|212:276,2,75,0|2|2
344,124,219905,6,0,B|336:60,2,37.5,2|2|2
276,184,220373,1,8
256,184,220490,1,0
236,184,220608,1,2
168,124,220842,2,0,B|176:64,2,37.5,0|0|2
148,212,221311,1,10
324,244,221780,5,4
392,184,222014,1,2
412,272,222248,2,0,B|395:311|332:339,2,75,8|2|0
392,184,222951,2,0,B|368:92,1,75,2|10
252,320,223655,5,6
232,232,223889,1,2
252,144,224123,1,8
204,68,224358,2,0,B|300:28,2,75,2|0|2
120,100,225061,1,6
120,100,225530,5,4
120,280,225998,1,8
300,280,226467,1,0
300,100,226936,1,8
300,100,227405,5,2
376,148,227639,1,0
376,148,227873,1,8
408,232,228108,1,0
408,232,228342,2,0,B|336:264|260:232,1,150,2|10
180,196,229045,1,2
180,196,229748,5,8
116,132,229983,1,0
164,56,230217,2,0,B|92:24|16:56,2,150,2|8|2
240,104,231389,5,2
320,144,231623,1,8
400,104,231858,1,2
400,16,232092,1,0
476,64,232326,1,2
476,152,232561,2,0,B|476:220,2,37.5,10|2|2
400,104,233030,5,4
244,192,233498,2,0,B|216:118|140:87,2,150,8|2|8
72,248,234905,1,2
244,192,235373,2,0,B|248:236|276:272|276:272,2,75,8|0|2
412,124,236311,6,0,B|444:196|412:272,2,150,8|2|8
256,36,237717,2,0,B|224:108|256:184,1,150,2|8
256,192,238655,12,0,240530
