osu file format v9

[General]
AudioFilename: edward_maya_and_vika_jigulina_-_desert_rain.mp3
AudioLeadIn: 2000
PreviewTime: 90530
Countdown: 0
SampleSet: Normal
StackLeniency: 0.7
Mode: 0
LetterboxInBreaks: 1
StoryFireInFront: 0

[Editor]
DistanceSpacing: 0.8
BeatDivisor: 4
GridSize: 4

[Metadata]
Title:Desert Rain
Artist:Edward Maya feat. Vika Jigulina
Creator:Aleks719
Version:Easy
Source:
Tags:Mayavin records dance Roddie IceBeam cesc h3k1ru Card N'FoRcE

[Difficulty]
HPDrainRate:2
CircleSize:3
OverallDifficulty:2
ApproachRate:3
SliderMultiplier:1.2
SliderTickRate:1

[Events]
//Background and Video events
0,0,"flower.jpg"
//Break Periods
2,105730,119090
2,180730,194090
//Storyboard Layer 0 (Background)
//Storyboard Layer 1 (Fail)
//Storyboard Layer 2 (Pass)
//Storyboard Layer 3 (Foreground)
//Storyboard Sound Samples
//Background Colour Transformations
3,100,171,145,101

[TimingPoints]
530,468.75,4,2,0,35,1,0
15277,-100,4,1,0,35,0,0
16683,-100,4,2,0,45,0,0
17152,-100,4,1,0,35,0,0
18558,-100,4,2,0,45,0,0
19027,-100,4,1,0,35,0,0
20433,-100,4,2,0,45,0,0
20902,-100,4,1,0,35,0,0
24183,-100,4,2,0,45,0,0
24652,-100,4,1,0,35,0,0
26058,-100,4,2,0,45,0,0
26527,-100,4,1,0,35,0,0
28402,-100,4,2,0,45,0,0
30277,-100,4,1,0,40,0,0
45746,-100,4,1,0,40,0,0
47152,-100,4,2,0,45,0,0
47621,-100,4,1,0,40,0,0
49027,-100,4,2,0,45,0,0
49496,-100,4,1,0,40,0,0
51155,-100,4,2,0,45,0,0
51272,-100,4,1,0,40,0,0
54652,-100,4,2,0,45,0,0
55121,-100,4,1,0,40,0,0
56527,-100,4,2,0,45,0,0
56996,-100,4,1,0,40,0,0
58402,-100,4,2,0,45,0,0
58871,-100,4,1,0,40,0,0
62152,-100,4,2,0,45,0,0
62621,-100,4,1,0,40,0,0
64027,-100,4,2,0,45,0,0
64496,-100,4,1,0,40,0,0
69652,-100,4,2,0,45,0,0
70121,-100,4,1,0,40,0,0
71527,-100,4,2,0,45,0,0
72014,-100,4,1,0,30,0,0
75530,-100,4,1,0,45,0,1
90295,-100,4,1,0,45,0,0
90530,-100,4,1,0,45,0,1
105530,-100,4,1,0,25,0,0
120295,-100,4,1,0,40,0,0
122170,-100,4,2,0,45,0,0
122639,-100,4,1,0,40,0,0
124045,-100,4,2,0,45,0,0
124514,-100,4,1,0,40,0,0
126155,-100,4,2,0,45,0,0
126272,-100,4,1,0,40,0,0
129670,-100,4,2,0,45,0,0
130139,-100,4,1,0,40,0,0
131545,-100,4,2,0,45,0,0
132014,-100,4,1,0,40,0,0
133420,-100,4,2,0,45,0,0
133889,-100,4,1,0,40,0,0
137170,-100,4,2,0,45,0,0
137639,-100,4,1,0,40,0,0
139045,-100,4,2,0,45,0,0
139514,-100,4,1,0,40,0,0
144670,-100,4,2,0,45,0,0
145139,-100,4,1,0,40,0,0
146662,-100,4,2,0,45,0,0
146790,-100,4,1,0,40,0,0
150530,-100,4,1,0,45,0,1
165295,-100,4,1,0,45,0,0
165530,-100,4,1,0,45,0,1
180530,-100,4,1,0,25,0,0
195295,-100,4,1,0,40,0,0
195764,-100,4,2,0,45,0,0
201037,-100,4,2,0,35,0,0
201272,-100,4,2,0,45,0,0
202912,-100,4,2,0,35,0,0
203147,-100,4,2,0,45,0,0
210530,-100,4,1,0,45,0,1
225295,-100,4,1,0,45,0,0
225530,-100,4,1,0,45,0,1
239123,-100,4,1,0,35,0,1
239592,-100,4,1,0,25,0,1
240061,-100,4,1,0,15,0,1
240530,-100,4,1,0,5,0,0

[Colours]
Combo1 : 0,128,0
Combo2 : 64,128,128
Combo3 : 255,0,0
Combo4 : 128,0,255
Combo5 : 255,128,0

[HitObjects]
256,192,530,12,2,4280
256,192,5217,6,0,B|288:128|352:104|416:128|448:192,1,240,0|2
256,192,7092,2,0,B|224:256|160:280|96:256|64:192,1,240,0|2
160,24,8967,5,0
160,216,9905,1,2
344,168,10842,1,0
344,360,11780,1,2
176,272,12717,6,0,B|232:252|232:252|232:128|232:128|176:104|176:104,2,240,0|2|0
120,192,15061,1,2
24,192,15530,5,0
72,280,15998,1,0
160,320,16467,1,0
256,344,16936,1,2
352,320,17405,2,0,B|472:304,3,120,0|0|0|2
472,208,19280,6,0,B|436:172|436:172|372:208|304:172|304:172|260:216,1,240
204,280,20686,1,2
132,344,21155,2,0,B|96:308|96:308|132:244|96:176|96:176|140:132,1,240
204,76,22561,1,4
300,76,23030,6,0,B|364:108|388:172|364:236|300:268,1,240,0|0
276,172,24436,1,2
180,172,24905,2,0,B|120:148|60:172,3,120,0|0|0|2
120,248,26780,5,0
312,228,27717,1,0
396,56,28655,2,0,B|336:32|276:56,1,120,2|2
336,132,29592,2,0,B|276:156|216:132,1,120,2|2
128,96,30530,6,0,B|104:156|128:216,3,120,4|8|0|10
156,304,32405,2,0,B|216:328|276:304,1,120,0|8
368,304,33342,2,0,B|428:328|488:304,1,120,0|10
428,228,34280,6,0,B|396:164|332:140|268:164|236:228,2,240,4|0|4
332,248,36623,1,8
288,332,37092,1,0
192,332,37561,1,10
156,244,38030,6,0,B|92:212|68:148|92:84|156:52,2,240,4|0|2
176,148,40373,1,8
272,148,40842,1,0
368,148,41311,1,10
388,52,41780,6,0,B|452:84|476:148|452:212|388:244,2,240,4|0|6
368,148,44123,1,8
348,244,44592,1,0
320,336,45061,2,0,B|260:360|200:336,1,120,8|4
116,296,45998,6,0,B|40:260|40:132|116:96,1,240,8|8
200,52,47405,1,2
296,52,47873,2,0,B|372:88|372:216|296:252,1,240,8|8
212,292,49280,1,2
216,196,49748,6,0,B|216:122|142:122,1,120,8|0
80,196,50686,2,0,B|6:196|6:122,2,120,8|2|8
80,292,52092,2,0,B|224:292,1,120,0|8
296,288,53030,1,4
392,288,53498,6,0,B|468:252|468:124|392:88,1,240,8|8
332,160,54905,1,2
272,88,55373,2,0,B|196:124|196:252|272:288,1,240,8|8
332,216,56780,1,2
332,216,57248,5,8
332,120,57717,1,0
235,120,58186,1,8
235,216,58655,1,2
235,311,59123,2,0,B|115:311|115:311,1,120,8|0
20,312,60061,2,0,B|20:192|20:192,1,120,8|4
20,96,60998,6,0,B|56:20|184:20|220:96,1,240,8|8
256,184,62405,1,2
292,272,62873,2,0,B|328:348|456:348|492:272,1,240,8|8
492,180,64280,1,2
404,220,64748,5,8
312,192,65217,2,0,B|304:68,2,120,0|8|4
220,224,66623,1,8
128,192,67092,2,0,B|120:316,2,120,0|8|4
144,96,68498,6,0,B|180:20|308:20|344:96,1,240,8|8
300,180,69905,1,2
248,260,70373,2,0,B|284:336|412:336|448:260,1,240,8|8
396,180,71780,1,2
204,180,72717,1,4
256,192,73655,12,4,75530
180,140,76467,5,0
268,180,76936,1,8
364,192,77405,2,0,B|504:172,3,120,2|8|0|10
480,80,79280,6,0,B|427:27|375:80,1,120,4|8
308,148,80217,2,0,B|255:200|203:148,1,120,0|10
136,80,81155,2,0,B|84:27|32:80,2,120,4|8|0
84,160,82561,1,10
84,256,83030,6,0,B|232:280|232:280,1,120,4|8
180,180,83967,2,0,B|328:156|328:156,1,120,0|10
276,256,84905,2,0,B|424:280|424:280,1,120,0|8
376,180,85842,2,0,B|524:156|524:156,1,120,0|10
480,256,86780,5,4
384,268,87248,1,8
320,340,87717,1,0
224,348,88186,2,0,B|188:272|60:272|24:348,2,240,10|8|8
256,256,90530,5,4
336,200,90998,1,8
304,108,91467,1,0
208,108,91936,1,8
176,200,92405,1,2
256,256,92873,6,0,B|292:332|420:332|456:256,1,240,8|8
408,176,94280,1,2
360,92,94748,1,8
360,92,95217,1,0
312,176,95686,1,8
256,256,96155,1,4
152,92,97092,5,0
200,176,97561,1,8
104,176,98030,1,2
196,344,98967,2,0,B|332:344,2,120,0|8|2
304,184,100842,5,0
208,184,101311,1,8
156,104,101780,2,0,B|190:30|318:30|354:106,1,240,2|2
412,184,103186,1,8
256,192,103655,12,4,105530
256,328,120530,5,4
176,276,120998,2,0,B|100:240|100:112|176:76,1,240,8|8
256,28,122405,1,2
340,76,122873,2,0,B|416:112|416:240|340:276,1,240,8|8
256,236,124280,1,2
256,140,124748,6,0,B|256:66|182:66,1,120,8|0
140,152,125686,2,0,B|75:188|112:253,2,120,8|2|8
212,216,127092,2,0,B|249:280|313:243,1,120,0|8
384,176,128030,1,4
432,92,128498,6,0,B|508:128|508:256|432:292,1,240,8|8
340,316,129905,1,2
256,268,130373,2,0,B|220:192|92:192|56:268,1,240,8|8
24,356,131780,1,2
120,344,132248,5,8
176,264,132717,1,0
200,172,133186,1,8
176,80,133655,1,2
268,104,134123,2,0,B|396:136|396:136,2,120,8|0|8
200,172,135530,1,4
176,80,135998,6,0,B|100:116|100:244|176:280,1,240,8|8
244,212,137405,1,2
276,304,137873,2,0,B|240:380|112:380|76:304,1,240,8|8
48,216,139280,1,2
116,148,139748,5,8
200,196,140217,2,0,B|228:72,2,120,0|8|4
296,204,141623,1,8
392,188,142092,2,0,B|436:312,2,120,0|8|4
356,100,143498,6,0,B|320:24|192:24|156:100,1,240,8|8
108,180,144905,1,2
56,260,145373,2,0,B|92:336|220:336|256:260,1,240,8|8
255,263,146780,2,0,B|289:340|417:340|452:256,1,240,2|4
256,192,148655,12,4,150530
256,312,151467,6,0,B|256:176,1,120,0|8
196,116,152405,2,0,B|256:100|256:100|312:116,3,120,2|8|0|10
304,212,154280,6,0,B|356:264|300:320,1,120,4|8
212,316,155217,2,0,B|158:262|210:210,1,120,0|10
256,128,156155,2,0,B|232:72|168:48,2,120,4|8|0
304,212,157561,1,10
256,296,158030,6,0,B|128:296|128:296,1,120,4|8
192,216,158967,2,0,B|104:128|104:128,1,120,0|10
196,96,159905,2,0,B|320:96|320:96,1,120,0|8
404,132,160842,2,0,B|308:228|308:228,1,120,0|10
256,288,161780,5,4
192,216,162248,1,8
256,144,162717,1,0
320,216,163186,2,0,B|320:296|392:340|432:316|432:316|488:280,2,240,10|8|8
344,124,165530,5,4
392,40,165998,1,8
480,80,166467,1,0
432,164,166936,1,8
344,124,167405,1,2
256,84,167873,6,0,B|140:44|84:44|56:148,1,240,8|8
40,232,169280,1,2
84,316,169748,1,8
180,316,170217,1,0
224,232,170686,1,8
224,136,171155,6,0,B|256:72|320:48|384:72|416:136,2,240,2|0|6
40,192,173967,2,0,B|40:236|68:264|124:264,2,120,0|8|2
216,112,175842,5,0
288,48,176311,1,8
384,48,176780,2,0,B|464:48|507:174|447:233,1,240,2|2
376,296,178186,1,8
256,192,178655,12,4,180530
256,192,195530,5,4
152,92,196233,2,0,B|212:92|184:156|140:156|124:216|124:216|108:280|188:332,1,300,2|2
328,329,198108,2,0,B|403:279|387:215|387:215|371:155|327:155|299:91|359:91,1,300,2|2
256,192,199983,2,0,B|156:192|156:192|112:236|156:280|156:280|268:280|268:280,1,300,2|4
448,280,202092,6,0,B|368:280,1,60,2|0
348,192,202795,2,0,B|412:192,1,60,2|4
280,256,203733,2,0,B|167:214|167:214|178:184|163:154|133:143|133:143|170:41|170:41,1,300,2|2
280,144,205608,2,0,B|392:185|392:185|381:215|396:245|426:256|426:256|393:347|393:347,1,300,2|2
324,280,207248,6,0,B|296:360,1,60,2|0
208,340,207951,2,0,B|140:316,1,60,2|0
60,288,208655,1,2
60,192,209123,2,0,B|60:156|60:156|60:128|88:100|124:80,2,120,2|0|2
156,192,210530,5,4
240,240,210998,2,0,B|304:240|304:240|348:284,2,120,8|0|8
240,144,212405,2,0,B|308:144|308:144|356:96,2,120,2|8|0
156,192,213811,1,10
104,272,214280,6,0,B|156:324|212:268,1,120,4|8
304,272,215217,2,0,B|358:326|410:274,1,120,0|10
460,192,216155,2,0,B|406:138|354:190,1,120,4|8
260,188,217092,2,0,B|206:134|154:186,1,120,0|10
76,132,218030,6,0,B|188:68|188:68,1,120,4|8
264,24,218967,2,0,B|324:128|324:128,1,120,0|10
372,44,219905,2,0,B|480:96|480:96,3,120,0|8|0|10
480,192,221780,5,4
384,192,222248,1,8
287,192,222717,1,0
192,192,223186,2,0,B|184:276|256:316|312:316|312:316|384:316,2,240,10|8|8
192,96,225530,5,4
112,148,225998,1,8
112,244,226467,1,0
192,300,226936,1,8
272,244,227405,1,2
272,148,227873,6,0,B|352:136|432:168|476:264,1,240,8|8
380,284,229280,1,2
336,368,229748,1,8
256,312,230217,1,0
176,368,230686,1,8
132,284,231155,6,0,B|196:252|220:188|196:124|132:92,2,240,2|0|6
300,188,233967,2,0,B|328:172|388:172|420:188,2,120,0|8|2
220,364,235842,5,0
128,336,236311,1,8
48,280,236780,2,0,B|-28:252|-28:120|48:84,1,240,2|2
140,52,238186,1,8
256,192,238655,12,0,240530
