osu file format v7

[General]
AudioFilename: Edward Maya & Vika Jigulina - Stereo Love.mp3
AudioLeadIn: 1996
PreviewTime: 120994
Countdown: 1
SampleSet: Soft
StackLeniency: 0.7
Mode: 0
LetterboxInBreaks: 1

[Editor]
DistanceSpacing: 1
BeatDivisor: 4
GridSize: 8

[Metadata]
Title:Stereo Love
Artist:Edward Maya Ft. Vika Jigulina
Creator:osuplayer111
Version:Hard
Source:
Tags:Techno

[Difficulty]
HPDrainRate:7
CircleSize:5
OverallDifficulty:7
SliderMultiplier:1.6
SliderTickRate:1

[Events]
//Background and Video events
0,0,"Stereo Love.jpg"
//Break Periods
//Storyboard Layer 0 (Background)
//Storyboard Layer 1 (Fail)
//Storyboard Layer 2 (Pass)
//Storyboard Layer 3 (Foreground)
//Storyboard Sound Samples
Sample,69498,0,"normal-hitnormal.wav",60
Sample,69498,0,"normal-hitclap.wav",60
Sample,70443,0,"normal-hitnormal.wav",60
Sample,70443,0,"normal-hitclap.wav",60
Sample,71388,0,"normal-hitnormal.wav",60
Sample,71388,0,"normal-hitclap.wav",60
Sample,81309,0,"soft-hitnormal.wav",40
Sample,81309,0,"soft-hitwhistle.wav",40
Sample,82254,0,"soft-hitnormal.wav",40
Sample,82254,0,"soft-hitwhistle.wav",40
Sample,85088,0,"soft-hitnormal.wav",40
Sample,85088,0,"soft-hitwhistle.wav",40
Sample,88868,0,"soft-hitnormal.wav",40
Sample,88868,0,"soft-hitwhistle.wav",40
Sample,89813,0,"soft-hitnormal.wav",40
Sample,89813,0,"soft-hitwhistle.wav",40
//Background Colour Transformations
3,100,163,162,255

[TimingPoints]
522,472.44094488189,4,2,1,0,1,0
4065,-100,4,2,1,50,0,0
7136,-100,4,2,1,0,0,0
11388,-100,4,2,1,50,0,0
14931,-100,4,2,1,0,0,0
18947,-100,4,2,1,50,0,0
22254,-100,4,2,1,0,0,0
25679,-100,4,2,1,50,0,0
26152,-200,4,2,1,50,0,0
27215,-200,4,2,1,0,0,0
27451,-200,4,2,1,50,0,0
29813,-100,4,2,1,50,0,0
30286,-100,4,1,1,26,0,0
31703,-100,4,2,1,50,0,0
32175,-100,4,1,1,25,0,0
33593,-100,4,2,1,50,0,0
34065,-100,4,1,1,25,0,0
35483,-100,4,2,1,50,0,0
35955,-100,4,1,1,25,0,0
37372,-100,4,2,1,50,0,0
37845,-100,4,1,1,26,0,0
38081,-100,4,2,1,50,0,0
38790,-100,4,1,1,25,0,0
39262,-100,4,2,1,65,0,0
39735,-100,4,1,1,40,0,0
39971,-100,4,2,1,66,0,0
40679,-100,4,1,1,40,0,0
41152,-100,4,2,1,80,0,0
41624,-100,4,1,1,56,0,0
41861,-100,4,2,1,80,0,0
42569,-100,4,1,1,55,0,0
43042,-100,4,2,1,95,0,0
43514,-100,4,1,1,70,0,0
43750,-100,4,2,1,95,0,0
44459,-100,4,1,1,70,0,0
44754,-100,4,1,1,30,0,0
45109,-100,4,1,1,50,0,0
45404,-100,4,1,1,70,0,0
46939,-200,4,1,1,50,0,0
47648,-100,4,1,1,70,0,0
48829,-200,4,1,1,50,0,0
49538,-100,4,1,1,70,0,0
50719,-200,4,1,1,50,0,0
51900,-100,4,1,1,50,0,0
53317,-100,4,1,1,70,0,0
54498,-200,4,1,1,50,0,0
55207,-100,4,1,1,70,0,0
56388,-200,4,1,1,50,0,0
57096,-100,4,1,1,70,0,0
58277,-200,4,1,1,50,0,0
59459,-100,4,1,1,50,0,0
60876,-100,4,1,1,70,0,0
62057,-200,4,1,1,50,0,0
62766,-100,4,1,1,70,0,0
75522,-200,4,2,1,50,0,0
90640,-100,4,1,1,50,0,0
106466,-100,4,1,1,30,0,0
107647,-100,4,1,1,50,0,0
108356,-100,4,1,1,30,0,0
109537,-100,4,1,1,50,0,0
110246,-100,4,1,1,30,0,0
111427,-100,4,1,1,50,0,0
112136,-100,4,1,1,30,0,0
113435,-100,4,1,1,50,0,0
114025,-100,4,1,1,30,0,0
115207,-100,4,1,1,50,0,0
115797,-100,4,1,1,30,0,0
117096,-100,4,1,1,50,0,0
117687,-100,4,1,1,30,0,0
120994,-100,4,1,1,50,0,1
151171,-100,4,1,1,50,0,0
151230,-200,4,1,1,50,0,1
151703,-100,4,1,1,50,0,1
166230,-200,4,1,1,50,0,1
166821,-100,4,1,1,50,0,1
181939,-100,4,1,1,50,0,0

[Colours]
Combo1 : 255,255,255
Combo2 : 0,128,255
Combo3 : 255,128,255

[HitObjects]
256,192,521,12,0,1703
256,192,1939,12,0,3829
256,256,4301,5,2
320,304,4537,1,0
384,256,4773,1,0
456,304,5010,2,0,B|512:232|440:136,1,160,0|2
336,40,5955,2,0,B|168:40,1,160,0|0
256,192,6899,1,2
256,192,7372,12,0,11151
256,128,11860,5,2
192,80,12096,1,0
128,128,12333,1,0
56,80,12569,2,0,B|0:152|64:248,1,160,0|2
176,344,13514,2,0,B|344:344,1,160,0|0
256,192,14459,1,2
256,192,15167,12,0,16821
256,192,17057,12,0,18710
256,280,19419,5,2
296,208,19655,1,0
216,208,19892,1,0
256,136,20128,2,0,B|384:24,2,160,0|2|0
256,136,21545,2,0,B|128:24,1,160,0|2
256,192,22490,12,0,25561
48,192,25797,5,0
48,192,26033,1,2
48,192,26270,2,0,B|104:152|144:224|208:184,1,160,0|0
464,184,27687,5,0
464,184,27923,1,2
464,184,28159,2,0,B|408:224|368:152|304:192,1,160,0|2
256,24,29577,1,0
256,360,30049,5,2
256,360,30167,1,0
256,360,30285,1,0
48,296,30758,1,0
464,296,31230,1,0
256,192,31466,1,2
256,24,31939,5,2
256,24,32057,1,0
256,24,32175,1,0
464,88,32647,1,0
48,88,33120,1,0
256,192,33356,1,2
464,192,33829,5,2
464,192,33947,1,0
464,192,34065,1,0
376,344,34537,1,0
368,40,35010,1,0
256,192,35246,1,2
48,192,35718,5,2
48,192,35836,1,0
48,192,35955,1,0
136,40,36427,1,0
144,344,36899,1,0
256,192,37136,1,2
256,192,37608,6,0,B|256:136,2,40,2|0|0
344,272,38199,1,0
256,352,38553,1,2
256,192,39025,1,2
256,192,39498,6,0,B|256:248,2,40,2|0|0
168,112,40088,1,0
256,32,40443,1,2
256,192,40915,1,2
256,192,41388,6,0,B|200:192,2,40,2|0|0
336,104,41978,1,0
416,192,42333,1,2
256,192,42805,1,2
256,192,43277,6,0,B|312:192,2,40,2|0|0
176,280,43868,1,0
96,192,44222,1,2
256,192,44695,2,0,B|296:192,12,20,2|0|0|0|0|0|0|0|0|0|0|0|0
184,328,45876,5,8
256,368,46112,1,0
328,328,46348,1,0
328,192,46584,1,0
256,152,46821,1,8
184,192,47057,2,0,B|88:192,1,80,2|2
112,40,47766,5,8
184,80,48002,1,0
256,40,48238,1,0
328,80,48474,1,0
400,40,48710,1,8
400,40,48947,2,0,B|464:96,1,80,2|2
256,192,49655,5,8
192,240,49892,1,0
256,288,50128,1,0
320,240,50364,1,0
256,192,50600,1,8
256,192,50836,2,0,B|256:96,2,80,2|2|0
256,352,52372,5,2
256,352,52490,1,8
208,288,52726,1,2
304,288,52962,1,0
256,224,53199,6,0,B|256:128,1,80,2|8
216,72,53671,1,0
256,144,53907,1,0
296,72,54144,2,0,B|392:72,1,80,0|8
216,72,54616,2,0,B|128:72,1,80,2|2
208,352,55325,5,8
256,288,55561,1,0
304,352,55797,1,0
256,288,56033,1,0
208,224,56270,1,8
304,224,56506,2,0,B|392:224,1,80,2|2
376,48,57214,5,8
320,104,57451,1,0
256,56,57687,1,0
192,104,57923,1,0
136,48,58159,1,8
256,56,58396,2,0,B|256:144,2,80,2|2|0
256,352,59931,5,2
256,352,60049,1,8
304,288,60285,1,2
208,288,60522,1,0
168,216,60758,6,0,B|80:216,1,80,2|8
344,216,61230,2,0,B|432:216,1,80,0|0
256,192,61703,2,0,B|256:104,1,80,0|8
256,32,62175,6,0,B|256:128,1,80,2|2
256,192,62884,1,8
216,264,63120,2,0,B|216:352,1,80
296,344,63592,2,0,B|296:256,1,80,0|8
256,192,64065,1,0
256,192,64301,1,0
96,192,64773,5,8
96,192,64892,1,0
176,192,65128,1,0
256,192,65364,2,0,B|384:192,1,120,0|8
456,192,65955,1,0
408,344,66427,5,0
336,304,66663,1,8
336,304,66781,1,0
256,288,67018,2,0,B|176:336,1,80
187,329,67372,1,0
112,344,67608,1,8
112,344,67844,1,0
152,192,68317,5,0
184,120,68553,1,8
256,80,68789,2,0,B|440:80,2,160
368,192,70207,1,0
256,304,70679,2,0,B|80:304,2,160
40,192,72333,5,8
40,192,72451,1,0
88,128,72687,1,0
144,72,72923,2,0,B|208:24|264:80,1,120,0|8
256,152,73514,1,0
256,312,73986,5,0
256,232,74222,1,8
256,232,74340,1,0
256,152,74577,2,0,B|344:152,1,80
336,152,74931,1,0
368,80,75167,1,8
408,152,75403,1,0
368,224,75640,6,0,B|368:312,1,80,2|0
296,344,76348,1,0
216,344,76584,1,2
144,312,76821,2,0,B|144:224,1,80
216,192,77529,1,2
296,192,77766,1,0
256,120,78002,2,0,B|256:32,3,80,0|2|0|2
256,200,79892,5,0
296,272,80128,1,0
216,272,80364,1,2
256,200,80600,2,0,B|192:128,2,80
256,200,82018,2,0,B|320:136,1,80
448,320,83199,6,0,B|376:336,1,60,2|0
352,336,83671,1,0
296,280,83907,1,0
240,336,84144,1,2
184,280,84380,1,0
128,336,84616,1,0
72,280,84852,2,0,B|40:200,1,80
40,128,85561,2,0,B|80:48,1,80,0|2
152,48,86270,2,0,B|248:48,1,80
256,120,86978,1,2
208,272,87451,5,0
256,336,87687,1,0
336,336,87923,1,2
384,272,88159,1,0
288,144,88632,2,0,B|288:56,1,80
136,112,89577,2,0,B|136:208,1,80
32,312,90522,1,0
32,312,90758,5,0
480,72,91230,1,0
480,304,91703,1,0
32,72,92175,1,0
448,72,92647,5,0
64,312,93120,1,0
448,304,93592,1,0
72,72,94065,1,0
464,192,94537,5,0
48,192,95010,1,0
256,344,95482,1,0
256,40,95955,1,0
88,192,96427,5,0
424,192,96899,1,0
256,304,97372,1,0
256,80,97844,1,0
120,352,98317,6,0,B|8:224,1,160
392,32,99262,2,0,B|504:160,1,160
416,352,100207,6,0,B|248:352,1,160
96,32,101151,2,0,B|264:32,1,160
200,192,102096,6,0,B|128:152|112:224|24:176,1,160
312,192,103041,2,0,B|384:232|400:160|488:208,1,160
40,32,103986,6,0,B|0:104|72:120|24:208,1,160
472,360,104931,2,0,B|512:288|440:272|488:184,1,160
256,192,105876,5,2
256,72,106230,1,0
256,72,106348,1,2
208,136,106584,2,0,B|152:208,1,80,0|2
304,248,107057,2,0,B|360:176,1,80,0|2
256,312,107529,1,0
256,312,107766,5,2
136,312,108120,1,0
136,312,108238,1,2
72,272,108474,1,0
32,200,108710,1,2
72,128,108947,1,0
136,80,109183,1,2
136,80,109419,1,0
136,80,109655,6,0,B|224:80,1,80,2|0
256,80,110010,1,0
296,80,110128,1,2
352,24,110364,1,0
400,88,110600,2,0,B|464:144,1,80,2|0
400,192,111073,2,0,B|336:248,1,80,2|0
280,296,111545,5,2
168,344,111899,1,0
168,344,112018,1,2
104,288,112254,1,0
104,288,112490,2,0,B|40:224,1,80,2|0
72,152,112962,1,2
72,152,113199,6,0,B|128:80,1,80,0|2
232,40,113789,1,0
232,40,113907,1,2
312,56,114144,2,0,B|392:16|480:64,1,160
392,192,115088,5,0
352,264,115325,2,0,B|328:320|248:320,1,120,2|2
136,320,116033,1,0
40,192,116506,1,0
136,64,116978,5,0
136,64,117214,2,0,B|184:120|256:120,1,120,2|2
360,120,117923,1,0
504,192,118396,1,0
360,264,118868,5,0
304,320,119104,2,0,B|184:320,1,80
184,320,119459,1,0
72,280,119813,2,0,B|32:160,1,120
34,166,120285,1,0
64,88,120522,1,0
136,112,120758,1,0
136,112,120876,1,0
136,112,120994,5,2
256,144,121348,1,0
256,144,121466,1,2
328,112,121703,2,0,B|392:48,1,80,0|2
448,104,122175,2,0,B|504:168,1,80,0|2
472,240,122647,1,0
424,304,122884,5,2
424,304,123120,1,0
424,304,123238,1,0
424,304,123356,1,2
352,344,123592,2,0,B|272:368,1,80,0|2
216,312,124065,1,0
216,312,124301,1,2
144,344,124537,1,0
144,344,124773,1,2
56,256,125128,5,0
56,256,125246,1,8
32,176,125482,1,0
88,120,125718,2,0,B|120:80|160:80,1,80,8|0
184,152,126191,2,0,B|232:160|256:112,1,80,8|0
256,40,126663,5,8
376,56,127018,1,0
376,56,127136,1,8
448,96,127372,2,0,B|488:120|480:176,1,80,0|8
424,216,127844,2,0,B|400:256|440:296,1,80,0|8
472,360,128317,1,0
392,360,128553,5,2
280,328,128907,1,0
280,328,129025,1,2
200,344,129262,1,0
144,288,129498,1,2
104,216,129734,2,0,B|88:176|32:168,1,80,0|2
40,88,130207,6,0,B|64:48|112:48,1,80,0|2
176,80,130679,1,0
176,80,130797,1,0
176,80,130915,1,2
240,128,131151,1,0
280,56,131388,2,0,B|304:16|360:24,1,80,2|0
416,72,131860,2,0,B|456:96|440:144,1,80,2|0
384,192,132332,1,2
352,304,132687,5,0
352,304,132805,1,8
288,352,133041,2,0,B|248:376|208:336,1,80,0|8
256,272,133514,2,0,B|232:224|176:248,1,80,0|8
104,232,133986,1,0
40,272,134222,5,8
40,152,134577,1,0
40,152,134695,1,8
96,96,134931,1,0
168,72,135167,2,0,B|256:72,1,80,8|0
320,32,135640,1,8
320,112,135876,1,0
392,72,136112,6,0,B|440:96|448:144,1,80,2|0
444,129,136466,1,2
444,129,136584,1,0
392,192,136821,1,0
440,256,137057,2,0,B|472:296|440:336,1,80,2|0
368,344,137529,2,0,B|328:368|288:344,1,80,2|0
256,272,138002,5,2
256,272,138238,1,0
256,272,138356,1,0
256,272,138474,1,2
200,216,138710,2,0,B|152:200|152:144,1,80,0|2
208,96,139183,2,0,B|208:48|160:40,1,80,0|2
88,64,139655,1,0
88,64,139892,1,2
64,184,140246,5,0
64,184,140364,1,8
24,256,140600,1,0
56,328,140836,1,8
136,304,141073,2,0,B|224:304,1,80,0|8
280,344,141545,1,0
280,264,141781,5,8
376,192,142136,1,0
376,192,142254,1,8
448,160,142490,2,0,B|488:128|472:80,1,80,0|8
416,32,142962,2,0,B|376:8|328:40,1,80,0|8
288,96,143435,1,0
232,40,143671,5,2
120,88,144025,1,0
120,88,144144,1,2
64,144,144380,2,0,B|32:176|56:224,1,80,0|2
128,200,144852,2,0,B|168:224|152:272,1,80,0|2
80,312,145325,1,0
152,352,145561,5,2
152,352,145797,1,0
152,352,145915,1,0
152,352,146033,1,2
224,328,146270,2,0,B|272:344|304:304,1,80,0|2
256,248,146742,2,0,B|288:208|336:224,1,80,0|2
392,272,147214,1,0
392,272,147451,1,2
440,160,147805,5,0
440,160,147923,1,8
400,96,148159,2,0,B|384:48|328:48,1,80,0|8
320,128,148632,2,0,B|272:128|248:80,1,80,0|8
184,48,149104,1,0
112,80,149340,6,0,B|40:184,2,120,2|8|8
184,48,150285,1,0
256,88,150522,1,8
328,48,150758,1,0
256,88,150994,1,0
256,192,151230,6,2,B|256:288,1,80,2|8
192,320,151939,1,0
256,368,152175,1,2
320,320,152411,1,0
256,272,152647,2,0,B|256:184,1,80,8|0
256,112,153120,6,0,B|208:56|136:56,1,120,2|0
152,56,153592,1,8
96,112,153829,2,0,B|48:120|48:176,1,80,0|2
48,248,154301,1,0
48,328,154537,2,0,B|48:368|96:392,1,80,8|0
160,344,155010,5,2
160,344,155246,1,0
160,344,155364,1,0
160,344,155482,1,8
224,296,155718,2,0,B|264:264|304:296,1,80,0|2
352,352,156191,2,0,B|400:360|424:320,1,80,0|8
456,248,156663,1,0
400,192,156899,5,2
336,88,157254,2,0,B|320:24|240:8,1,120,8|8
184,48,157844,1,2
184,48,158081,1,0
184,48,158199,1,0
184,48,158317,1,8
136,112,158553,1,0
64,144,158789,6,0,B|24:192|80:272,1,120,2|0
69,255,159262,1,8
128,312,159498,1,0
184,256,159734,1,2
240,312,159970,1,0
304,256,160207,1,8
360,312,160443,1,0
416,256,160679,6,0,B|464:200|400:144,1,120,2|0
406,150,161151,1,8
352,96,161388,1,0
296,40,161624,2,0,B|256:8|208:48,1,80,2|0
200,112,162096,2,0,B|176:152|112:136,1,80,8|0
56,104,162569,5,2
56,104,162805,1,0
56,104,162923,1,0
56,104,163041,1,8
48,184,163277,2,0,B|32:224|72:272,1,80,0|2
128,216,163750,2,0,B|168:240|152:296,1,80,0|8
96,336,164222,1,0
96,336,164459,5,2
176,360,164695,1,0
176,360,164813,1,8
256,272,165167,1,8
256,192,165403,1,2
256,112,165640,1,0
256,192,165876,1,8
416,192,166348,6,2,B|320:192,1,80,2|8
256,192,167057,1,0
224,120,167293,1,2
160,72,167529,2,0,B|128:40|80:56,1,80,0|8
40,120,168002,6,0,B|16:160|56:200,1,80,0|2
168,192,168592,1,0
168,192,168710,1,8
128,264,168947,1,0
200,304,169183,2,0,B|232:336|288:320,1,80,2|0
328,264,169655,1,8
400,296,169891,1,0
392,216,170128,5,2
392,216,170364,1,0
392,216,170482,1,0
392,216,170600,1,8
440,152,170836,2,0,B|464:112|424:72,1,80,0|2
360,48,171309,2,0,B|328:16|272:48,1,80,0|8
256,112,171781,1,0
256,112,172017,5,2
208,176,172254,1,0
208,176,172372,1,8
88,192,172726,2,0,B|40:216|48:264,1,80,8|2
112,304,173199,1,0
112,304,173317,1,0
112,304,173435,1,8
112,304,173671,1,0
192,320,173907,5,2
256,216,174262,1,0
256,216,174380,1,8
320,168,174616,2,0,B|352:128|400:144,1,80,0|2
456,96,175088,2,0,B|496:120|504:168,1,80,0|8
440,208,175561,1,0
440,208,175797,5,2
376,312,176151,1,0
376,312,176269,1,8
304,344,176506,2,0,B|264:352|232:312,1,80,0|2
256,240,176978,1,0
312,184,177214,2,0,B|296:136|240:144,1,80,8|0
168,136,177687,5,2
168,136,177923,1,0
168,136,178041,1,0
168,136,178159,1,8
96,104,178396,2,0,B|48:136|56:184,1,80,0|2
128,208,178868,2,0,B|152:248|104:288,1,80,0|8
40,320,179340,1,2
256,192,179577,12,4,181466
