osu file format v5

[General]
AudioFilename: 01.Lavatory Love Machine.mp3
AudioLeadIn: 0
PreviewTime: -1
Countdown: 1
SampleSet: Normal
StackLeniency: 0.7
Mode: 0
LetterboxInBreaks: 1

[Metadata]
Title:Lavatory Love Machine
Artist:Edguy
Creator:CountCasimir
Version:Normal
Source:
Tags:

[Difficulty]
HPDrainRate:5
CircleSize:5
OverallDifficulty:5
SliderMultiplier:1.4
SliderTickRate:1

[Events]
//Background and Video events
//Break Periods
2,145685,168286
//Storyboard Layer 0 (Background)
//Storyboard Layer 1 (Failing)
//Storyboard Layer 2 (Passing)
//Storyboard Layer 3 (Foreground)
//Storyboard Sound Samples
//Background Colour Transformations
3,100,163,162,255

[TimingPoints]
8986.55101976578,375,4,1,0,100,1

[Colours]
Combo1 : 255,150,0
Combo2 : 5,240,5
Combo3 : 5,5,240
Combo4 : 240,5,5

[HitObjects]
192,160,8236,2,0,B|352:160,2,140
160,192,12361,1,0
288,192,13111,1,0
416,192,13861,1,0
288,96,14611,1,0
256,192,20986,12,0,23986
128,128,27361,6,0,B|288:128,1,140
352,128,28111,1,0
352,256,28861,1,0
128,256,29611,5,0
128,96,30361,2,0,B|288:96,1,140
320,160,31111,1,0
256,224,31861,1,0
288,288,32611,1,0
416,256,33361,1,0
352,192,33736,6,0,B|64:192,4,280
256,128,37111,1,0
160,128,37486,1,0
320,224,39361,1,0
384,256,39736,1,0
416,192,40111,1,0
384,128,40861,1,0
256,128,41611,1,0
192,128,42361,1,0
96,128,43111,1,0
224,192,44236,2,0,B|384:192,2,140
288,128,46111,5,0
256,128,46861,1,0
320,128,47611,1,0
384,128,47986,2,0,B|384:192|352:224|288:256|256:256|192:256|192:256|160:256,1,280
96,160,50986,5,0
160,96,51736,1,0
288,64,52486,2,0,B|352:128|288:192|192:160,1,140
160,192,53986,1,0
96,192,54361,1,0
96,256,54736,1,0
160,256,55111,1,0
224,256,55486,1,0
288,256,55861,1,0
352,256,56236,1,0
352,192,56611,1,0
288,192,56986,1,0
192,160,57361,5,0
384,128,58486,1,0
416,192,58861,1,0
320,224,59986,2,0,B|32:224,3,280
32,160,62986,2,0,B|320:160,3,280
320,128,65986,6,0,B|64:128|64:128|64:320|64:320|128:320|128:320|192:320,1,560
256,256,67861,2,0,B|96:256,2,140
160,128,69736,5,0
224,128,70486,1,0
288,128,71236,1,0
384,160,71986,2,0,B|288:320|96:256|160:96|160:96|32:64|256:0,1,560
416,160,73861,2,0,B|256:160,3,140
256,160,76111,5,0
160,160,76486,1,0
64,128,76861,1,0
128,64,77236,1,0
224,64,77611,1,0
320,96,77986,1,0
384,128,80986,6,0,B|128:288|0:64,2,420
288,64,83986,1,0
192,96,84736,1,0
256,192,85486,1,0
352,128,86986,1,0
224,64,88486,5,0
96,128,89236,1,0
224,192,89986,1,0
320,224,90736,2,0,B|320:64,1,140
224,64,92986,5,0
96,64,93736,1,0
128,160,94486,1,0
192,160,94861,1,0
288,160,95986,2,0,B|384:288,1,140
416,224,96736,5,0
416,160,97111,1,0
416,96,97486,1,0
320,96,97861,1,0
224,96,98611,2,0,B|192:160|288:224,1,140
352,160,99736,5,0
352,224,100111,5,0
224,288,100861,1,0
96,288,101611,2,0,B|96:192|352:160|352:160|320:160,1,280
384,224,102736,1,0
128,128,105361,5,0
256,128,106111,1,0
256,192,106486,1,0
128,192,107986,2,0,B|160:96|416:64|416:64|384:64,1,280
352,160,109486,1,0
256,224,110236,2,0,B|128:320,2,140
160,192,111736,5,0
224,128,112486,1,0
288,128,112861,1,0
352,128,113236,1,0
384,128,113986,1,0
384,192,114736,1,0
288,192,115486,1,0
288,288,116236,1,0
224,288,116611,2,0,B|64:288,1,140
96,192,117736,1,0
192,160,118486,2,0,B|384:128|256:32|64:96,1,280
224,32,119986,6,0,B|544:64|544:128|224:128|224:192|544:192|544:256|192:288|160:224|160:32,1,700
64,128,122611,2,0,B|64:288,1,140
224,128,124486,1,0
288,128,124861,1,0
352,160,125236,1,0
416,256,125986,6,0,B|64:256|64:256|96:160,3,420
192,192,130486,1,0
320,224,130861,1,0
288,128,131236,1,0
384,128,131611,1,0
416,192,131986,6,0,B|448:256|512:288|512:288|288:352|160:352|64:256,2,560
288,128,135736,1,0
224,128,136111,1,0
160,128,136486,1,0
224,192,137236,1,0
320,256,137986,6,0,B|416:224|416:64|320:32|192:32|64:96|0:192|32:320|192:352|320:320,2,700
320,256,142486,1,0
224,224,143236,1,0
256,128,143986,2,0,B|320:32|320:32|448:224|448:224|192:224,1,560
384,288,169486,6,0,B|32:32,1,420
160,64,170986,1,0
224,64,171736,1,0
288,64,172111,1,0
352,64,172486,1,0
416,96,173236,1,0
384,160,173611,1,0
320,128,173986,1,0
256,128,174736,1,0
192,128,175486,1,0
192,192,176236,1,0
256,192,176986,1,0
320,192,177736,1,0
384,256,178486,1,0
288,256,179236,1,0
192,256,179986,2,0,B|64:192|64:192|192:32|192:32|320:192|320:192|416:64|416:64|480:192|416:352|416:352|320:256|320:256|192:352|192:352|64:352|64:352|96:320,1,1400
224,224,184486,5,0
288,224,184861,1,0
352,224,185236,1,0
320,128,185986,1,0
224,128,186736,1,0
224,192,187486,1,0
288,256,188236,1,0
384,256,188986,2,0,B|384:320|288:352,1,140
224,288,189736,2,0,B|160:224|224:128,1,140
288,160,190486,2,0,B|320:96|224:32,1,140
320,32,191236,6,0,B|448:32|448:32|448:192,1,280
384,224,192736,2,0,B|288:224|288:224,4,140
416,160,195361,5,0
352,160,195736,1,0
288,160,196111,1,0
192,160,196861,1,0
128,128,197986,1,0
256,96,198736,1,0
384,96,199486,1,0
384,160,199861,1,0
320,256,200611,1,0
256,224,201736,2,0,B|96:224|96:224|128:224,1,140
160,160,202486,5,0
192,96,202861,2,0,B|352:96,1,140
416,160,203986,2,0,B|416:256|352:320,1,140
288,288,204736,2,0,B|224:224|288:160,1,140
384,128,205486,2,0,B|352:64|224:64,1,140
224,64,206236,2,0,B|160:128|160:224|160:224|224:352,4,280
416,128,209986,6,0,B|384:288|160:352,3,420
160,160,214111,1,0
256,160,214861,1,0
352,160,215611,1,0
448,128,215986,6,0,B|320:32|160:32,3,420
128,192,220111,2,0,B|288:192,1,140
352,192,222361,1,0
192,160,223111,2,0,B|320:288,1,140
416,256,223861,2,0,B|256:128,2,140
448,160,224986,1,0
384,128,226486,1,0
288,96,226861,1,0
192,96,227236,1,0
96,160,227986,6,0,B|160:320|384:320,3,420
352,160,232111,1,0
288,160,232861,1,0
224,160,233611,1,0
128,160,233986,6,0,B|32:256|128:384|256:288|416:288,3,420
256,192,239611,12,0,242611
