osu file format v14

[General]
AudioFilename: Ed Sheeran - I See Fire (Kygo Remix).mp3
AudioLeadIn: 0
PreviewTime: 268132
Countdown: 1
SampleSet: Soft
StackLeniency: 0.3
Mode: 0
LetterboxInBreaks: 1
WidescreenStoryboard: 0

[Editor]
Bookmarks: 229882,240082
DistanceSpacing: 1.2
BeatDivisor: 8
GridSize: 8
TimelineZoom: 2

[Metadata]
Title:I See Fire (Kygo Remix)
TitleUnicode:I See Fire (Kygo Remix)
Artist:Ed Sheeran
ArtistUnicode:Ed Sheeran
Creator:HydroCannon13
Version:Kindle
Source:
Tags:tropical melodic deep house the hobbit: desolation of smaug x multiply electronic
BeatmapID:1128681
BeatmapSetID:532685

[Difficulty]
HPDrainRate:5.5
CircleSize:4
OverallDifficulty:7.5
ApproachRate:9
SliderMultiplier:2.8
SliderTickRate:1

[Events]
//Background and Video events
0,0,"iseefire.jpg",0,0
//Break Periods
2,230482,239482
//Storyboard Layer 0 (Background)
//Storyboard Layer 1 (Fail)
//Storyboard Layer 2 (Pass)
//Storyboard Layer 3 (Foreground)
//Storyboard Sound Samples

[TimingPoints]
82,600,4,2,1,40,1,0
82,-153.846153846154,4,2,1,20,0,0
19282,-105.263157894737,4,2,1,20,0,0
38482,-80,4,2,1,20,0,1
57682,-153.846153846154,4,2,1,20,0,0
120082,-105.263157894737,4,2,1,20,0,0
139282,-153.846153846154,4,2,1,20,0,0
144082,-105.263157894737,4,2,1,20,0,0
163282,-80,4,2,1,20,0,1
182482,-153.846153846154,4,2,1,20,0,0
206482,-80,4,2,1,20,0,0
225682,-153.846153846154,4,2,1,20,0,0
249682,-80,4,2,1,20,0,1
267382,-80,4,2,1,20,0,0
268882,-80,4,2,1,20,0,1
288082,-153.846153846154,4,2,1,20,0,0
292807,-153.846153846154,4,2,1,5,0,0
292882,-153.846153846154,4,2,1,20,0,0

[Colours]
Combo1 : 252,221,3
Combo2 : 0,64,0
Combo3 : 159,218,253
Combo4 : 238,63,4

[HitObjects]
197,114,82,6,0,L|288:110,1,90.9999958343508
301,110,457,1,0,0:0:0:0:
314,109,532,1,0,0:0:0:0:
385,166,682,2,0,P|383:188|386:211,1,45.4999979171754
432,293,982,6,0,B|348:315|348:267|252:291,1,181.999991668702
152,334,1882,1,0,0:0:0:0:
154,334,2482,6,0,P|201:253|172:168,1,181.999991668702
74,135,3382,2,0,L|254:128,1,181.999991668702
365,123,4282,1,0,0:0:0:0:
282,323,4882,5,0,0:0:0:0:
208,270,5032,1,0,0:0:0:0:
178,356,5182,1,0,0:0:0:0:
104,303,5332,1,0,0:0:0:0:
134,217,5482,2,0,L|131:163,1,45.4999979171754
200,111,5782,6,0,P|139:131|44:68,1,181.999991668702
141,21,6682,1,0,0:0:0:0:
233,197,7282,6,0,L|227:381,1,181.999991668702
152,297,8182,2,0,P|236:273|319:322,2,181.999991668702
1,195,9682,6,0,L|4:99,1,90.9999958343508
4,91,10057,1,0,0:0:0:0:
5,78,10132,1,0,0:0:0:0:
83,32,10282,2,0,P|110:30|137:36,1,45.4999979171754
203,84,10582,6,0,P|266:117|377:86,1,181.999991668702
435,4,11482,1,0,0:0:0:0:
435,4,12082,6,0,L|440:202,1,181.999991668702
443,295,12982,2,0,P|363:262|278:298,1,181.999991668702
205,377,13882,1,0,0:0:0:0:
97,186,14482,5,0,0:0:0:0:
135,103,14632,1,0,0:0:0:0:
187,177,14782,1,0,0:0:0:0:
272,146,14932,1,0,0:0:0:0:
257,235,15082,2,0,B|258:276|264:299,1,45.4999979171754
345,249,15382,6,0,P|430:257|465:179,1,181.999991668702
419,80,16282,1,0,0:0:0:0:
229,187,16882,6,0,L|234:373,1,181.999991668702
332,321,17782,1,0,0:0:0:0:
232,274,18082,2,0,L|81:280,1,136.499993751526
41,286,18682,2,0,P|34:333|40:376,1,90.9999958343508
147,133,19282,6,0,L|142:0,1,132.999996448517
127,12,19657,1,0,0:0:0:0:
112,24,19732,1,0,0:0:0:0:
54,144,19882,2,0,P|65:177|86:205,1,66.4999982242585
281,242,20182,6,0,P|216:232|155:258,2,132.999996448517
370,288,20932,1,0,0:0:0:0:
474,118,21082,1,0,0:0:0:0:
474,118,21232,2,0,L|316:113,1,132.999996448517
213,192,21607,5,0,0:0:0:0:
200,195,21682,2,0,P|232:186|258:167,1,66.4999982242585
123,154,21982,2,0,P|114:185|117:218,1,66.4999982242585
194,107,22282,2,0,P|170:83|140:69,1,66.4999982242585
176,271,22582,6,0,L|312:262,1,132.999996448517
258,166,23032,1,0,0:0:0:0:
94,277,23182,2,0,L|97:343,1,66.4999982242585
137,150,23482,2,0,B|160:84|127:51|127:51|109:75|125:92,1,132.999996448517
200,195,23932,1,0,0:0:0:0:
361,79,24082,5,0,0:0:0:0:
231,115,24232,1,0,0:0:0:0:
385,77,24382,1,0,0:0:0:0:
327,204,24532,1,0,0:0:0:0:
292,74,24682,2,0,P|251:43|220:40,1,66.4999982242585
233,247,24982,6,0,L|230:114,2,132.999996448517
321,346,25732,1,0,0:0:0:0:
408,167,25882,2,0,L|333:163,1,66.4999982242585
233,247,26182,2,0,L|299:250,1,66.4999982242585
400,76,26482,6,0,B|360:52|320:52|278:69|278:69|239:85|192:66,1,199.499994672775
76,59,27082,2,0,P|120:47|144:28,1,66.4999982242585
7,189,27382,6,0,P|57:236|127:249,1,132.999996448517
255,212,27832,1,0,0:0:0:0:
205,299,27982,2,0,P|199:340|201:372,1,66.4999982242585
186,158,28282,1,0,0:0:0:0:
186,158,28432,2,0,P|148:189|133:213,1,66.4999982242585
260,126,28732,1,0,0:0:0:0:
468,146,28882,6,0,L|335:149,1,132.999996448517
316,152,29257,1,0,0:0:0:0:
297,154,29332,1,0,0:0:0:0:
349,280,29482,2,0,P|391:269|418:251,1,66.4999982242585
213,222,29782,6,0,L|216:354,2,132.999996448517
253,130,30532,1,0,0:0:0:0:
424,242,30682,1,0,0:0:0:0:
424,242,30832,2,0,P|358:249|296:228,1,132.999996448517
169,140,31207,5,0,0:0:0:0:
153,141,31282,2,0,L|229:132,1,66.4999982242585
346,78,31582,2,0,L|280:86,1,66.4999982242585
170,164,31882,2,0,L|236:156,1,66.4999982242585
405,262,32182,6,0,P|339:259|282:226,1,132.999996448517
365,170,32632,1,0,0:0:0:0:
302,359,32782,2,0,P|266:344|237:325,1,66.4999982242585
112,189,33082,2,0,P|101:266|105:335,1,132.999996448517
28,207,33532,1,0,0:0:0:0:
219,151,33682,5,0,0:0:0:0:
185,281,33832,1,0,0:0:0:0:
212,125,33982,1,0,0:0:0:0:
252,239,34132,1,0,0:0:0:0:
205,99,34282,2,0,L|145:56,1,66.4999982242585
319,200,34582,6,0,P|397:204|463:180,2,132.999996448517
212,125,35332,1,0,0:0:0:0:
177,320,35482,2,0,P|208:309|241:308,1,66.4999982242585
319,200,35782,2,0,P|287:210|254:211,1,66.4999982242585
35,147,36082,6,0,B|99:126|150:160|150:160|127:200|147:248,1,199.499994672775
224,121,36682,2,0,P|199:97|163:79,1,66.4999982242585
365,126,36982,2,0,P|394:109|417:86,1,66.4999982242585
290,238,37282,6,0,P|283:305|291:371,1,132.999996448517
388,278,37732,1,0,0:0:0:0:
194,245,37882,2,0,P|191:274|190:311,1,66.4999982242585
62,347,38182,2,0,P|59:318|58:280,1,66.4999982242585
187,47,38482,6,0,L|361:42,1,175
436,39,38857,1,0,0:0:0:0:
404,106,38932,1,0,0:0:0:0:
228,152,39082,2,0,P|201:124|186:79,1,87.5
389,244,39382,6,0,P|324:236|239:298,2,175
355,379,40132,1,0,0:0:0:0:
478,160,40282,1,0,0:0:0:0:
478,160,40432,2,0,P|505:199|511:247,1,87.5
354,30,40807,5,0,0:0:0:0:
354,30,40882,2,0,L|454:32,1,87.5
259,59,41182,2,0,L|171:57,1,87.5
341,18,41482,2,0,L|428:19,1,87.5
214,171,41782,6,0,B|186:171|170:164|170:164|100:182|101:151|39:171,1,175
75,295,42232,1,0,0:0:0:0:
128,46,42382,2,0,L|39:41,1,87.5
245,198,42682,1,0,0:0:0:0:
386,91,42832,2,0,P|349:106|305:139,1,87.5
234,292,43132,1,0,0:0:0:0:
148,49,43282,5,0,0:0:0:0:
86,213,43432,1,0,0:0:0:0:
163,8,43582,1,0,0:0:0:0:
166,183,43732,1,0,0:0:0:0:
68,40,43882,2,0,P|59:82|63:134,1,87.5
211,348,44182,6,0,B|197:321|198:274|220:247|220:247|173:193,2,175
335,311,44932,1,0,0:0:0:0:
91,278,45082,1,0,0:0:0:0:
88,275,45232,2,0,L|1:282,1,87.5
79,378,45532,1,0,0:0:0:0:
252,167,45682,6,0,P|173:130|87:140,1,175
223,253,46132,1,0,0:0:0:0:
331,116,46282,2,0,L|326:23,1,87.5
216,273,46582,6,0,P|250:322|365:313,1,175
447,170,47032,1,0,0:0:0:0:
430,292,47182,2,0,P|458:325|494:349,1,87.5
283,197,47482,1,0,0:0:0:0:
283,197,47632,2,0,L|376:186,1,87.5
498,80,47932,1,0,0:0:0:0:
325,280,48082,6,0,P|236:275|182:188,1,175
172,139,48457,1,0,0:0:0:0:
242,163,48532,1,0,0:0:0:0:
138,306,48682,2,0,P|101:321|41:324,1,87.5
61,59,48982,6,0,P|79:140|74:249,2,175
1,176,49732,1,0,0:0:0:0:
254,110,49882,1,0,0:0:0:0:
254,110,50032,2,0,L|262:202,1,87.5
5,206,50407,5,0,0:0:0:0:
5,206,50482,2,0,L|12:118,1,87.5
135,245,50782,2,0,L|142:333,1,87.5
9,217,51082,2,0,L|16:129,1,87.5
275,79,51382,6,0,P|208:132|124:117,1,175
176,4,51832,1,0,0:0:0:0:
308,103,51982,1,0,0:0:0:0:
108,260,52132,2,0,P|67:242|32:218,1,87.5
187,296,52432,2,0,P|203:337|211:379,1,87.5
175,216,52732,1,0,0:0:0:0:
415,327,52882,5,0,0:0:0:0:
245,374,53032,1,0,0:0:0:0:
457,341,53182,1,0,0:0:0:0:
287,294,53332,1,0,0:0:0:0:
458,310,53482,2,0,P|482:294|512:242,1,87.5
381,22,53782,6,0,L|390:197,2,175
483,106,54532,1,0,0:0:0:0:
235,190,54682,1,0,0:0:0:0:
235,190,54832,2,0,P|196:170|169:136,1,87.5
276,63,55132,1,0,0:0:0:0:
365,307,55282,6,0,P|275:290|191:303,1,175
34,366,55732,1,0,0:0:0:0:
61,193,55882,2,0,P|82:230|89:292,1,87.5
172,24,56182,2,0,P|175:66|155:125,1,87.5
70,355,56482,6,0,L|252:355,1,175
408,291,56932,1,0,0:0:0:0:
269,78,57082,2,0,P|265:127|277:186,1,87.5
421,258,57382,2,0,P|425:214|419:171,1,87.5
204,27,57682,6,0,L|113:28,1,90.9999958343508
100,30,58057,1,0,0:0:0:0:
87,31,58132,1,0,0:0:0:0:
15,87,58282,2,0,P|14:119|18:141,1,45.4999979171754
64,209,58582,6,0,B|89:247|75:295|75:295|117:268|175:276,1,181.999991668702
245,318,59332,1,0,0:0:0:0:
320,265,59482,2,0,P|317:226|330:176,1,90.9999958343508
432,144,60082,6,0,L|247:137,1,181.999991668702
152,88,60982,2,0,B|128:184|176:184|152:272,1,181.999991668702
108,346,61732,1,0,0:0:0:0:
198,348,61882,2,0,P|253:331|290:331,1,90.9999958343508
466,360,62482,5,0,0:0:0:0:
493,273,62632,1,0,0:0:0:0:
405,294,62782,1,0,0:0:0:0:
378,207,62932,1,0,0:0:0:0:
314,271,63082,2,0,L|265:266,1,45.4999979171754
204,202,63382,6,0,P|225:288|168:354,1,181.999991668702
78,370,64132,1,0,0:0:0:0:
19,300,64282,2,0,L|22:196,1,90.9999958343508
97,38,64882,6,0,P|141:122|235:125,1,181.999991668702
199,31,65782,2,0,P|164:82|124:202,1,181.999991668702
207,265,66682,1,0,0:0:0:0:
207,265,67282,6,0,B|252:255|252:255|309:262,1,90.9999958343508
367,343,67882,1,0,0:0:0:0:
258,357,68182,2,0,P|172:372|111:302,1,181.999991668702
91,201,69082,1,0,0:0:0:0:
301,141,69682,6,0,P|266:170|224:185,2,90.9999958343508
352,44,70582,2,0,P|333:133|336:224,1,181.999991668702
359,330,71482,1,0,0:0:0:0:
470,145,72082,6,0,P|385:129|284:151,1,181.999991668702
250,248,72982,2,0,P|289:346|328:247,1,272.999987503052
153,117,74482,5,0,0:0:0:0:
89,205,74782,1,0,0:0:0:0:
153,293,75082,1,0,0:0:0:0:
218,205,75382,2,0,B|314:259|384:193|384:193|364:236|384:283,1,272.999987503052
439,71,76882,6,0,L|346:66,1,90.9999958343508
243,34,77482,1,0,0:0:0:0:
167,112,77782,2,0,P|252:151|276:237,1,181.999991668702
167,223,78682,1,0,0:0:0:0:
323,71,79282,6,0,P|353:105|368:148,2,90.9999958343508
236,3,80182,2,0,L|40:8,1,181.999991668702
4,104,81082,1,0,0:0:0:0:
172,243,81682,6,0,P|254:261|344:216,1,181.999991668702
378,118,82582,2,0,L|383:300,1,181.999991668702
310,381,83482,1,0,0:0:0:0:
138,245,84082,6,0,L|1:252,2,136.499993751526
147,240,85882,2,0,P|158:193|152:142,1,90.9999958343508
329,91,86482,6,0,L|334:181,1,90.9999958343508
335,195,86857,1,0,0:0:0:0:
336,208,86932,1,0,0:0:0:0:
251,238,87082,2,0,P|226:236|202:239,1,45.4999979171754
235,324,87382,6,0,B|323:348|323:300|419:324,1,181.999991668702
509,375,88282,1,0,0:0:0:0:
509,375,88807,5,0,0:0:0:0:
509,375,88882,2,0,L|511:284,1,90.9999958343508
475,180,89482,1,0,0:0:0:0:
391,249,89782,2,0,P|295:268|225:225,1,181.999991668702
175,129,90682,1,0,0:0:0:0:
359,16,91282,5,0,0:0:0:0:
387,103,91432,1,0,0:0:0:0:
299,87,91582,1,0,0:0:0:0:
392,107,91732,1,0,0:0:0:0:
325,169,91882,2,0,L|370:132,1,45.4999979171754
296,205,92182,6,0,P|377:227|405:318,1,181.999991668702
296,315,93082,1,0,0:0:0:0:
201,117,93682,6,0,L|393:114,1,181.999991668702
488,146,94582,2,0,P|402:144|366:223,1,181.999991668702
471,252,95482,1,0,0:0:0:0:
395,330,95782,1,0,0:0:0:0:
295,288,96082,6,0,L|191:290,1,90.9999958343508
95,289,96682,1,0,0:0:0:0:
150,194,96982,2,0,P|165:110|101:32,1,181.999991668702
60,134,97882,1,0,0:0:0:0:
274,95,98482,6,0,L|427:102,1,136.499993751526
464,106,99082,2,0,P|474:159|465:206,1,90.9999958343508
419,293,99682,2,0,P|472:303|519:294,2,90.9999958343508
216,215,100882,6,0,L|213:305,1,90.9999958343508
291,382,101482,1,0,0:0:0:0:
322,277,101782,2,0,P|422:233|382:340,1,272.999987503052
301,140,103282,5,0,0:0:0:0:
301,140,103582,2,0,L|401:138,1,90.9999958343508
434,35,104182,2,0,L|252:38,1,181.999991668702
152,83,105082,1,0,0:0:0:0:
271,265,105682,6,0,P|248:317|221:342,1,90.9999958343508
164,249,106282,1,0,0:0:0:0:
226,159,106582,2,0,B|314:135|314:183|410:159,1,181.999991668702
499,103,107482,1,0,0:0:0:0:
336,249,108082,5,0,0:0:0:0:
336,249,108382,2,0,P|391:247|434:238,1,90.9999958343508
372,144,108982,2,0,P|312:107|206:127,1,181.999991668702
126,199,109882,1,0,0:0:0:0:
270,362,110482,6,0,P|285:284|283:177,1,181.999991668702
252,76,111382,2,0,P|278:126|403:187,1,181.999991668702
490,212,112282,2,0,P|477:260|478:306,1,90.9999958343508
371,273,112882,6,0,L|231:280,1,136.499993751526
179,284,113482,2,0,P|172:331|183:379,1,90.9999958343508
288,63,114682,2,0,L|293:156,1,90.9999958343508
301,263,115282,6,0,P|233:244|117:250,1,181.999991668702
180,341,116182,2,0,P|199:273|193:157,1,181.999991668702
112,87,117082,2,0,P|149:62|193:52,1,90.9999958343508
256,192,117682,12,0,119782,0:0:0:0:
338,102,120082,6,0,L|334:253,1,132.999996448517
259,346,120532,1,0,0:0:0:0:
196,227,120682,2,0,P|173:202|146:182,1,66.4999982242585
333,256,120982,6,0,L|465:250,2,132.999996448517
242,298,121732,1,0,0:0:0:0:
104,157,121882,2,0,P|180:155|259:56,1,199.499994672775
438,151,122482,6,0,P|410:122|370:100,1,66.4999982242585
433,236,122782,2,0,P|472:226|511:202,1,66.4999982242585
361,188,123082,2,0,P|349:226|350:272,1,66.4999982242585
396,64,123382,6,0,L|240:67,1,132.999996448517
162,67,123832,1,0,0:0:0:0:
201,195,123982,2,0,P|214:145|213:118,1,66.4999982242585
47,241,124282,2,0,P|80:243|111:254,1,66.4999982242585
217,335,124582,1,0,0:0:0:0:
352,189,124732,5,0,0:0:0:0:
352,189,124882,2,0,P|341:254|342:320,1,132.999996448517
463,262,125332,1,0,0:0:0:0:
430,131,125482,2,0,P|389:104|358:92,1,66.4999982242585
172,142,125782,6,0,P|247:146|310:122,2,132.999996448517
79,104,126532,1,0,0:0:0:0:
123,300,126682,2,0,P|220:284|319:343,1,199.499994672775
300,127,127282,6,0,P|293:159|293:192,1,66.4999982242585
381,92,127582,2,0,P|381:58|374:26,1,66.4999982242585
291,132,127882,2,0,P|284:164|284:197,1,66.4999982242585
186,24,128182,6,0,P|185:90|198:155,1,132.999996448517
306,329,128632,1,0,0:0:0:0:
224,272,128782,2,0,L|157:274,1,66.4999982242585
357,269,129082,1,0,0:0:0:0:
357,269,129232,2,0,P|376:295|385:334,1,66.4999982242585
291,149,129532,5,0,0:0:0:0:
291,149,129682,2,0,P|359:164|440:147,1,132.999996448517
360,37,130132,1,0,0:0:0:0:
179,123,130282,2,0,L|183:201,1,66.4999982242585
325,324,130582,6,0,B|322:276|322:276|328:235|328:235|325:187,2,132.999996448517
416,281,131332,1,0,0:0:0:0:
219,222,131482,2,0,P|121:216|42:273,1,199.499994672775
243,227,132082,6,0,L|246:160,1,66.4999982242585
161,53,132382,2,0,L|216:89,1,66.4999982242585
352,69,132682,2,0,L|292:99,1,66.4999982242585
494,125,132982,6,0,P|448:146|364:154,2,132.999996448517
451,34,133732,1,0,0:0:0:0:
395,228,133882,2,0,P|425:313|510:283,1,199.499994672775
318,216,134482,6,0,L|177:223,1,132.999996448517
63,278,134932,1,0,0:0:0:0:
155,373,135082,2,0,L|221:369,1,66.4999982242585
251,176,135382,6,0,P|250:126|219:40,2,132.999996448517
203,300,136132,1,0,0:0:0:0:
53,176,136282,2,0,B|149:200|149:152|253:176,1,199.499994672775
418,281,136882,6,0,L|443:355,1,66.4999982242585
468,209,137182,2,0,L|446:145,1,66.4999982242585
424,274,137482,2,0,L|449:348,1,66.4999982242585
306,191,137782,6,0,P|235:187|154:215,2,132.999996448517
395,238,138532,1,0,0:0:0:0:
228,348,138682,1,0,0:0:0:0:
228,348,138832,2,0,L|151:353,1,66.4999982242585
50,280,139132,1,0,0:0:0:0:
188,139,139282,6,0,P|232:131|277:138,1,90.9999958343508
354,187,139732,2,0,P|398:193|443:186,1,90.9999958343508
505,117,140182,2,0,P|486:169|477:296,1,181.999991668702
447,273,141382,1,0,0:0:0:0:
256,192,141682,12,0,143482,0:0:0:0:
419,84,144082,6,0,L|416:216,1,132.999996448517
415,237,144457,1,0,0:0:0:0:
414,257,144532,1,0,0:0:0:0:
305,182,144682,2,0,P|270:172|220:171,1,66.4999982242585
111,323,144982,6,0,P|167:304|241:311,2,132.999996448517
31,384,145732,1,0,0:0:0:0:
158,224,145882,1,0,0:0:0:0:
158,224,146032,2,0,P|166:152|150:78,1,132.999996448517
21,18,146407,5,0,0:0:0:0:
8,16,146482,2,0,L|83:31,1,66.4999982242585
199,80,146782,2,0,L|124:95,1,66.4999982242585
8,143,147082,2,0,L|83:158,1,66.4999982242585
262,227,147382,2,0,P|185:252|119:247,1,132.999996448517
35,230,147832,1,0,0:0:0:0:
173,90,147982,2,0,P|188:133|190:168,1,66.4999982242585
156,347,148282,2,0,B|185:309|185:309|222:287|222:287|248:254,1,132.999996448517
252,380,148732,1,0,0:0:0:0:
129,222,148882,5,0,0:0:0:0:
145,355,149032,1,0,0:0:0:0:
93,201,149182,1,0,0:0:0:0:
37,322,149332,1,0,0:0:0:0:
65,186,149482,2,0,L|3:161,1,66.4999982242585
197,98,149782,6,0,P|268:94|341:114,2,132.999996448517
103,124,150532,1,0,0:0:0:0:
177,310,150682,2,0,P|221:307|259:296,1,66.4999982242585
180,179,150982,2,0,P|146:150|112:130,1,66.4999982242585
312,221,151282,6,0,B|383:249|450:217|450:217|425:195|391:195,1,199.499994672775
267,155,151882,2,0,P|237:194|232:225,1,66.4999982242585
306,30,152182,6,0,P|208:42|157:79,1,132.999996448517
271,159,152632,1,0,0:0:0:0:
367,133,152782,2,0,L|436:138,1,66.4999982242585
264,252,153082,1,0,0:0:0:0:
264,252,153232,2,0,L|294:314,1,66.4999982242585
392,233,153532,1,0,0:0:0:0:
203,160,153682,6,0,L|70:163,1,132.999996448517
82,179,154057,1,0,0:0:0:0:
94,194,154132,1,0,0:0:0:0:
216,150,154282,2,0,L|214:77,1,66.4999982242585
177,278,154582,6,0,P|236:317|310:328,2,132.999996448517
134,184,155332,1,0,0:0:0:0:
289,58,155482,1,0,0:0:0:0:
289,58,155632,2,0,B|280:105|280:105|289:147|289:147|281:194,1,132.999996448517
237,332,156007,5,0,0:0:0:0:
229,343,156082,2,0,P|278:321|309:318,1,66.4999982242585
395,230,156382,2,0,P|365:245|333:254,1,66.4999982242585
226,340,156682,2,0,P|257:349|286:366,1,66.4999982242585
133,237,156982,6,0,L|0:244,1,132.999996448517
61,324,157432,1,0,0:0:0:0:
208,184,157582,2,0,L|206:113,1,66.4999982242585
167,315,157882,2,0,P|246:317|303:286,1,132.999996448517
363,178,158332,1,0,0:0:0:0:
476,340,158482,5,0,0:0:0:0:
369,261,158632,1,0,0:0:0:0:
509,339,158782,1,0,0:0:0:0:
385,290,158932,1,0,0:0:0:0:
496,362,159082,2,0,P|505:306|502:275,1,66.4999982242585
350,170,159382,6,0,P|393:193|486:205,2,132.999996448517
257,71,160132,1,0,0:0:0:0:
142,239,160282,2,0,L|146:318,1,66.4999982242585
85,182,160582,2,0,L|81:115,1,66.4999982242585
256,13,160882,6,0,B|299:72|261:140|261:140|301:130|342:156,1,199.499994672775
207,203,161482,2,0,P|180:162|179:133,1,66.4999982242585
286,308,161782,6,0,P|217:331|151:320,2,132.999996448517
386,218,162532,1,0,0:0:0:0:
230,95,162682,1,0,0:0:0:0:
354,53,162832,1,0,0:0:0:0:
196,179,162982,2,0,P|251:189|283:209,1,66.4999982242585
137,57,163282,6,0,P|148:128|144:232,1,175
116,298,163657,1,0,0:0:0:0:
71,241,163732,1,0,0:0:0:0:
319,154,163882,1,0,0:0:0:0:
228,304,164032,1,0,0:0:0:0:
266,51,164182,2,0,P|307:39|363:44,1,87.5
268,205,164482,6,0,L|178:202,1,87.5
12,191,164782,1,0,0:0:0:0:
133,69,164932,1,0,0:0:0:0:
73,323,165082,1,0,0:0:0:0:
73,323,165232,2,0,P|23:286|9:252,1,87.5
204,75,165607,5,0,0:0:0:0:
204,75,165682,2,0,L|101:81,1,87.5
298,134,165982,2,0,L|385:128,1,87.5
217,82,166282,2,0,L|114:88,1,87.5
15,320,166582,6,0,P|68:282|182:277,1,175
300,320,167032,1,0,0:0:0:0:
404,79,167182,1,0,0:0:0:0:
462,244,167332,1,0,0:0:0:0:
228,120,167482,1,0,0:0:0:0:
228,120,167632,2,0,P|240:160|275:211,1,87.5
404,79,167932,1,0,0:0:0:0:
194,235,168082,5,0,0:0:0:0:
351,159,168232,1,0,0:0:0:0:
133,145,168382,1,0,0:0:0:0:
312,156,168532,1,0,0:0:0:0:
158,236,168682,1,0,0:0:0:0:
288,127,168832,1,0,0:0:0:0:
86,300,168982,6,0,P|170:274|256:284,1,175
160,374,169432,1,0,0:0:0:0:
204,114,169582,2,0,L|197:21,1,87.5
364,230,169882,1,0,0:0:0:0:
364,230,170032,2,0,L|357:137,1,87.5
346,11,170332,1,0,0:0:0:0:
172,211,170482,6,0,P|81:209|-6:151,1,175
131,37,170932,1,0,0:0:0:0:
182,206,171082,2,0,L|179:304,1,87.5
315,78,171382,2,0,P|302:36|277:0,1,87.5
267,168,171682,5,0,0:0:0:0:
383,35,171832,1,0,0:0:0:0:
360,163,171982,2,0,P|366:217|383:263,1,87.5
199,49,172282,1,0,0:0:0:0:
199,49,172432,2,0,P|165:91|144:135,1,87.5
111,293,172732,1,0,0:0:0:0:
376,248,172882,6,0,L|198:241,1,175
129,223,173257,1,0,0:0:0:0:
182,171,173332,1,0,0:0:0:0:
386,239,173482,1,0,0:0:0:0:
232,335,173632,1,0,0:0:0:0:
424,161,173782,2,0,P|466:205|475:250,1,87.5
356,97,174082,6,0,P|352:53|369:13,1,87.5
332,184,174382,1,0,0:0:0:0:
190,80,174532,1,0,0:0:0:0:
46,301,174682,1,0,0:0:0:0:
46,301,174832,2,0,P|87:286|130:283,1,87.5
402,231,175207,5,0,0:0:0:0:
402,231,175282,2,0,L|395:140,1,87.5
230,63,175582,2,0,L|312:102,1,87.5
455,0,175882,2,0,L|379:51,1,87.5
169,199,176182,6,0,P|87:168|0:170,1,175
64,285,176632,1,0,0:0:0:0:
219,71,176782,1,0,0:0:0:0:
312,220,176932,1,0,0:0:0:0:
64,133,177082,1,0,0:0:0:0:
64,133,177232,2,0,P|79:189|77:244,1,87.5
21,375,177532,1,0,0:0:0:0:
177,155,177682,5,0,0:0:0:0:
261,308,177832,1,0,0:0:0:0:
156,117,177982,1,0,0:0:0:0:
176,293,178132,1,0,0:0:0:0:
129,120,178282,1,0,0:0:0:0:
91,282,178432,1,0,0:0:0:0:
317,141,178582,6,0,P|408:133|494:170,1,175
407,266,179032,1,0,0:0:0:0:
287,39,179182,2,0,P|297:81|296:125,1,87.5
160,340,179482,1,0,0:0:0:0:
160,340,179632,2,0,P|182:302|213:272,1,87.5
374,209,179932,1,0,0:0:0:0:
106,202,180082,6,0,L|280:198,1,175
446,258,180532,1,0,0:0:0:0:
384,93,180682,2,0,P|371:139|373:189,1,87.5
141,64,180982,2,0,P|111:32|73:9,1,87.5
99,273,181282,6,0,P|147:226|263:207,1,175
424,235,181732,1,0,0:0:0:0:
329,0,181882,2,0,L|325:96,1,87.5
315,264,182182,1,0,0:0:0:0:
165,48,182482,6,0,P|96:38|0:108,1,181.999991668702
45,200,183382,2,0,L|37:389,1,181.999991668702
137,336,184282,2,0,P|204:313|280:333,1,136.499993751526
310,358,184882,6,0,L|316:251,1,90.9999958343508
322,158,185482,1,0,0:0:0:0:
227,213,185782,2,0,P|160:223|50:182,1,181.999991668702
3,88,186682,1,0,0:0:0:0:
94,28,186982,1,0,0:0:0:0:
134,129,187282,6,0,L|127:240,1,90.9999958343508
60,305,187882,1,0,0:0:0:0:
155,358,188182,2,0,B|243:382|243:334|339:358,1,181.999991668702
431,308,189082,2,0,P|374:274|356:210,1,136.499993751526
360,154,189682,6,0,L|263:156,1,90.9999958343508
164,124,190282,1,0,0:0:0:0:
76,189,190582,2,0,P|133:203|198:311,1,181.999991668702
297,255,191482,2,0,P|344:240|433:257,1,136.499993751526
475,282,192082,6,0,L|479:181,1,90.9999958343508
442,87,192682,1,0,0:0:0:0:
351,148,192982,2,0,B|282:180|222:137|222:137|167:158,1,181.999991668702
81,201,193882,1,0,0:0:0:0:
251,337,194482,6,0,L|351:333,2,90.9999958343508
149,295,195382,2,0,P|110:209|160:129,1,181.999991668702
228,62,196282,2,0,P|287:76|363:60,1,136.499993751526
411,43,196882,6,0,B|419:106|419:106|411:164|411:164|420:223,1,181.999991668702
497,300,197782,2,0,P|418:258|331:277,1,181.999991668702
248,348,198682,1,0,0:0:0:0:
144,155,199282,6,0,L|149:6,2,136.499993751526
427,319,201082,2,0,P|392:282|377:238,1,90.9999958343508
397,137,201682,6,0,P|312:158|237:110,1,181.999991668702
171,23,202582,2,0,P|85:1|10:49,1,181.999991668702
46,153,203482,1,0,0:0:0:0:
256,192,204082,12,0,206182,0:0:0:0:
192,136,206482,6,0,B|270:107|281:155|367:126,1,175
424,85,206857,1,0,0:0:0:0:
358,54,206932,1,0,0:0:0:0:
243,281,207082,2,0,L|237:385,1,87.5
448,230,207382,6,0,P|365:257|278:255,2,175
400,355,208132,1,0,0:0:0:0:
275,132,208282,1,0,0:0:0:0:
274,131,208432,2,0,P|321:151|354:190,1,87.5
245,261,208732,1,0,0:0:0:0:
465,121,208882,6,0,L|471:213,1,87.5
375,60,209182,2,0,L|451:8,1,87.5
372,167,209482,2,0,L|289:126,1,87.5
499,295,209782,6,0,P|416:340|324:339,1,175
214,300,210232,1,0,0:0:0:0:
291,142,210382,2,0,P|302:190|300:236,1,87.5
106,64,210682,2,0,P|95:112|97:158,1,87.5
145,323,210982,1,0,0:0:0:0:
302,119,211132,1,0,0:0:0:0:
50,102,211282,5,0,0:0:0:0:
213,185,211432,1,0,0:0:0:0:
0,233,211582,1,0,0:0:0:0:
181,207,211732,1,0,0:0:0:0:
10,156,211882,2,0,P|52:112|81:94,1,87.5
119,358,212182,6,0,P|92:265|97:182,1,175
152,73,212632,1,0,0:0:0:0:
259,205,212782,2,0,L|254:296,1,87.5
268,36,213082,1,0,0:0:0:0:
268,36,213232,2,0,P|305:64|361:78,1,87.5
511,78,213532,1,0,0:0:0:0:
426,327,213682,6,0,L|429:231,1,87.5
343,76,213982,2,0,L|340:163,1,87.5
444,312,214282,2,0,L|447:216,1,87.5
333,83,214582,6,0,P|426:91|504:48,1,175
237,18,215032,1,0,0:0:0:0:
171,135,215182,2,0,L|165:233,1,87.5
332,12,215482,1,0,0:0:0:0:
332,12,215632,2,0,L|337:99,1,87.5
346,230,215932,1,0,0:0:0:0:
75,195,216082,6,0,P|157:220|232:180,1,175
259,110,216457,1,0,0:0:0:0:
186,123,216532,1,0,0:0:0:0:
254,283,216682,2,0,P|295:300|338:306,1,87.5
508,105,216982,6,0,B|449:122|449:122|391:123|391:123|338:140,2,175
430,2,217732,1,0,0:0:0:0:
412,255,217882,1,0,0:0:0:0:
412,255,218032,2,0,P|431:293|472:335,1,87.5
506,212,218332,1,0,0:0:0:0:
244,220,218482,6,0,L|160:253,1,87.5
0,312,218782,2,0,L|81:343,1,87.5
109,169,219082,2,0,L|27:200,1,87.5
256,334,219382,6,0,P|344:347|437:303,1,175
477,198,219832,1,0,0:0:0:0:
300,167,219982,2,0,P|317:227|344:269,1,87.5
456,27,220282,1,0,0:0:0:0:
456,27,220432,2,0,P|439:87|412:129,1,87.5
320,258,220732,1,0,0:0:0:0:
163,44,220882,5,0,0:0:0:0:
55,176,221032,1,0,0:0:0:0:
266,117,221182,1,0,0:0:0:0:
91,155,221332,1,0,0:0:0:0:
261,130,221482,2,0,P|255:192|263:238,1,87.5
420,13,221782,6,0,P|351:67|268:95,2,175
481,132,222532,1,0,0:0:0:0:
287,309,222682,1,0,0:0:0:0:
287,309,222832,2,0,P|296:263|317:220,1,87.5
402,132,223132,1,0,0:0:0:0:
170,26,223282,6,0,L|78:33,1,87.5
257,61,223582,2,0,L|344:54,1,87.5
178,9,223882,2,0,L|86:16,1,87.5
130,274,224182,6,0,P|156:191|145:98,1,175
27,176,224632,1,0,0:0:0:0:
153,296,224782,2,0,L|243:292,1,87.5
503,282,225082,1,0,0:0:0:0:
503,282,225232,2,0,P|483:324|475:373,1,87.5
405,198,225532,1,0,0:0:0:0:
272,342,225682,6,0,P|215:346|170:335,1,90.9999958343508
103,295,226132,2,0,P|57:290|13:297,1,90.9999958343508
30,206,226582,2,0,P|106:204|165:125,1,181.999991668702
179,157,227782,1,0,0:0:0:0:
256,192,228082,12,0,229882,0:0:0:0:
286,137,240082,6,0,L|282:232,1,90.9999958343508
245,311,240532,1,0,0:0:0:0:
176,251,240682,2,0,L|174:205,2,45.4999979171754
32,132,241282,6,0,L|125:128,1,90.9999958343508
304,122,241882,1,0,0:0:0:0:
304,122,242032,2,0,P|332:87|344:34,1,90.9999958343508
252,46,242482,5,0,0:0:0:0:
411,133,242782,1,0,0:0:0:0:
254,225,243082,1,0,0:0:0:0:
252,46,243382,6,0,B|348:30|348:62|436:46,1,181.999991668702
486,119,244132,2,0,P|463:125|444:136,1,45.4999979171754
380,202,244432,2,0,P|427:212|470:242,1,90.9999958343508
396,297,244882,6,0,L|340:301,1,45.4999979171754
290,231,245182,2,0,L|335:227,1,45.4999979171754
326,318,245482,2,0,L|280:321,1,45.4999979171754
196,287,245782,6,0,P|176:241|195:108,1,181.999991668702
362,49,246682,1,0,0:0:0:0:
362,49,246832,2,0,L|365:152,1,90.9999958343508
342,228,247282,6,0,P|408:224|466:271,1,136.499993751526
383,311,247882,1,0,0:0:0:0:
256,181,248182,1,0,0:0:0:0:
283,157,248782,5,0,0:0:0:0:
202,320,249082,1,0,0:0:0:0:
329,270,249232,1,0,0:0:0:0:
210,336,249382,1,0,0:0:0:0:
82,190,249682,6,0,L|260:182,1,175
330,193,250057,1,0,0:0:0:0:
303,125,250132,1,0,0:0:0:0:
236,288,250282,2,0,P|259:343|292:379,1,87.5
69,201,250582,6,0,P|55:283|76:372,2,175
142,90,251332,1,0,0:0:0:0:
394,162,251482,1,0,0:0:0:0:
394,162,251632,2,0,L|217:171,1,175
59,182,252007,5,0,0:0:0:0:
41,183,252082,2,0,P|85:223|97:262,1,87.5
224,368,252382,2,0,P|264:323|303:311,1,87.5
444,230,252682,2,0,P|399:189|387:150,1,87.5
162,28,252982,6,0,P|201:106|209:193,1,175
194,324,253432,1,0,0:0:0:0:
0,150,253582,2,0,L|103:144,1,87.5
350,138,253882,1,0,0:0:0:0:
350,138,254032,2,0,P|320:177|302:219,1,87.5
467,254,254332,1,0,0:0:0:0:
345,24,254482,5,0,0:0:0:0:
194,111,254632,1,0,0:0:0:0:
390,19,254782,1,0,0:0:0:0:
218,34,254932,1,0,0:0:0:0:
393,39,255082,2,0,P|437:60|464:90,1,87.5
348,324,255382,6,0,B|357:268|357:268|351:210|351:210|362:147,2,175
433,213,256132,1,0,0:0:0:0:
178,269,256282,1,0,0:0:0:0:
178,269,256432,2,0,P|122:261|91:242,1,87.5
181,97,256732,1,0,0:0:0:0:
300,331,256882,6,0,P|283:273|278:143,1,175
327,37,257332,1,0,0:0:0:0:
429,178,257482,2,0,P|384:154|357:123,1,87.5
104,187,257782,6,0,B|159:183|159:183|222:162|222:162|286:158,1,175
444,183,258232,1,0,0:0:0:0:
352,276,258382,2,0,P|343:319|342:368,1,87.5
441,135,258682,1,0,0:0:0:0:
441,135,258832,2,0,P|439:91|430:48,1,87.5
269,120,259132,1,0,0:0:0:0:
512,241,259282,6,0,L|336:248,1,175
263,253,259657,1,0,0:0:0:0:
295,187,259732,1,0,0:0:0:0:
276,356,259882,2,0,P|223:348|188:324,1,87.5
84,100,260182,6,0,P|101:179|96:297,2,175
14,212,260932,1,0,0:0:0:0:
262,272,261082,1,0,0:0:0:0:
262,272,261232,2,0,B|392:269|392:269|352:247,1,175
212,176,261607,5,0,0:0:0:0:
196,169,261682,2,0,P|163:202|121:221,1,87.5
196,59,261982,2,0,P|229:26|271:7,1,87.5
184,166,262282,2,0,P|151:199|109:218,1,87.5
281,16,262582,6,0,P|296:98|363:162,1,175
485,199,263032,1,0,0:0:0:0:
334,283,263182,1,0,0:0:0:0:
176,74,263332,2,0,B|185:116|185:116|184:179,1,87.5
129,325,263632,2,0,B|120:283|120:283|121:220,1,87.5
268,140,263932,1,0,0:0:0:0:
38,266,264082,5,0,0:0:0:0:
212,272,264232,1,0,0:0:0:0:
2,288,264382,1,0,0:0:0:0:
101,141,264532,1,0,0:0:0:0:
114,306,264682,2,0,P|94:353|67:381,1,87.5
234,161,264982,6,0,B|322:177|322:145|410:161,2,175
337,250,265732,1,0,0:0:0:0:
139,77,265882,1,0,0:0:0:0:
139,77,266032,2,0,B|119:115|119:115|110:164,1,87.5
132,331,266332,1,0,0:0:0:0:
393,301,266482,6,0,P|324:314|220:259,1,175
139,166,266932,1,0,0:0:0:0:
302,106,267082,2,0,L|240:171,1,87.5
54,349,267382,6,0,P|119:289|135:191,2,175
26,220,268132,1,0,0:0:0:0:
260,98,268282,1,0,0:0:0:0:
296,225,268432,1,0,0:0:0:0:
332,352,268582,2,0,L|377:258,1,87.5
488,37,268882,6,0,P|451:84|319:93,1,175
274,75,269257,1,0,0:0:0:0:
334,32,269332,1,0,0:0:0:0:
395,197,269482,1,0,0:0:0:0:
226,181,269632,1,0,0:0:0:0:
377,383,269782,2,0,P|354:341|346:282,1,87.5
471,176,270082,6,0,P|442:208|404:231,1,87.5
232,203,270382,1,0,0:0:0:0:
382,133,270532,1,0,0:0:0:0:
269,368,270682,1,0,0:0:0:0:
269,368,270832,2,0,B|281:324|281:324|321:280,1,87.5
143,125,271207,5,0,0:0:0:0:
143,125,271282,2,0,P|100:131|56:124,1,87.5
227,188,271582,2,0,P|192:214|151:230,1,87.5
296,124,271882,2,0,P|312:163|317:208,1,87.5
85,339,272182,6,0,B|172:328|172:328|172:332|172:332|260:322,1,175
386,311,272632,1,0,0:0:0:0:
343,87,272782,2,0,L|335:185,1,87.5
154,362,273082,1,0,0:0:0:0:
20,251,273232,2,0,P|50:220|89:199,1,87.5
339,285,273532,1,0,0:0:0:0:
172,78,273682,5,0,0:0:0:0:
210,250,273832,1,0,0:0:0:0:
140,52,273982,1,0,0:0:0:0:
218,215,274132,1,0,0:0:0:0:
72,118,274282,1,0,0:0:0:0:
246,130,274432,1,0,0:0:0:0:
18,268,274582,6,0,P|72:258|186:320,1,175
75,380,275032,1,0,0:0:0:0:
284,224,275182,2,0,L|280:328,1,87.5
147,97,275482,1,0,0:0:0:0:
147,97,275632,2,0,L|150:9,1,87.5
290,50,275932,1,0,0:0:0:0:
99,239,276082,6,0,P|50:226|14:202,1,87.5
193,186,276382,1,0,0:0:0:0:
193,186,276532,1,0,0:0:0:0:
183,351,276682,2,0,P|145:373|103:383,1,87.5
342,279,276982,2,0,L|435:286,1,87.5
260,229,277282,5,0,0:0:0:0:
191,337,277432,1,0,0:0:0:0:
175,163,277582,2,0,L|180:58,1,87.5
436,133,277882,1,0,0:0:0:0:
433,136,278032,2,0,P|377:143|341:135,1,87.5
184,68,278332,1,0,0:0:0:0:
260,322,278482,6,0,L|255:141,1,175
246,73,278857,1,0,0:0:0:0:
314,102,278932,1,0,0:0:0:0:
159,188,279082,1,0,0:0:0:0:
339,221,279232,1,0,0:0:0:0:
104,336,279382,2,0,L|14:332,1,87.5
180,272,279682,6,0,P|203:324|200:363,1,87.5
78,217,279982,1,0,0:0:0:0:
180,76,280132,1,0,0:0:0:0:
357,278,280282,1,0,0:0:0:0:
357,278,280432,2,0,L|352:180,1,87.5
68,225,280807,5,0,0:0:0:0:
68,225,280882,2,0,P|111:221|151:205,1,87.5
106,27,281182,2,0,P|89:72|89:126,1,87.5
246,193,281482,2,0,P|263:148|263:94,1,87.5
142,345,281782,6,0,L|336:352,1,175
445,323,282232,1,0,0:0:0:0:
276,271,282382,1,0,0:0:0:0:
403,150,282532,1,0,0:0:0:0:
305,384,282682,1,0,0:0:0:0:
305,384,282832,2,0,L|295:286,1,87.5
276,121,283132,1,0,0:0:0:0:
30,215,283282,5,0,0:0:0:0:
204,237,283432,1,0,0:0:0:0:
8,334,283582,1,0,0:0:0:0:
124,196,283732,1,0,0:0:0:0:
174,362,283882,1,0,0:0:0:0:
40,245,284032,1,0,0:0:0:0:
303,266,284182,6,0,P|216:260|128:288,1,175
23,348,284632,1,0,0:0:0:0:
55,170,284782,2,0,P|50:122|32:75,1,87.5
289,160,285082,1,0,0:0:0:0:
289,160,285232,2,0,L|198:157,1,87.5
34,183,285532,1,0,0:0:0:0:
225,0,285682,6,0,P|198:62|205:182,1,175
257,284,286132,1,0,0:0:0:0:
423,218,286282,2,0,L|326:220,1,87.5
95,295,286582,6,0,L|269:291,1,175
172,49,287182,1,0,0:0:0:0:
8,359,287482,1,0,0:0:0:0:
8,359,287632,2,0,P|55:308|76:203,1,175
83,136,288082,6,0,P|113:183|156:214,1,90.9999958343508
230,226,288532,2,0,P|263:256|286:295,1,90.9999958343508
255,378,288982,2,0,P|285:329|401:311,1,181.999991668702
428,334,290182,1,0,0:0:0:0:
256,192,290482,12,0,292807,0:0:0:0:
199,143,292882,6,0,L|289:138,1,90.9999958343508
303,138,293257,1,0,0:0:0:0:
316,137,293332,1,0,0:0:0:0:
384,197,293482,2,0,P|371:236|368:255,1,45.4999979171754
303,301,293782,6,0,B|218:308|218:276|122:292,1,181.999991668702
28,350,294682,1,0,0:0:0:0:
110,145,295282,6,0,P|142:186|126:315,1,181.999991668702
28,342,296182,2,0,L|213:346,1,181.999991668702
318,350,297082,1,0,0:0:0:0:
261,137,297682,5,0,0:0:0:0:
191,195,297832,1,0,0:0:0:0:
254,130,297982,1,0,0:0:0:0:
169,98,298132,1,0,0:0:0:0:
256,122,298282,2,0,L|259:70,1,45.4999979171754
214,0,298582,6,0,P|285:53|373:42,1,181.999991668702
473,0,299482,1,0,0:0:0:0:
389,199,300082,6,0,L|394:380,1,181.999991668702
473,309,300982,2,0,P|397:275|314:315,2,181.999991668702
499,133,302482,6,0,L|496:42,1,90.9999958343508
494,29,302857,1,0,0:0:0:0:
493,16,302932,1,0,0:0:0:0:
406,45,303082,2,0,P|369:50|354:50,1,45.4999979171754
275,16,303382,6,0,P|325:86|289:165,1,181.999991668702
191,210,304282,1,0,0:0:0:0:
72,26,304882,6,0,L|269:17,1,181.999991668702
310,111,305782,2,0,L|128:119,1,181.999991668702
20,124,306682,1,0,0:0:0:0:
205,240,307282,5,0,0:0:0:0:
282,192,307432,1,0,0:0:0:0:
291,282,307582,1,0,0:0:0:0:
214,330,307732,1,0,0:0:0:0:
130,294,307882,2,0,L|99:251,1,45.4999979171754
49,183,308182,6,0,P|106:159|152:48,1,181.999991668702
44,73,309082,1,0,0:0:0:0:
210,213,309682,6,0,L|401:207,1,181.999991668702
501,203,310582,1,0,0:0:0:0:
338,115,310882,5,0,0:0:0:0:
318,120,311332,5,0,0:0:0:0:
298,125,311782,5,0,0:0:0:0:
