osu file format v7

[General]
AudioFilename: a08fd8deba6c.mp3
AudioLeadIn: 0
PreviewTime: 39771
Countdown: 0
SampleSet: Normal
StackLeniency: 0.7
Mode: 0
LetterboxInBreaks: 1

[Editor]
DistanceSpacing: 0.800000011920929
BeatDivisor: 4
GridSize: 8

[Metadata]
Title:nO limiT (TV Size)
Artist:Eclipse
Creator:Louis Cyphre
Version:Basquash!
Source:Basquash!
Tags:SadKangaroo

[Difficulty]
HPDrainRate:5
CircleSize:4
OverallDifficulty:7
SliderMultiplier:2
SliderTickRate:0.5

[Events]
//Background and Video events
0,0,"BG.jpg"
//Break Periods
//Storyboard Layer 0 (Background)
//Storyboard Layer 1 (Fail)
//Storyboard Layer 2 (Pass)
//Storyboard Layer 3 (Foreground)
Sprite,Foreground,Centre,"Double-Speed.png",320,240 M,0,54993,,328,92 S,0,54993,,0.6160001 F,0,54993,55104,0,1 F,0,55104,55215,1,0 F,0,55215,55326,0,1 F,0,55326,55437,1,0 F,0,55437,55548,0,1 F,0,55548,55660,1,0 F,0,55660,55771,0,1 F,0,55771,55882,1,0 F,0,55882,68882,0 F,0,68882,68993,0 F,0,68993,69104,0,1 F,0,69104,69215,1,0 F,0,69215,69326,0,1 F,0,69326,69437,1,0 F,0,69437,69548,0,1 F,0,69548,69660,1,0 F,0,69660,69771,0,1 F,0,69771,69882,1,0 F,0,69882,69993,0,1 F,0,69993,70104,1,0 F,0,70104,70215,0,1 F,0,70215,70326,1,0.03999989
Sprite,Foreground,Centre,"Slow-Down.png",320,240 M,0,60771,,326,94 S,0,60771,,0.7360001 F,0,60771,60993,0,1 F,0,60993,61215,1,0 F,0,61215,61437,0,1 F,0,61437,61660,1,0
//Storyboard Sound Samples
//Background Colour Transformations
3,100,163,162,255

[TimingPoints]
549,444.444444444444,4,1,0,61,1,0
44660,-100,4,2,0,61,0,0
46215,-100,4,1,0,61,0,0
56086,-50,4,1,0,60,0,1
60660,-100,4,1,0,60,0,0
70308,-50,4,1,0,61,0,1
78530,-100,4,1,0,59,0,0

[Colours]
Combo1 : 255,255,255
Combo2 : 255,0,128
Combo3 : 0,128,192
Combo4 : 255,0,0

[HitObjects]
80,296,21882,1,0
72,216,22104,1,0
96,136,22327,1,0
152,72,22549,1,0
224,40,22771,1,8
304,32,22993,1,0
440,232,23660,5,8
400,160,23882,1,0
328,120,24104,1,0
248,96,24327,1,0
168,112,24549,1,8
96,144,24771,1,4
80,176,25660,5,0
160,184,25882,1,0
240,192,26104,1,0
320,200,26327,1,8
400,208,26549,1,0
264,120,26993,5,0
184,152,27216,1,8
184,232,27438,1,0
256,264,27660,1,0
328,240,27882,2,0,B|358:186|336:136,2,100,0|8|4
288,336,29216,5,0
304,256,29438,1,0
256,192,29660,1,0
176,168,29882,1,8
112,208,30104,2,0,B|-8:144|120:48,1,200
192,56,30771,1,8
272,56,30993,1,0
352,56,31216,1,0
352,136,31438,2,0,B|352:248,2,100,0|8|4
328,176,32771,5,0
288,104,32993,1,0
248,176,33216,1,8
208,104,33438,1,0
168,176,33660,2,0,B|120:144|56:48|232:16,1,200
264,32,34327,5,8
344,32,34549,1,0
424,32,34771,1,0
384,96,34993,1,0
384,176,35216,2,0,B|384:296,1,100,8|4
224,288,35882,5,0
168,224,36104,1,8
136,152,36327,1,0
128,72,36549,1,4
256,192,36771,12,0,39215
96,128,39660,5,0
128,152,39771,1,0
160,176,39882,1,0
192,200,39993,1,0
224,224,40104,1,0
424,88,40771,5,0
424,128,40882,1,8
424,248,41215,5,0
392,272,41327,1,0
360,288,41438,2,0,B|296:288,3,50,0|0|0|0
280,264,41882,1,8
248,240,41993,1,0
216,264,42104,1,0
184,288,42216,1,0
152,264,42327,1,0
120,240,42438,1,0
88,216,42549,1,0
64,184,42660,2,0,B|64:128,3,50,0|8|0|4
64,96,43104,5,0
104,80,43216,1,0
144,72,43327,1,0
184,80,43438,1,0
224,96,43549,1,0
264,80,43660,1,8
304,64,43771,1,0
344,80,43882,1,0
416,88,44771,5,2
352,40,44993,1,2
272,32,45216,1,2
192,56,45438,1,2
136,112,45660,1,2
112,184,45882,1,2
120,264,46104,1,2
352,328,46771,5,8
368,288,46882,1,0
352,248,46993,1,8
336,208,47104,1,8
344,168,47215,2,0,B|312:0|144:40|112:120,1,300,8|0
96,136,47993,5,0
72,168,48104,1,0
64,208,48216,1,0
72,248,48327,1,0
88,280,48438,1,0
120,304,48549,1,8
160,320,48660,1,0
200,320,48771,1,0
240,304,48882,1,0
272,280,48993,5,0
288,248,49104,1,0
296,208,49216,1,0
288,168,49327,1,0
264,136,49438,1,8
232,112,49549,1,0
192,104,49660,1,0
152,112,49771,1,0
120,136,49882,1,0
104,176,49993,1,0
112,216,50104,5,0
144,248,50216,1,0
184,256,50327,1,8
224,248,50438,1,0
248,216,50549,1,0
256,176,50660,1,0
232,144,50771,2,0,L|160:120|64:200|104:320|240:328|288:304,1,500
304,280,51993,5,0
328,248,52104,1,0
344,208,52216,1,0
344,168,52327,1,0
336,128,52438,2,0,B|448:96|240:-32|64:112|32:240|80:440|440:408|416:200|400:184|400:184|248:184,1,850
216,272,54660,1,0
256,160,54993,6,0,B|156:160,1,100
96,112,55437,2,0,B|56:216,1,100
136,224,55882,1,0
32,344,56104,6,0,B|152:344,3,100,0|0|0|8
136,264,56549,2,0,B|240:264,3,100,0|0|0|0
232,184,56993,2,0,B|336:184,3,100,0|0|0|8
368,112,57438,1,0
368,112,57549,1,0
368,112,57660,1,0
456,248,57882,6,0,B|352:248,3,100,0|0|0|0
312,312,58327,2,0,B|200:312,3,100,8|0|0|0
208,232,58771,2,0,B|96:232,3,100
128,152,59216,1,8
128,152,59327,1,0
128,152,59438,1,0
288,120,59660,6,0,B|408:120,2,100,0|0|0
224,168,59993,2,0,B|336:168,2,100,0|8|0
296,208,60327,2,0,B|424:208,2,100
184,240,60660,1,0
184,240,60771,2,0,B|144:176|208:112,2,100,0|8|0
256,264,61437,1,0
336,272,61660,5,0
384,208,61882,1,8
344,136,62104,1,0
288,192,62327,1,8
232,248,62549,1,0
176,192,62771,1,8
120,248,62993,1,0
64,192,63216,1,8
120,88,63549,1,8
240,88,63882,1,8
448,120,64771,6,0,B|376:192,1,100
256,184,65327,1,0
136,184,65660,1,0
136,24,66104,6,0,B|240:24,2,100,0|8|0
56,24,66771,2,0,L|16:24|16:200|160:200|160:192|224:192,1,400
256,192,67882,5,0
336,192,68104,1,8
296,120,68326,2,0,B|248:48|192:48,2,100,0|8|8
336,192,68993,1,0
304,264,69215,2,0,B|88:264,1,200
56,200,69882,1,0
128,160,70104,1,0
256,256,70327,6,0,B|120:256,2,100,8|0|0
328,224,70660,2,0,B|200:224,2,100,0|8|0
400,184,70993,2,0,B|272:184,2,100,0|0|8
472,152,71327,2,0,B|352:152,3,100,0|0|0|8
368,312,71882,1,0
256,192,72104,6,0,B|368:192,1,100,8|0
256,192,72327,2,0,B|352:96,1,100
256,192,72549,2,0,B|256:72,1,100
256,192,72771,2,0,B|176:112,1,100
256,192,72993,2,0,B|152:192,1,100,8|0
256,192,73216,1,0
256,192,73327,2,0,B|176:272,2,100
256,192,73660,1,0
368,80,73882,6,0,B|208:80,2,100,8|0|0
312,136,74216,2,0,B|212:136,2,100
256,192,74549,2,0,B|144:192,2,100,0|0|8
200,248,74882,2,0,B|80:248,2,100
128,280,75216,2,0,L|128:328|456:328|456:248,1,400,8|8
400,160,75882,5,8
240,160,76104,1,8
80,160,76327,1,8
240,160,76549,1,8
400,160,76771,1,8
240,160,76993,1,8
80,160,77216,1,8
240,160,77438,5,0
400,160,77660,1,8
240,160,77882,1,0
80,160,78104,1,8
208,64,78549,5,0
280,32,78771,1,8
352,64,78993,1,0
384,136,79216,1,0
352,208,79438,1,0
280,240,79660,1,8
208,208,79882,5,0
176,136,80104,1,0
208,64,80327,1,0
280,32,80549,1,0
352,64,80771,1,0
256,192,80993,12,0,84104
176,192,84548,5,0
256,192,84771,1,0
336,192,84993,1,0
416,192,85215,1,0
416,152,85326,1,0
456,152,85437,1,0
456,112,85548,1,0
456,32,85771,5,0
416,32,85882,1,0
416,72,85993,1,0
376,72,86104,2,0,L|288:72,1,50
256,264,86549,5,0
312,64,86882,1,0
200,64,87104,1,4
