osu file format v9

[General]
AudioFilename: The Retard Magnet.mp3
AudioLeadIn: 0
PreviewTime: 55884
Countdown: 1
SampleSet: Normal
StackLeniency: 0.7
Mode: 0
LetterboxInBreaks: 1

[Editor]
Bookmarks: 53312,123598
DistanceSpacing: 0.85
BeatDivisor: 4
GridSize: 8

[Metadata]
Title:The Retard Magnet
Artist:Echo Inada
Creator:Strawberry-kun
Version:Fair
Source:
Tags:

[Difficulty]
HPDrainRate:5
CircleSize:3
OverallDifficulty:5
ApproachRate:5
SliderMultiplier:1.8
SliderTickRate:1

[Events]
//Background and Video events
0,0,"bg.jpg"
//Break Periods
2,82655,94112
//Storyboard Layer 0 (Background)
//Storyboard Layer 1 (Fail)
//Storyboard Layer 2 (Pass)
//Storyboard Layer 3 (Foreground)
//Storyboard Sound Samples
//Background Colour Transformations
3,100,163,162,255

[TimingPoints]
170,428.571428571429,4,1,0,70,1,0
66384,-100,4,1,0,40,0,0
67562,-100,4,1,0,70,0,0
80735,-100,4,2,0,5,0,0
80750,-100,4,1,0,70,0,0
107527,-100,4,1,0,40,0,0
108812,-100,4,1,0,70,0,0
121875,-100,4,2,0,5,0,0
122098,-100,4,1,0,70,0,0

[HitObjects]
256,192,53312,12,4,55027
120,56,55884,5,0
16,168,56312,1,0
56,232,56527,1,0
120,272,56741,2,2,B|304:272,2,180,0|0|8
120,120,58027,1,0
248,32,58455,6,2,B|352:16|464:32|488:120|464:224,2,360,0|8|0
80,184,60812,1,0
144,224,61027,1,8
376,224,61670,1,0
440,184,61884,6,2,B|480:96|392:0|248:0|216:104,2,360,0|8|2
296,232,64027,1,0
224,248,64241,1,0
152,232,64455,1,8
32,144,64884,1,0
80,80,65098,1,0
128,16,65312,6,2,B|488:16,1,360,0|8
456,168,66598,1,0
456,320,67027,1,0
304,320,67455,1,0
224,320,67670,1,0
224,240,67884,5,8
144,240,68098,1,0
144,160,68312,1,8
64,160,68527,1,0
64,80,68741,6,2,B|240:24,1,180,0|0
376,80,69598,1,8
376,80,69812,1,0
400,152,70027,1,8
400,152,70241,1,0
424,224,70455,6,2,B|360:288|264:296,1,180,0|0
112,264,71312,1,8
72,200,71527,1,0
120,144,71741,1,8
80,80,71955,1,0
120,16,72170,6,2,B|304:16,1,180,0|0
160,80,73027,2,2,B|344:80,1,180,0|0
448,192,73884,1,0
328,288,74312,1,0
256,320,74527,1,0
184,288,74741,1,8
160,56,75384,1,0
232,40,75598,6,2,B|448:8|504:224,2,360,0|8|2
256,192,77741,1,0
184,224,77955,1,0
112,256,78170,1,8
40,120,78598,1,0
80,56,78812,1,0
144,16,79027,6,2,B|224:120|368:32|456:176,2,360,0|8|0
312,192,81384,5,0
272,264,81598,1,8
192,264,81812,1,0
152,192,82027,1,8
192,120,82241,1,0
272,120,82455,5,12
128,272,95312,5,8
128,144,96170,5,0
200,104,96384,1,0
272,64,96598,1,8
432,104,97027,1,0
472,176,97241,1,0
432,248,97455,1,0
360,288,97670,1,0
288,248,97884,6,2,B|112:192,1,180,0|0
48,48,98741,1,8
200,104,99170,1,0
352,48,99598,6,2,B|504:120|176:272|352:344,2,360,0|8|0
112,56,101955,1,0
64,112,102170,1,8
112,336,102813,1,0
176,296,103027,6,2,B|400:360|464:160,2,360,0|8|2
272,176,105170,1,0
328,128,105384,1,0
384,80,105598,1,8
232,72,106027,1,0
184,128,106241,1,0
136,184,106455,6,2,B|112:304|304:384|400:304,1,360,0|8
504,192,107741,1,0
424,64,108170,1,0
344,192,108598,1,0
304,256,108813,1,0
224,256,109027,5,8
152,240,109241,1,0
88,200,109455,1,8
48,136,109670,1,0
88,72,109884,6,2,B|264:16,1,180,0|0
264,168,110741,1,8
336,192,110955,1,0
408,168,111170,1,8
480,192,111384,1,0
472,272,111598,6,2,B|296:312,1,180,0|0
144,312,112455,1,8
120,240,112670,1,0
96,168,112884,1,8
72,96,113098,1,0
96,24,113313,6,2,B|184:-8|272:24,1,180,0|0
184,144,114170,2,2,B|272:176|360:144,1,180,0|0
456,264,115027,1,0
312,328,115455,1,0
240,312,115670,1,0
168,288,115884,1,8
48,96,116527,1,0
128,96,116741,6,2,B|232:8|352:168|472:96,2,360,0|8|2
184,240,118884,1,0
256,264,119098,1,0
328,240,119313,1,8
200,160,119741,1,0
256,104,119955,1,0
312,160,120170,6,2,B|464:160|480:240|464:328|312:328,2,360,0|8|0
80,160,122527,5,0
8,200,122741,1,8
8,280,122955,1,0
80,320,123170,1,8
152,280,123384,1,0
152,200,123598,5,12
