osu file format v11

[General]
AudioFilename: p.mp3
AudioLeadIn: 0
PreviewTime: 56528
Countdown: 0
SampleSet: Soft
StackLeniency: 0.7
Mode: 0
LetterboxInBreaks: 0

[Editor]
DistanceSpacing: 1
BeatDivisor: 4
GridSize: 4

[Metadata]
Title:Happy Synthesizer
TitleUnicode:ハッピーシンセサイザ
Artist:EasyPop
ArtistUnicode:EasyPop
Creator:alacat
Version:Normal
Source:
Tags:vocaloid vocaloid2 megurine luka megpoid gumi Colin Hou BETTI
BeatmapID:193176
BeatmapSetID:64859

[Difficulty]
HPDrainRate:3
CircleSize:3
OverallDifficulty:3
ApproachRate:4
SliderMultiplier:0.999999999999999
SliderTickRate:1

[Events]
//Background and Video events
0,0,"happy.jpg"
//Break Periods
2,11373,24971
2,86964,89223
2,151216,166704
//Storyboard Layer 0 (Background)
//Storyboard Layer 1 (Fail)
//Storyboard Layer 2 (Pass)
//Storyboard Layer 3 (Foreground)
//Storyboard Sound Samples
//Background Colour Transformations
3,100,0,0,0

[TimingPoints]
1725,472.44094488189,4,2,1,40,1,0
11173,-100,4,2,1,60,0,0
26291,-100,4,1,1,50,0,0
41410,-100,4,1,1,60,0,0
56528,-100,4,1,1,80,0,1
56646,-100,4,1,1,70,0,0
86764,-100,4,2,1,60,0,0
90543,-100,4,1,1,50,0,0
105662,-100,4,1,1,60,0,0
120780,-100,4,1,1,80,0,1
120898,-100,4,1,1,70,0,0
151016,-100,4,1,1,80,0,0
168024,-100,4,1,1,80,0,1
181252,-100,4,1,1,60,0,1
183142,-100,4,1,1,70,0,1
196370,-100,4,1,1,70,0,0
198260,-100,4,1,1,80,0,1
210543,-100,4,1,1,70,0,1
211488,-100,4,1,1,60,0,1
213378,-100,4,1,1,80,0,1
226606,-100,4,1,1,60,0,0
227079,-100,4,1,1,50,0,0
227551,-100,4,1,1,40,0,0
228496,-100,4,1,1,20,0,0
230386,-100,4,1,1,15,0,0
232276,-100,4,1,1,10,0,0
232748,-100,4,2,1,5,0,0

[Colours]
Combo1 : 255,162,68
Combo2 : 0,255,255
Combo3 : 255,102,179
Combo4 : 66,255,160

[HitObjects]
180,292,3142,2,0,P|220:300|240:288|284:296,1,99.9999999999999,0|0,0:0|0:0,0:0:0
364,348,4087,1,2,0:0:0
452,304,4559,2,0,P|468:256|464:208,1,99.9999999999999,0|2,0:0|0:0,0:0:0
404,128,5504,6,0,P|365:115|339:132|301:119,1,99.9999999999999,0|2,0:0|0:0,0:0:0
220,72,6449,1,0,0:0:0
184,164,6921,1,2,0:0:0
220,260,7394,6,0,P|144:320|54:283,1,200
44,188,8811,1,2,0:0:0
84,96,9284,2,0,P|136:92|184:96,1,99.9999999999999,0|2,0:0|0:0,0:0:0
256,164,10228,2,0,P|244:208|264:236|256:268,1,99.9999999999999,0|2,0:0|0:0,0:0:0
256,364,11173,5,4,0:0:0
56,288,26291,5,4,0:0:0
68,188,26764,1,8,0:0:0
116,100,27236,2,0,P|164:76|212:68,1,99.9999999999999,0|8,0:0|0:0,0:0:0
300,112,28181,2,0,P|304:168|300:212,1,99.9999999999999,0|8,0:0|0:0,0:0:0
208,176,29126,2,0,P|204:232|208:276,1,99.9999999999999,0|8,0:0|0:0,0:0:0
304,308,30071,5,0,0:0:0
388,360,30543,2,0,P|440:368|488:360,2,99.9999999999999,8|0|8,0:0|0:0|0:0,0:0:0
304,308,31961,1,0,0:0:0
220,360,32433,1,8,0:0:0
136,308,32906,2,0,P|36:308,2,99.9999999999999,0|8|0,0:0|0:0|0:0,0:0:0
220,252,34323,5,8,0:0:0
304,308,34795,2,0,P|328:268|332:212,1,99.9999999999999,0|8,0:0|0:0,0:0:0
344,116,35740,1,0,0:0:0
436,80,36213,1,8,0:0:0
496,160,36685,2,0,P|496:220|480:260,1,99.9999999999999,0|8,0:0|0:0,0:0:0
404,320,37630,6,0,P|304:336,1,99.9999999999999,0|8,0:0|0:0,0:0:0
224,276,38575,2,0,P|124:292,1,99.9999999999999,0|8,0:0|0:0,0:0:0
24,276,39520,1,0,0:0:0
44,180,39992,2,0,P|76:160|112:148,1,74.9999999999999,0|4,0:0|0:0,0:0:0
184,168,40701,2,0,P|240:160,1,50,8|8,0:0|0:0,0:0:0
320,208,41410,5,4,0:0:0
416,180,41882,1,8,0:0:0
476,100,42354,2,0,P|439:57|400:37,2,99.9999999999999,0|8|0,0:0|0:0|0:0,0:0:0
416,180,43772,1,8,0:0:0
328,224,44244,2,0,P|308:272|308:320,1,99.9999999999999,0|8,0:0|0:0,0:0:0
392,376,45189,6,0,P|412:328|412:280,1,99.9999999999999,0|8,0:0|0:0,0:0:0
416,180,46134,1,0,0:0:0
332,124,46606,1,8,0:0:0
236,156,47079,2,0,P|200:164|176:152|136:160,1,99.9999999999999,0|8,0:0|0:0,0:0:0
100,68,48024,2,0,P|136:60|160:72|200:64,2,99.9999999999999,0|8|4,0:0|0:0|0:0,0:0:0
36,144,49441,5,8,0:0:0
12,240,49913,2,0,P|20:292|48:332,1,99.9999999999999,0|8,0:0|0:0,0:0:0
136,376,50858,1,0,0:0:0
220,324,51331,1,8,0:0:0
208,224,51803,2,0,P|208:124,1,99.9999999999999,0|8,0:0|0:0,0:0:0
304,148,52748,6,0,P|304:248,1,99.9999999999999,4|8,0:0|0:0,0:0:0
352,336,53693,1,0,0:0:0
452,316,54165,1,8,0:0:0
256,192,54638,12,4,56528,0:0:0
336,264,57473,5,0,0:0:0
244,304,57945,1,8,0:0:0
164,244,58417,2,0,P|156:188|168:148,1,99.9999999999999,0|8,0:0|0:0,0:0:0
260,112,59362,2,0,P|268:168|256:208,1,99.9999999999999,0|8,0:0|0:0,0:0:0
164,244,60307,5,0,0:0:0
64,232,60780,1,8,0:0:0
8,312,61252,1,0,0:0:0
108,332,61724,1,8,0:0:0
208,336,62197,6,0,P|252:308|300:304,1,99.9999999999999,0|8,0:0|0:0,0:0:0
396,336,63142,1,0,0:0:0
472,272,63614,1,8,0:0:0
420,188,64087,6,0,P|420:88,1,99.9999999999999,4|8,0:0|0:0,0:0:0
324,112,65032,2,0,P|324:212,1,99.9999999999999,0|8,0:0|0:0,0:0:0
256,284,65976,1,0,0:0:0
156,284,66449,1,8,0:0:0
156,184,66921,1,0,0:0:0
256,184,67394,1,8,0:0:0
320,260,67866,6,0,P|372:272|420:264,1,99.9999999999999,0|8,0:0|0:0,0:0:0
452,172,68811,2,0,P|400:160|352:168,1,99.9999999999999,0|8,0:0|0:0,0:0:0
256,184,69756,2,0,P|240:128|248:88,1,99.9999999999999,4|8,0:0|0:0,0:0:0
336,44,70701,1,0,0:0:0
336,44,70937,2,0,P|392:44,1,50,8|8,0:0|0:0,0:0:0
480,76,71646,5,4,0:0:0
452,172,72118,2,0,P|464:220|452:268,2,99.9999999999999,8|0|8,0:0|0:0|0:0,0:0:0
356,144,73536,1,0,0:0:0
268,188,74008,1,8,0:0:0
208,108,74480,2,0,P|160:88|112:88,1,99.9999999999999,0|8,0:0|0:0,0:0:0
24,136,75425,5,0,0:0:0
108,188,75898,1,8,0:0:0
20,236,76370,1,0,0:0:0
104,292,76843,1,8,0:0:0
196,256,77315,2,0,P|248:252|296:236,1,99.9999999999999,0|8,0:0|0:0,0:0:0
376,180,78260,2,0,P|372:128|356:80,2,99.9999999999999,0|8|4,0:0|0:0|0:0,0:0:0
360,280,79677,5,8,0:0:0
280,340,80150,2,0,P|180:340,1,99.9999999999999,0|8,0:0|0:0,0:0:0
84,368,81095,1,0,0:0:0
8,300,81567,1,8,0:0:0
104,272,82039,2,0,P|132:224|136:180,1,99.9999999999999,0|8,0:0|0:0,0:0:0
60,116,82984,6,0,P|84:72|128:48,1,99.9999999999999,0|8,0:0|0:0,0:0:0
208,108,83929,2,0,P|256:124|304:108,1,99.9999999999999,0|8,0:0|0:0,0:0:0
388,60,84874,5,4,0:0:0
456,132,85347,1,8,0:0:0
404,220,85819,2,0,P|344:300,1,99.9999999999999,0|8,0:0|0:0,0:0:0
256,252,86764,5,4,0:0:0
248,152,90543,6,0,P|260:204|256:252,1,99.9999999999999,4|8,0:0|0:0,0:0:0
192,328,91488,1,0,0:0:0
100,292,91961,1,8,0:0:0
52,204,92433,2,0,P|52:148|52:148|56:124|72:108,1,99.9999999999999,0|8,0:0|0:0,0:0:0
164,76,93378,2,0,P|164:132|164:132|160:156|144:172,1,99.9999999999999,0|8,0:0|0:0,0:0:0
52,204,94323,5,0,0:0:0
100,292,94795,1,8,0:0:0
200,284,95268,2,0,P|224:240|264:208,1,99.9999999999999,0|8,0:0|0:0,0:0:0
364,216,96213,2,0,P|384:196|387:165|387:165|373:125,1,99.9999999999999,0|8,0:0|0:0,0:0:0
300,60,97158,2,0,P|204:88,1,99.9999999999999,0|8,0:0|0:0,0:0:0
108,116,98102,6,0,P|76:164|80:212,2,99.9999999999999,4|8|0,0:0|0:0|0:0,0:0:0
180,188,99520,1,8,0:0:0
244,264,99992,2,0,P|276:216|272:168,1,99.9999999999999,0|8,0:0|0:0,0:0:0
216,96,100937,2,0,P|260:68|308:64,1,99.9999999999999,0|8,0:0|0:0,0:0:0
368,144,101882,5,0,0:0:0
452,88,102354,1,8,0:0:0
492,180,102827,2,0,P|480:280,1,99.9999999999999,0|8,0:0|0:0,0:0:0
396,332,103772,1,4,0:0:0
320,268,104244,2,0,P|288:252|248:244,1,74.9999999999999,4|4,0:0|0:0,0:0:0
180,272,104953,2,0,P|128:280,1,50,8|8,0:0|0:0,0:0:0
56,344,105662,6,0,P|36:296|36:248,1,99.9999999999999,4|8,0:0|0:0,0:0:0
32,148,106606,1,0,0:0:0
116,92,107079,1,8,0:0:0
212,124,107551,2,0,P|264:124|264:124|288:120|308:104,1,99.9999999999999,0|8,0:0|0:0,0:0:0
384,40,108496,2,0,P|440:44|472:72,1,99.9999999999999,0|8,0:0|0:0,0:0:0
476,172,109441,5,0,0:0:0
408,244,109913,1,8,0:0:0
312,216,110386,2,0,P|272:212|244:228|212:216,1,99.9999999999999,0|8,0:0|0:0,0:0:0
148,140,111331,2,0,P|116:100|64:88,1,99.9999999999999,0|8,0:0|0:0,0:0:0
8,168,112276,2,0,P|20:268,1,99.9999999999999,0|8,0:0|0:0,0:0:0
100,328,113221,5,4,0:0:0
196,300,113693,1,8,0:0:0
256,220,114165,2,0,P|248:176|204:136,2,99.9999999999999,0|8|0,0:0|0:0|0:0,0:0:0
296,312,115583,1,8,0:0:0
392,288,116055,2,0,P|412:240|412:192,1,99.9999999999999,0|8,0:0|0:0,0:0:0
352,112,117000,5,4,0:0:0
256,76,117473,1,8,0:0:0
168,128,117945,2,0,P|168:184|168:184|176:208|196:216,1,99.9999999999999,0|8,0:0|0:0,0:0:0
256,192,118890,12,4,120780,0:0:0
156,284,121724,6,0,P|180:244|188:192,1,99.9999999999999,0|8,0:0|0:0,0:0:0
116,124,122669,2,0,P|16:124,2,99.9999999999999,0|8|0,0:0|0:0|0:0,0:0:0
212,100,124087,1,8,0:0:0
276,176,124559,6,0,P|316:208|316:208|364:208,1,99.9999999999999,0|8,0:0|0:0,0:0:0
464,192,125504,1,0,0:0:0
464,92,125976,1,8,0:0:0
376,48,126449,2,0,P|328:32|328:32|276:36,1,99.9999999999999,0|8,0:0|0:0,0:0:0
192,88,127394,1,0,0:0:0
256,164,127866,1,8,0:0:0
316,244,128339,6,0,P|328:296|320:344,2,99.9999999999999,4|8|0,0:0|0:0|0:0,0:0:0
256,164,129756,1,8,0:0:0
164,124,130228,2,0,P|112:128|64:148,1,99.9999999999999,0|8,0:0|0:0,0:0:0
20,232,131173,2,0,P|28:284|28:284|44:308|72:312,1,99.9999999999999,0|8,0:0|0:0,0:0:0
164,284,132118,6,0,P|216:272|264:280,1,99.9999999999999,0|8,0:0|0:0,0:0:0
348,332,133063,1,0,0:0:0
428,272,133536,1,8,0:0:0
376,184,134008,2,0,P|372:128|384:84,1,99.9999999999999,4|12,0:0|0:0,0:0:0
472,40,134953,1,0,0:0:0
472,40,135189,2,0,P|492:88,1,50,8|8,0:0|0:0,0:0:0
480,184,135898,5,4,0:0:0
400,244,136370,2,0,P|300:244,1,99.9999999999999,8|0,0:0|0:0,0:0:0
208,208,137315,1,8,0:0:0
116,164,137787,2,0,P|120:120|148:72,2,99.9999999999999,0|8|0,0:0|0:0|0:0,0:0:0
124,264,139205,1,8,0:0:0
196,336,139677,6,0,P|244:348|296:340,1,99.9999999999999,0|8,0:0|0:0,0:0:0
316,244,140622,2,0,P|268:232|216:240,1,99.9999999999999,0|8,0:0|0:0,0:0:0
124,264,141567,1,0,0:0:0
40,208,142039,1,8,0:0:0
128,164,142512,1,0,0:0:0
44,108,142984,1,8,0:0:0
136,68,143457,6,0,P|172:60|204:76|236:68,1,99.9999999999999,4|8,0:0|0:0,0:0:0
332,44,144402,1,0,0:0:0
376,132,144874,1,8,0:0:0
320,216,145347,2,0,P|316:272|332:316,2,99.9999999999999,4|8|0,0:0|0:0|0:0,0:0:0
376,132,146764,1,8,0:0:0
436,52,147236,5,4,0:0:0
476,144,147709,1,8,0:0:0
420,228,148181,2,0,P|408:280|380:320,1,99.9999999999999,4|8,0:0|0:0,0:0:0
288,356,149126,5,4,0:0:0
228,276,149599,1,8,0:0:0
296,200,150071,2,0,P|328:160|336:112,1,99.9999999999999,0|8,0:0|0:0,0:0:0
256,52,151016,5,4,0:0:0
160,160,168024,5,4,0:0:0
256,192,168496,1,8,0:0:0
356,184,168969,2,0,P|376:136|372:88,2,99.9999999999999,0|8|0,0:0|0:0|0:0,0:0:0
256,192,170386,1,8,0:0:0
212,104,170858,2,0,P|164:92|112:100,1,99.9999999999999,0|8,0:0|0:0,0:0:0
52,176,171803,6,0,P|52:276,1,99.9999999999999,0|8,0:0|0:0,0:0:0
148,308,172748,2,0,P|148:208,1,99.9999999999999,0|8,0:0|0:0,0:0:0
176,112,173693,1,0,0:0:0
276,112,174165,1,8,0:0:0
352,176,174638,2,0,P|368:228|360:272,1,99.9999999999999,0|8,0:0|0:0,0:0:0
296,348,175583,6,0,P|196:348,2,99.9999999999999,4|8|0,0:0|0:0|0:0,0:0:0
360,272,177000,1,8,0:0:0
448,224,177473,2,0,P|456:168|448:124,1,99.9999999999999,0|8,0:0|0:0,0:0:0
356,168,178417,2,0,P|334:115|306:81,1,99.9999999999999,0|8,0:0|0:0,0:0:0
208,100,179362,5,0,0:0:0
120,52,179835,1,8,0:0:0
124,152,180307,2,0,P|136:208|124:256,1,99.9999999999999,0|8,0:0|0:0,0:0:0
44,304,181252,2,0,P|32:248|44:200,1,99.9999999999999,4|12,0:0|0:0,0:0:0
124,152,182197,1,0,0:0:0
124,152,182433,2,0,P|176:152,1,50,8|8,0:0|0:0,0:0:0
268,188,183142,5,4,0:0:0
328,108,183614,1,8,0:0:0
376,196,184087,1,0,0:0:0
432,112,184559,1,8,0:0:0
476,200,185032,6,0,P|472:252|456:300,1,99.9999999999999,0|8,0:0|0:0,0:0:0
376,356,185976,1,0,0:0:0
280,332,186449,1,8,0:0:0
240,240,186921,6,0,P|140:240,1,99.9999999999999,0|8,0:0|0:0,0:0:0
164,144,187866,2,0,P|64:144,1,99.9999999999999,0|8,0:0|0:0,0:0:0
0,220,188811,1,0,0:0:0
44,308,189284,1,8,0:0:0
144,308,189756,2,0,P|172:260|176:216,1,99.9999999999999,0|8,0:0|0:0,0:0:0
116,136,190701,6,0,P|140:92|184:68,1,99.9999999999999,4|8,0:0|0:0,0:0:0
284,56,191646,1,0,0:0:0
340,140,192118,1,8,0:0:0
296,232,192591,2,0,P|292:288|308:332,2,99.9999999999999,4|8|0,0:0|0:0|0:0,0:0:0
396,224,194008,1,8,0:0:0
440,132,194480,5,4,0:0:0
364,68,194953,1,8,0:0:0
280,124,195425,2,0,P|236:156|188:164,1,99.9999999999999,0|8,0:0|0:0,0:0:0
104,208,196370,6,0,P|104:312,2,99.9999999999999,4|8|0,0:0|0:0|0:0,0:0:0
108,108,197787,1,8,0:0:0
192,164,198260,6,0,P|244:176|292:168,2,99.9999999999999,4|8|0,0:0|0:0|0:0,0:0:0
208,64,199677,1,8,0:0:0
304,36,200150,2,0,P|356:40|404:60,1,99.9999999999999,0|8,0:0|0:0,0:0:0
468,132,201095,2,0,P|460:184|460:184|444:208|416:212,1,99.9999999999999,0|8,0:0|0:0,0:0:0
324,192,202039,6,0,P|312:244|320:292,1,99.9999999999999,0|8,0:0|0:0,0:0:0
400,348,202984,1,0,0:0:0
484,296,203457,1,8,0:0:0
436,208,203929,2,0,P|432:152|444:108,2,99.9999999999999,0|8|0,0:0|0:0|0:0,0:0:0
484,296,205347,1,8,0:0:0
400,348,205819,6,0,P|344:352|296:340,1,99.9999999999999,4|8,0:0|0:0,0:0:0
300,244,206764,2,0,P|249:219|213:185,1,99.9999999999999,0|8,0:0|0:0,0:0:0
144,120,207709,2,0,P|44:120,2,99.9999999999999,4|8|0,0:0|0:0|0:0,0:0:0
216,52,209126,1,8,0:0:0
316,52,209599,6,0,P|368:52|368:52|396:64|404:88,1,99.9999999999999,4|8,0:0|0:0,0:0:0
400,184,210543,1,4,0:0:0
448,272,211016,1,8,0:0:0
496,184,211488,2,0,P|496:84,1,99.9999999999999,4|8,0:0|0:0,0:0:0
400,52,212433,1,0,0:0:0
400,52,212669,2,0,P|352:76,1,50,8|8,0:0|0:0,0:0:0
292,152,213378,5,4,0:0:0
224,224,213850,2,0,P|196:236|148:228|124:244,2,99.9999999999999,8|0|8,0:0|0:0|0:0,0:0:0
292,152,215268,2,0,P|344:144|392:152,1,99.9999999999999,0|8,0:0|0:0,0:0:0
440,240,216213,2,0,P|388:248|340:240,1,99.9999999999999,0|8,0:0|0:0,0:0:0
292,152,217158,5,0,0:0:0
200,108,217630,1,8,0:0:0
104,132,218102,2,0,P|68:172|52:216,1,99.9999999999999,0|8,0:0|0:0,0:0:0
72,312,219047,1,0,0:0:0
148,248,219520,1,8,0:0:0
240,288,219992,2,0,P|284:264|308:220,1,99.9999999999999,0|8,0:0|0:0,0:0:0
348,128,220937,6,0,P|400:112|444:124,1,99.9999999999999,4|8,0:0|0:0,0:0:0
492,212,221882,1,0,0:0:0
444,300,222354,1,8,0:0:0
352,340,222827,2,0,P|252:340,1,99.9999999999999,4|8,0:0|0:0,0:0:0
208,252,223772,2,0,P|308:252,2,99.9999999999999,0|8|4,0:0|0:0|0:0,0:0:0
116,212,225189,5,8,0:0:0
28,164,225662,2,0,P|16:116|28:68,1,99.9999999999999,4|8,0:0|0:0,0:0:0
124,40,226606,5,4,0:0:0
196,112,227079,1,8,0:0:0
256,192,227551,2,0,P|264:232|248:272|256:296,1,99.9999999999999,0|8,0:0|0:0,0:0:0
256,192,228496,12,0,232748,0:0:0
