osu file format v11

[General]
AudioFilename: p.mp3
AudioLeadIn: 0
PreviewTime: 56528
Countdown: 0
SampleSet: Normal
StackLeniency: 0.7
Mode: 0
LetterboxInBreaks: 0

[Editor]
Bookmarks: 151010
DistanceSpacing: 1.2
BeatDivisor: 4
GridSize: 4

[Metadata]
Title:Happy Synthesizer
TitleUnicode:ハッピーシンセサイザ
Artist:EasyPop
ArtistUnicode:EasyPop
Creator:alacat
Version:Collab
Source:
Tags:vocaloid vocaloid2 megurine luka megpoid gumi Colin Hou BETTI
BeatmapID:190503
BeatmapSetID:64859

[Difficulty]
HPDrainRate:7
CircleSize:4
OverallDifficulty:7
ApproachRate:8
SliderMultiplier:1.8
SliderTickRate:1

[Events]
//Background and Video events
0,0,"happy.jpg"
//Break Periods
2,11373,25541
2,86964,89793
//Storyboard Layer 0 (Background)
//Storyboard Layer 1 (Fail)
//Storyboard Layer 2 (Pass)
//Storyboard Layer 3 (Foreground)
Sprite,Foreground,Centre,"alacat.png",589,436 S,0,11173,,0.5 F,0,11173,150898,0.7 V,0,150780,150898,1,1,0.01,1
Sprite,Foreground,Centre,"colinhou.png",589,436 V,0,150898,151016,0.01,1,1,1 F,0,150898,232748,0.7 S,0,150898,232748,0.5 F,0,232748,233221,0.7,0
//Storyboard Sound Samples
//Background Colour Transformations
3,100,0,0,0

[TimingPoints]
1725,472.44094488189,4,2,1,40,1,0
10228,-100,4,1,1,40,0,0
10465,-100,4,1,1,50,0,0
10701,-100,4,1,1,55,0,0
11173,-100,4,2,1,60,0,0
26291,-100,4,1,1,50,0,0
41410,-100,4,1,1,60,0,0
54638,-100,4,1,2,30,0,0
56528,-100,4,1,1,80,0,1
56646,-100,4,1,1,80,0,0
86764,-100,4,2,1,50,0,0
90543,-100,4,1,1,50,0,0
105662,-100,4,1,1,60,0,0
118890,-100,4,1,2,30,0,0
120780,-100,4,1,1,80,0,1
120898,-100,4,1,1,80,0,0
151016,-83.3333333333333,4,1,1,80,0,0
163299,-76.9230769230769,4,1,1,80,0,0
163772,-66.6666666666667,4,1,1,80,0,0
164717,-100,4,1,1,80,0,0
165347,-100,4,2,1,80,0,0
165662,-100,4,2,1,70,0,0
165976,-100,4,2,1,60,0,0
166134,-133.333333333333,4,1,1,80,0,0
166606,-100,4,1,1,80,0,0
167079,-86.9565217391304,4,1,1,80,0,0
167433,-133.333333333333,4,1,1,80,0,0
168024,-66.6666666666667,4,1,1,80,0,1
196370,-66.6666666666667,4,1,1,80,0,0
198142,-100,4,2,1,5,0,0
198260,-66.6666666666667,4,1,1,80,0,1
226606,-133.333333333333,4,1,1,80,0,0
228496,-100,4,1,1,80,0,0
228614,-100,4,1,1,40,0,0
229205,-100,4,1,1,35,0,0
229913,-100,4,1,1,30,0,0
230622,-100,4,1,1,25,0,0
231331,-100,4,1,1,20,0,0
232276,-100,4,1,1,10,0,0
232748,-100,4,2,1,5,0,0

[Colours]
Combo1 : 255,162,68
Combo2 : 0,255,255
Combo3 : 255,102,179
Combo4 : 66,255,160

[HitObjects]
480,154,3142,2,0,P|468:201,1,45
438,235,3378,2,0,P|446:279,2,45,0|0|2,0:0|0:0|0:0,0:0:0
384,152,3850,1,0,0:0:0
294,109,4087,1,0,0:0:0
196,128,4323,1,0,0:0:0
104,160,4559,2,0,P|65:137,2,45,2|0|0,0:0|0:0|0:0,0:0:0
136,200,4913,2,0,P|148:245|145:288,1,90
120,328,5268,1,0,0:0:0
232,220,5504,5,2,0:0:0
304,152,5740,1,0,0:0:0
268,60,5976,1,0,0:0:0
196,128,6213,1,0,0:0:0
324,248,6449,1,2,0:0:0
324,248,6685,2,0,P|344:288,1,45
136,184,7158,6,0,P|116:140|120:100,1,90,0|2,0:0|0:0,0:0:0
224,40,7630,1,0,0:0:0
268,60,7748,2,0,P|312:68|356:60,1,90
456,72,8221,2,0,P|484:108|496:152,2,90,2|0|0,0:0|0:0|0:0,0:0:0
256,192,9047,1,0,0:0:0
196,270,9284,2,0,P|162:237|150:194,1,90,2|0,0:0|0:0,0:0:0
315,113,9756,2,0,P|349:146|361:189,1,90,2|0,0:0|0:0,0:0:0
328,296,10228,5,0,0:0:0
324,308,10347,1,0,0:0:0
320,320,10465,1,0,0:0:0
316,332,10583,1,0,0:0:0
312,344,10701,2,0,P|296:388,2,45
315,113,11173,5,4,0:0:0
322,316,26291,5,4,0:0:0
418,341,26528,1,0,0:0:0
442,245,26764,1,8,0:0:0
348,220,27000,1,0,0:0:0
260,180,27236,2,0,P|218:195,1,45
185,290,27591,2,0,P|163:330,1,45,0|8,0:0|0:0,0:0:0
68,248,27945,5,0,0:0:0
68,248,28063,1,0,0:0:0
68,248,28181,2,0,P|52:204|56:160,1,90
120,88,28654,1,8,0:0:0
216,112,28890,1,0,0:0:0
312,96,29126,2,0,P|320:140,1,45
288,284,29480,1,0,0:0:0
288,284,29599,2,0,P|252:252|240:212,1,90,8|0,0:0|0:0,0:0:0
368,220,30071,5,0,0:0:0
460,252,30307,1,0,0:0:0
436,156,30543,1,8,0:0:0
368,84,30780,1,0,0:0:0
356,72,30898,1,0,0:0:0
344,60,31016,1,0,0:0:0
332,48,31134,1,0,0:0:0
216,112,31370,1,0,0:0:0
216,112,31488,2,0,P|196:156|200:200,1,90,8|0,0:0|0:0,0:0:0
212,228,31843,1,0,0:0:0
228,260,31961,6,0,P|236:308|220:348,1,90
132,296,32433,1,8,0:0:0
304,180,32669,1,0,0:0:0
304,180,32787,1,0,0:0:0
304,180,32906,2,0,P|324:136|320:92,1,90
448,128,33378,2,0,P|442:79|416:43,1,90,8|0,0:0|0:0,0:0:0
384,264,33850,6,0,P|380:312|399:352,1,90,4|0,0:0|0:0,0:0:0
492,372,34323,1,8,0:0:0
384,264,34559,1,0,0:0:0
284,276,34795,2,0,P|244:300,1,45,0|0,0:0|0:0,0:0:0
140,228,35150,2,0,P|100:252,1,45,0|8,0:0|0:0,0:0:0
232,196,35504,5,0,0:0:0
232,196,35622,1,0,0:0:0
232,196,35740,2,0,P|244:148|236:108,1,90
104,52,36213,2,0,P|92:100|100:140,1,90,8|0,0:0|0:0,0:0:0
140,228,36685,1,0,0:0:0
140,228,36803,1,0,0:0:0
292,268,37039,1,0,0:0:0
292,268,37158,2,0,P|340:284|380:284,1,90,8|0,0:0|0:0,0:0:0
464,332,37630,5,0,0:0:0
464,232,37866,1,0,0:0:0
379,284,38102,1,8,0:0:0
276,356,38339,2,0,P|228:356,3,45
120,292,38929,2,0,P|100:252,1,45,0|8,0:0|0:0,0:0:0
44,160,39284,6,0,P|48:112|72:80,1,90
176,44,39756,1,0,0:0:0
176,44,39874,1,0,0:0:0
176,44,39992,2,0,P|268:36|312:28,1,135,8|4,0:0|0:0,0:0:0
256,320,40701,1,8,0:0:0
256,320,40937,1,8,0:0:0
452,40,41410,6,0,P|488:72,1,45,4|0,0:0|0:0,0:0:0
440,124,41646,2,0,P|464:168,1,45
412,216,41882,2,0,P|416:268|404:304,1,90,8|0,0:0|0:0,0:0:0
376,324,42236,2,0,P|328:336|292:360,1,90
188,336,42709,1,0,0:0:0
188,336,42827,1,8,0:0:0
180,228,43063,6,0,P|145:196,1,45
111,164,43299,2,0,P|147:132|165:94,1,90
96,24,43772,1,8,0:0:0
16,192,44008,1,0,0:0:0
16,192,44126,1,0,0:0:0
16,192,44244,2,0,P|20:244|32:280,1,90,0|0,0:0|0:0,0:0:0
152,296,44717,2,0,P|188:333|220:353,1,90,8|0,0:0|0:0,0:0:0
337,249,45189,5,0,0:0:0
344,224,45307,1,0,0:0:0
361,201,45425,1,0,0:0:0
386,187,45543,1,0,0:0:0
413,180,45662,2,0,P|453:151|469:115,1,90,8|0,0:0|0:0,0:0:0
460,80,46016,2,0,P|427:48|380:31,1,90
284,72,46488,2,0,P|256:112,1,45,0|8,0:0|0:0,0:0:0
188,188,46843,5,0,0:0:0
188,188,46961,1,0,0:0:0
188,188,47079,2,0,P|140:208|100:208,1,90
32,140,47551,1,8,0:0:0
92,60,47787,1,0,0:0:0
92,60,47906,1,0,0:0:0
92,60,48024,2,0,P|128:40|176:36,1,90
272,168,48496,2,0,P|236:188|188:188,1,90,8|0,0:0|0:0,0:0:0
32,228,48969,6,0,P|16:272,1,45,4|0,0:0|0:0,0:0:0
84,292,49205,2,0,P|88:336,1,45
160,328,49441,2,0,P|200:348|248:348,1,90,8|0,0:0|0:0,0:0:0
280,340,49795,2,0,P|328:332|368:340,1,90
472,304,50268,2,0,P|480:256,1,45,0|8,0:0|0:0,0:0:0
416,172,50622,5,0,0:0:0
416,172,50740,1,0,0:0:0
416,172,50858,2,0,P|392:128|396:88,1,90
480,40,51331,1,8,0:0:0
416,172,51567,1,0,0:0:0
328,220,51803,2,0,P|280:204,3,45
240,224,52276,2,0,P|192:208,3,45,8|0|0|0,0:0|0:0|0:0|0:0,0:0:0
148,216,52748,6,0,P|128:256|128:304,2,90,4|0|8,0:0|0:0|0:0,0:0:0
208,136,53457,1,0,0:0:0
208,136,53575,2,0,P|256:144|288:168,1,90
348,276,54047,2,0,P|328:316,1,45,0|8,0:0|0:0,0:0:0
212,356,54402,5,0,0:0:0
212,356,54520,1,0,0:0:0
212,356,54638,2,0,P|168:360|124:352,1,90,12|8,0:0|0:0,0:0:0
48,288,55110,2,0,P|44:240,1,45,12|8,0:0|0:0,0:0:0
144,124,55465,2,0,P|148:172,1,45,12|8,0:0|0:0,0:0:0
152,204,55701,2,0,P|184:240|224:260,1,90,8|8,0:0|0:0,0:0:0
316,288,56173,2,0,P|336:332,2,45,8|8|8,0:0|0:0|0:0,0:0:0
292,244,56528,5,4,0:0:0
316,140,56764,1,0,0:0:0
492,80,57000,1,8,0:0:0
388,60,57236,1,0,0:0:0
428,192,57473,2,0,P|448:280,1,90
452,308,57827,2,0,P|428:352|391:373,1,90,0|0,0:0|0:0,0:0:0
368,372,58181,1,0,0:0:0
284,300,58417,6,0,P|240:292|196:296,2,90,0|0|8,0:0|0:0|0:0,0:0:0
96,340,59126,1,0,0:0:0
20,264,59362,2,0,P|0:220|4:172,1,90
16,112,59717,2,0,P|52:84,1,45,0|8,0:0|0:0,0:0:0
144,152,60071,1,0,0:0:0
240,204,60307,6,0,P|288:208|328:196,1,90
356,172,60662,1,0,0:0:0
368,136,60780,1,8,0:0:0
280,72,61016,1,0,0:0:0
148,252,61252,2,0,P|136:296|144:340,2,90,0|0|8,0:0|0:0|0:0,0:0:0
288,144,61961,5,0,0:0:0
480,163,62197,1,0,0:0:0
312,260,62433,1,0,0:0:0
390,83,62669,1,8,0:0:0
431,273,62906,1,0,0:0:0
256,348,63142,2,0,P|208:348,3,45,0|8|0|0,0:0|0:0|0:0|0:0,0:0:0
172,312,63614,2,0,P|124:312,3,45,8|0|0|0,0:0|0:0|0:0|0:0,0:0:0
76,328,64087,5,4,0:0:0
36,228,64323,1,0,0:0:0
212,176,64559,1,8,0:0:0
108,148,64795,1,0,0:0:0
288,104,65032,1,0,0:0:0
288,104,65150,2,0,P|336:108|372:132,1,90
388,164,65504,2,0,P|384:212|368:252,1,90,8|0,0:0|0:0,0:0:0
184,252,65976,6,0,P|136:252|92:256,1,90
388,324,66449,2,0,P|436:324|480:320,1,90,8|0,0:0|0:0,0:0:0
388,324,66921,1,0,0:0:0
296,384,67158,1,0,0:0:0
296,384,67276,1,0,0:0:0
296,384,67394,1,8,0:0:0
196,348,67630,5,0,0:0:0
376,228,67866,1,0,0:0:0
436,128,68102,1,0,0:0:0
376,32,68339,2,0,P|330:46|301:75,1,90,8|0,0:0|0:0,0:0:0
216,232,68811,2,0,P|262:218|291:189,1,90
192,120,69284,1,8,0:0:0
96,232,69520,5,0,0:0:0
72,120,69756,1,4,0:0:0
216,232,69992,1,0,0:0:0
328,156,70228,1,12,0:0:0
440,232,70465,2,0,P|448:280|436:318,1,90
448,96,70937,1,8,0:0:0
448,96,71173,1,8,0:0:0
120,280,71646,5,4,0:0:0
120,280,71882,2,0,P|68:284|28:280,2,90,0|8|0,0:0|0:0|0:0,0:0:0
148,176,72591,2,0,P|148:128|176:92,1,90
204,76,72945,1,0,0:0:0
240,68,73063,2,0,P|284:64,2,45,8|0|0,0:0|0:0|0:0,0:0:0
348,164,73536,5,0,0:0:0
424,240,73772,2,0,P|472:232|512:236,2,90,0|8|0,0:0|0:0|0:0,0:0:0
296,324,74480,1,0,0:0:0
220,248,74717,2,0,P|178:232,1,45
144,216,74953,2,0,P|126:167|96:140,1,90,8|0,0:0|0:0,0:0:0
24,244,75425,5,0,0:0:0
72,340,75662,1,0,0:0:0
264,288,75898,1,8,0:0:0
180,356,76134,1,0,0:0:0
144,216,76370,2,0,P|120:176|116:132,1,90
144,68,76724,2,0,P|188:56,1,45,0|8,0:0|0:0,0:0:0
352,96,77079,5,0,0:0:0
437,268,77315,1,0,0:0:0
265,177,77551,1,0,0:0:0
457,150,77787,1,8,0:0:0
318,285,78024,1,0,0:0:0
232,348,78260,1,0,0:0:0
232,348,78378,1,8,0:0:0
232,348,78496,2,0,P|180:348|144:328,1,90,0|8,0:0|0:0,0:0:0
128,312,78850,1,0,0:0:0
112,288,78969,1,0,0:0:0
108,260,79087,1,0,0:0:0
116,232,79205,6,0,P|124:184|116:144,1,90,4|0,0:0|0:0,0:0:0
20,196,79677,2,0,P|12:244|20:284,1,90,8|0,0:0|0:0,0:0:0
232,348,80150,1,0,0:0:0
296,260,80386,1,0,0:0:0
296,260,80504,1,0,0:0:0
296,260,80622,2,0,P|344:256|384:264,1,90,8|0,0:0|0:0,0:0:0
464,340,81095,5,0,0:0:0
360,368,81331,1,0,0:0:0
488,240,81567,1,8,0:0:0
428,140,81803,1,0,0:0:0
312,160,82039,2,0,P|260:164|220:148,1,90
172,104,82394,2,0,P|128:124,1,45,0|8,0:0|0:0,0:0:0
68,232,82748,1,0,0:0:0
120,324,82984,5,0,0:0:0
228,332,83221,2,0,P|244:292|244:244,1,90,0|8,0:0|0:0,0:0:0
184,156,83693,1,0,0:0:0
228,56,83929,2,0,P|276:44|316:48,1,90
376,88,84284,2,0,P|392:132,1,45,0|8,0:0|0:0,0:0:0
352,232,84638,5,0,0:0:0
288,354,84874,1,4,0:0:0
151,331,85110,1,0,0:0:0
131,192,85347,1,8,0:0:0
256,130,85583,1,0,0:0:0
256,130,85701,1,0,0:0:0
256,130,85819,2,0,P|300:114,2,45
84,268,86291,2,0,P|40:284,2,45
355,312,86764,5,4,0:0:0
448,240,90543,6,0,P|460:288|484:320,2,90,4|0|8,0:0|0:0|0:0,0:0:0
468,144,91252,1,0,0:0:0
396,76,91488,2,0,P|348:96,1,45
256,84,91843,2,0,P|212:72,1,45,0|8,0:0|0:0,0:0:0
68,160,92197,5,0,0:0:0
68,160,92315,1,0,0:0:0
68,160,92433,1,0,0:0:0
156,140,92669,2,0,P|180:180|184:224,1,90,0|8,0:0|0:0,0:0:0
164,268,93024,2,0,P|168:320|188:352,1,90
304,344,93496,2,0,P|360:352,2,45
264,312,93850,2,0,P|248:264|256:224,1,90,8|0,0:0|0:0,0:0:0
296,136,94323,5,0,0:0:0
380,188,94559,1,0,0:0:0
456,124,94795,1,8,0:0:0
416,32,95032,1,0,0:0:0
316,36,95268,1,0,0:0:0
272,60,95386,2,0,P|224:72|180:68,1,90
136,52,95740,1,8,0:0:0
40,136,95976,5,0,0:0:0
40,136,96095,1,0,0:0:0
40,136,96213,2,0,P|33:173|49:221,1,90
81,317,96685,2,0,P|69:361,2,45,8|0|0,0:0|0:0|0:0,0:0:0
145,241,97158,1,0,0:0:0
280,96,97394,1,0,0:0:0
169,145,97630,1,8,0:0:0
348,192,97866,1,0,0:0:0
388,48,98102,6,0,P|424:80|460:100,1,90,4|0,0:0|0:0,0:0:0
464,104,98575,2,0,P|479:194,1,90,8|0,0:0|0:0,0:0:0
416,268,99047,2,0,P|372:280,1,45
240,248,99402,2,0,P|284:236,1,45,0|8,0:0|0:0,0:0:0
144,212,99756,5,0,0:0:0
144,212,99874,1,0,0:0:0
144,212,99992,2,0,P|124:168|120:124,1,90
132,56,100347,2,0,P|175:37,1,45,0|8,0:0|0:0,0:0:0
216,56,100583,2,0,P|259:37,2,45
372,124,101055,2,0,P|412:100,2,45
340,156,101410,2,0,P|328:200|340:244,1,90,8|0,0:0|0:0,0:0:0
396,328,101882,5,0,0:0:0
476,268,102118,1,0,0:0:0
396,328,102354,2,0,P|344:336|304:348,1,90,8|0,0:0|0:0,0:0:0
216,312,102827,1,0,0:0:0
216,312,102945,2,0,P|192:272|188:228,1,90
204,184,103299,1,8,0:0:0
301,201,103536,6,0,P|348:189,2,45,0|0|4,0:0|0:0|0:0,0:0:0
112,252,104008,1,0,0:0:0
112,252,104126,1,0,0:0:0
112,252,104244,2,0,P|84:192|80:124,1,135,12|0,0:0|0:0,0:0:0
256,348,104953,1,8,0:0:0
256,348,105189,1,8,0:0:0
408,328,105662,5,4,0:0:0
386,312,105780,1,0,0:0:0
371,288,105898,1,0,0:0:0
368,260,106016,1,0,0:0:0
372,232,106134,2,0,P|364:188|332:155,1,90,8|0,0:0|0:0,0:0:0
296,148,106488,2,0,P|248:156|211:188,1,90
176,280,106961,2,0,P|132:300,1,45,0|8,0:0|0:0,0:0:0
24,192,107315,5,0,0:0:0
24,192,107433,1,0,0:0:0
24,192,107551,2,0,P|72:188|108:168,1,90
140,48,108024,1,8,0:0:0
220,216,108260,1,0,0:0:0
220,216,108378,1,0,0:0:0
220,216,108496,2,0,P|233:266|252:299,1,90,0|0,0:0|0:0,0:0:0
373,292,108969,2,0,P|415:321|450:334,1,90,8|0,0:0|0:0,0:0:0
484,192,109441,6,0,P|483:145,1,45,4|0,0:0|0:0,0:0:0
412,144,109677,2,0,P|392:104,1,45
332,64,109913,2,0,P|287:59|242:76,1,90,8|0,0:0|0:0,0:0:0
216,96,110268,2,0,P|174:120|133:127,1,90
24,64,110740,2,0,P|33:111,1,45,0|8,0:0|0:0,0:0:0
64,232,111095,5,0,0:0:0
64,232,111213,1,0,0:0:0
64,232,111331,2,0,P|44:280|48:320,1,90
144,364,111803,1,8,0:0:0
224,208,112039,1,0,0:0:0
224,208,112158,1,0,0:0:0
224,208,112276,2,0,P|260:188|308:184,1,90
352,296,112748,2,0,P|316:316|268:320,1,90,8|0,0:0|0:0,0:0:0
140,252,113221,5,4,0:0:0
124,228,113339,1,0,0:0:0
104,208,113457,1,0,0:0:0
80,200,113575,1,0,0:0:0
52,204,113693,2,0,P|24:168|16:124,1,90,8|0,0:0|0:0,0:0:0
24,88,114047,2,0,P|68:72|108:52,1,90
224,100,114520,1,0,0:0:0
224,100,114638,1,8,0:0:0
324,176,114874,5,0,0:0:0
324,176,114992,1,0,0:0:0
324,176,115110,2,0,P|348:220|344:260,1,90
260,308,115583,1,8,0:0:0
324,176,115819,1,0,0:0:0
184,200,116055,2,0,P|139:175,3,45
126,132,116528,2,0,P|81:107,3,45,8|0|0|0,0:0|0:0|0:0|0:0,0:0:0
36,88,117000,6,0,P|11:129,1,45,4|0,0:0|0:0,0:0:0
56,184,117236,2,0,P|46:233,1,45
104,272,117473,2,0,P|116:322|138:353,1,90,8|0,0:0|0:0,0:0:0
172,364,117827,2,0,P|221:360|263:372,1,90
376,320,118299,2,0,P|360:276,1,45,0|8,0:0|0:0,0:0:0
244,196,118654,5,0,0:0:0
244,196,118772,1,0,0:0:0
244,196,118890,2,0,P|200:216|160:224,1,90,12|8,0:0|0:0,0:0:0
48,240,119362,2,0,P|28:284,1,45,12|8,0:0|0:0,0:0:0
48,148,119717,2,0,P|28:104,2,45,12|0|8,0:0|0:0|0:0,0:0:0
116,300,120189,1,8,0:0:0
240,336,120425,1,8,0:0:0
256,328,120543,1,0,0:0:0
272,320,120662,1,8,0:0:0
288,312,120780,6,0,P|332:304|372:284,1,90,4|0,0:0|0:0,0:0:0
492,112,121252,1,8,0:0:0
412,184,121488,1,0,0:0:0
304,88,121724,2,0,P|256:95,1,45
194,60,121961,2,0,P|163:97,1,45
105,135,122197,2,0,P|111:178|127:228,1,90,8|0,0:0|0:0,0:0:0
172,320,122669,5,0,0:0:0
232,232,122906,1,0,0:0:0
64,296,123142,1,8,0:0:0
232,232,123378,1,0,0:0:0
332,272,123614,2,0,P|377:256|410:220,1,90
432,160,123969,2,0,P|412:120,1,45,0|8,0:0|0:0,0:0:0
316,76,124323,1,0,0:0:0
200,164,124559,6,0,P|156:160|116:136,1,90
84,72,124913,2,0,P|40:60,1,45,0|8,0:0|0:0,0:0:0
240,96,125268,1,0,0:0:0
332,272,125504,2,0,P|344:316|336:360,2,90,0|0|8,0:0|0:0|0:0,0:0:0
224,284,126213,5,0,0:0:0
95,141,126449,1,0,0:0:0
285,182,126685,1,0,0:0:0
108,260,126921,1,8,0:0:0
205,92,127158,1,0,0:0:0
368,136,127394,2,0,P|382:181,3,45,0|0|0|0,0:0|0:0|0:0|0:0,0:0:0
428,204,127866,2,0,P|442:249,3,45,8|0|0|0,0:0|0:0|0:0|0:0,0:0:0
480,284,128339,5,4,0:0:0
392,348,128575,1,0,0:0:0
320,180,128811,1,8,0:0:0
299,288,129047,1,0,0:0:0
217,359,129284,1,0,0:0:0
217,359,129402,2,0,P|169:355|133:331,1,90
112,304,129756,2,0,P|102:256|86:217,1,90,8|0,0:0|0:0,0:0:0
48,98,130228,5,0,0:0:0
19,239,130465,1,0,0:0:0
155,192,130701,1,8,0:0:0
237,261,130937,1,0,0:0:0
237,261,131055,1,0,0:0:0
237,261,131173,2,0,P|251:308|248:350,2,90,0|0|8,0:0|0:0|0:0,0:0:0
155,192,131882,1,0,0:0:0
172,85,132118,6,0,P|210:62|257:57,1,90
291,63,132473,1,0,0:0:0
318,86,132591,1,8,0:0:0
303,192,132827,1,0,0:0:0
137,288,133063,2,0,P|133:335|147:374,2,90,0|0|8,0:0|0:0|0:0,0:0:0
204,188,133772,5,0,0:0:0
108,57,134008,1,4,0:0:0
204,188,134244,1,0,0:0:0
356,132,134480,1,12,0:0:0
465,302,134717,2,0,P|489:260|492:220,1,90
336,268,135189,1,8,0:0:0
336,268,135425,1,8,0:0:0
108,56,135898,5,4,0:0:0
212,116,136134,2,0,P|256:124|300:116,2,90,0|8|0,0:0|0:0|0:0,0:0:0
404,56,136843,1,0,0:0:0
464,160,137079,2,0,P|448:202,1,45
432,236,137315,2,0,P|383:254|356:284,1,90,8|0,0:0|0:0,0:0:0
256,340,137787,5,0,0:0:0
156,276,138024,2,0,P|104:272|64:276,2,90,0|8|0,0:0|0:0|0:0,0:0:0
256,200,138732,2,0,P|256:152|228:116,1,90
200,96,139087,1,0,0:0:0
164,84,139205,2,0,P|120:80,2,45,8|0|0,0:0|0:0|0:0,0:0:0
364,196,139677,6,0,P|412:204|452:196,1,90,0|0,0:0|0:0,0:0:0
400,100,140150,2,0,P|352:92|312:100,1,90,8|0,0:0|0:0,0:0:0
144,200,140622,1,0,0:0:0
52,256,140858,1,0,0:0:0
52,256,140976,1,0,0:0:0
52,256,141095,2,0,P|48:304|56:344,1,90,8|0,0:0|0:0,0:0:0
164,300,141567,5,0,0:0:0
52,256,141803,1,0,0:0:0
124,100,142039,1,8,0:0:0
32,156,142276,1,0,0:0:0
240,240,142512,2,0,P|285:226,3,45,0|0|0|0,0:0|0:0|0:0|0:0,0:0:0
308,180,142984,2,0,P|353:166,3,45,8|0|0|0,0:0|0:0|0:0|0:0,0:0:0
408,180,143457,5,4,0:0:0
384,284,143693,1,0,0:0:0
208,344,143929,1,8,0:0:0
312,364,144165,1,0,0:0:0
308,180,144402,1,0,0:0:0
200,144,144638,2,0,P|160:124,1,45
124,108,144874,2,0,P|75:126|48:156,1,90,8|0,0:0|0:0,0:0:0
72,280,145347,5,4,0:0:0
176,312,145583,1,0,0:0:0
296,160,145819,1,8,0:0:0
272,264,146055,1,0,0:0:0
180,212,146291,2,0,P|176:160|192:120,1,90
228,64,146646,2,0,P|272:72,1,45,0|8,0:0|0:0,0:0:0
380,68,147000,1,0,0:0:0
472,148,147236,5,4,0:0:0
452,268,147473,2,0,P|420:297|375:314,1,90,0|8,0:0|0:0,0:0:0
271,289,147945,1,0,0:0:0
92,256,148181,1,4,0:0:0
192,216,148417,1,0,0:0:0
192,216,148536,1,0,0:0:0
192,216,148654,1,8,0:0:0
368,215,148890,5,0,0:0:0
292,68,149126,1,4,0:0:0
130,97,149362,1,0,0:0:0
106,262,149599,1,8,0:0:0
256,336,149835,1,0,0:0:0
256,336,149953,1,0,0:0:0
256,336,150071,2,0,P|300:352,2,45
64,160,150543,2,0,P|20:144,2,45
256,336,151016,5,4,0:0:0
278,299,151134,1,0,0:0:0
278,255,151252,1,0,0:0:0
264,213,151370,2,0,P|244:189|220:178,1,53.9999983520508,0|8,0:0|0:0,0:0:0
280,126,151606,6,0,P|331:139|393:129,2,107.999996704102
249,102,152197,1,0,0:0:0
232,68,152315,1,0,0:0:0
222,31,152433,2,0,P|205:84|206:145,1,107.999996704102,8|0,0:0|0:0,0:0:0
86,313,152906,5,0,0:0:0
125,294,153024,1,0,0:0:0
160,318,153142,1,0,0:0:0
200,303,153260,2,0,P|309:313,1,107.999996704102,0|0,0:0|0:0,0:0:0
208,164,153732,1,0,0:0:0
208,164,153850,2,0,P|159:182|102:192,1,107.999996704102
272,237,154323,2,0,P|283:212|285:178,1,53.9999983520508,8|0,0:0|0:0,0:0:0
224,57,154559,1,0,0:0:0
465,102,154795,5,0,0:0:0
428,122,154913,1,0,0:0:0
386,132,155032,1,0,0:0:0
344,127,155150,2,0,P|338:101|328:66,1,53.9999983520508,0|8,0:0|0:0,0:0:0
356,172,155386,2,0,P|364:217|373:288,1,107.999996704102
231,342,155858,1,0,0:0:0
242,305,155976,1,0,0:0:0
256,269,156095,1,0,0:0:0
268,235,156213,2,0,P|219:264|171:291,1,107.999996704102,8|0,0:0|0:0,0:0:0
61,188,156685,5,0,0:0:0
88,200,156803,2,0,P|88:228|80:256,1,53.9999983520508
32,174,157039,2,0,P|89:160|147:145,1,107.999996704102
318,99,157512,2,0,P|265:92|212:80,1,107.999996704102
211,79,157866,1,8,0:0:0
435,121,158102,1,8,0:0:0
211,79,158339,1,0,0:0:0
276,283,158575,5,4,0:0:0
299,312,158693,1,0,0:0:0
325,339,158811,1,0,0:0:0
359,323,158929,2,0,P|376:267|383:211,1,107.999996704102
282,83,159402,1,0,0:0:0
318,75,159520,2,0,P|299:127|285:196,1,107.999996704102
384,156,159992,1,8,0:0:0
200,196,160228,2,0,P|87:179,1,107.999996704102
75,152,160583,5,0,0:0:0
64,121,160701,1,0,0:0:0
54,90,160819,2,0,P|116:76|171:68,1,107.999996704102
335,114,161291,5,0,0:0:0
367,112,161410,1,0,0:0:0
307,298,161646,1,0,0:0:0
400,108,161882,1,8,0:0:0
195,130,162118,2,0,P|249:147|311:160,1,107.999996704102,0|4,0:0|0:0,0:0:0
310,182,162473,5,0,0:0:0
320,206,162591,1,0,0:0:0
327,231,162709,2,0,P|380:225|441:213,1,107.999996704102
247,348,163181,1,0,0:0:0
247,348,163299,2,0,P|225:287|207:226,1,116.999994644165,4|0,0:0|0:0,0:0:0
174,52,163772,2,0,P|152:118|125:184,1,135.000005149842,8|0,0:0|0:0,0:0:0
57,307,164244,5,0,0:0:0
326,292,164717,2,0,P|303:254|284:207,1,90,0|0,0:0|0:0,0:0:0
325,131,165032,2,0,P|332:100,2,30
344,154,165347,6,0,P|288:174|228:178,2,120,2|2|2,0:0|0:0|0:0,0:0:0
437,96,166134,6,0,P|450:165,1,67.5000025749208
359,154,166606,2,0,P|379:248,1,90,0|0,0:0|0:0,0:0:0
281,214,167079,2,0,P|303:319,1,103.500001974106,0|0,0:0|0:0,0:0:0
282,344,167433,6,0,P|260:242,1,101.250003862381
342,89,168024,5,4,0:0:0
260,245,168260,1,0,0:0:0
85,237,168496,2,0,P|125:188|195:183,1,135.000005149842,8|0,0:0|0:0,0:0:0
312,227,168969,2,0,P|273:175|285:109,1,135.000005149842
327,36,169323,2,0,P|365:87|353:153,1,135.000005149842
285,109,169677,1,0,0:0:0
206,266,169913,5,0,0:0:0
42,188,170150,1,0,0:0:0
137,34,170386,2,0,P|136:79|170:104|170:104|193:108|227:97,1,135.000005149842,8|0,0:0|0:0,0:0:0
59,31,170858,2,0,P|71:106|110:155,1,135.000005149842
176,180,171213,2,0,P|216:180|247:170,1,67.5000025749208,0|8,0:0|0:0,0:0:0
297,118,171449,2,0,P|323:110|363:110,1,67.5000025749208
425,314,171803,6,0,P|364:334|278:324,1,135.000005149842
230,280,172158,1,0,0:0:0
398,87,172394,1,0,0:0:0
398,87,172630,2,0,P|328:82|267:102,1,135.000005149842
479,262,173102,2,0,P|483:192|463:131,1,135.000005149842
463,131,173457,1,0,0:0:0
294,329,173693,5,0,0:0:0
275,113,173929,1,0,0:0:0
237,271,174165,1,8,0:0:0
217,54,174402,1,0,0:0:0
255,192,174638,2,0,P|192:209|119:205,1,135.000005149842
89,182,174992,1,0,0:0:0
316,250,175228,1,0,0:0:0
352,232,175347,1,0,0:0:0
223,149,175583,5,4,0:0:0
99,319,175819,1,0,0:0:0
231,359,176055,2,0,P|276:339|311:333|311:333|344:340|368:351,1,135.000005149842,8|0,0:0|0:0,0:0:0
181,293,176528,1,0,0:0:0
181,293,176646,2,0,P|136:313|101:319|101:319|68:312|44:301,1,135.000005149842
28,272,177000,1,8,0:0:0
49,111,177236,1,0,0:0:0
205,131,177473,6,0,P|266:144|333:109,1,135.000005149842
186,40,177945,2,0,P|133:73|111:146,1,135.000005149842,8|0,0:0|0:0,0:0:0
325,232,178417,2,0,P|329:261|330:300,1,67.5000025749208
187,318,178654,2,0,P|186:287|184:250,1,67.5000025749208
252,207,178890,6,0,P|258:272|261:341,2,135.000005149842,8|0|0,0:0|0:0|0:0,0:0:0
223,47,179599,1,0,0:0:0
223,47,179717,1,0,0:0:0
380,84,179953,1,0,0:0:0
380,84,180189,2,0,P|326:123|258:117,1,135.000005149842
56,156,180662,2,0,P|110:117|175:121,1,135.000005149842
175,121,181016,1,0,0:0:0
304,41,181252,5,4,0:0:0
132,199,181488,1,0,0:0:0
151,26,181724,1,12,0:0:0
298,209,181961,1,0,0:0:0
220,125,182197,1,0,0:0:0
220,125,182315,2,0,P|212:193|205:270,2,135.000005149842
220,125,182906,1,0,0:0:0
431,27,183142,6,0,P|453:77|484:161,1,135.000005149842,4|0,0:0|0:0,0:0:0
324,192,183614,1,8,0:0:0
375,116,183850,1,0,0:0:0
272,274,184087,2,0,P|206:266|130:268,1,135.000005149842
253,306,184441,2,0,P|213:255|181:192,1,135.000005149842
192,158,184795,1,0,0:0:0
54,88,185032,6,0,P|121:80|188:75,1,135.000005149842
352,119,185504,1,8,0:0:0
260,136,185740,1,0,0:0:0
435,74,185976,2,0,P|443:132|480:199,1,135.000005149842
415,105,186331,2,0,P|404:177|405:241,1,135.000005149842
412,285,186685,1,0,0:0:0
267,186,186921,6,0,P|188:200|123:217,1,135.000005149842
299,261,187394,1,8,0:0:0
103,139,187630,1,0,0:0:0
143,308,187866,2,0,P|162:231|181:174,1,135.000005149842
198,253,188221,2,0,P|221:192|254:128,1,135.000005149842
320,97,188575,1,0,0:0:0
486,199,188811,5,0,0:0:0
359,357,189047,1,0,0:0:0
320,97,189284,1,8,0:0:0
198,253,189520,2,0,P|270:252|294:256|294:256|319:243|336:224,2,135.000005149842
119,272,190110,2,0,P|125:215|191:173,1,135.000005149842
263,198,190465,1,0,0:0:0
296,220,190583,1,0,0:0:0
329,242,190701,6,0,P|390:241|478:226,1,135.000005149842,4|0,0:0|0:0,0:0:0
355,150,191173,1,8,0:0:0
309,335,191410,1,0,0:0:0
165,210,191646,2,0,P|204:251|285:244,1,135.000005149842
241,175,192000,2,0,P|202:134|127:136,1,135.000005149842
98,214,192354,2,0,P|137:212|176:210,1,67.5000025749208
296,134,192591,6,0,P|354:150|444:161,1,135.000005149842,4|0,0:0|0:0,0:0:0
218,42,193063,2,0,P|213:104|214:192,1,135.000005149842,8|0,0:0|0:0,0:0:0
198,347,193536,2,0,B|152:300|72:283,1,135.000005149842
41,296,193890,1,0,0:0:0
113,182,194126,1,0,0:0:0
124,143,194244,1,0,0:0:0
50,65,194480,6,0,P|76:136|113:182,1,135.000005149842,4|0,0:0|0:0,0:0:0
399,182,194953,2,0,P|436:136|461:65,1,135.000005149842,8|0,0:0|0:0,0:0:0
256,68,195425,1,0,0:0:0
244,250,195662,1,0,0:0:0
261,285,195780,2,0,P|261:213|267:148,1,135.000005149842
281,115,196134,1,0,0:0:0
208,343,196370,5,4,0:0:0
208,343,196843,1,4,0:0:0
60,242,197197,1,0,0:0:0
93,247,197315,1,0,0:0:0
126,251,197433,1,0,0:0:0
177,156,197669,1,0,0:0:0
210,167,197787,1,0,0:0:0
249,176,197906,2,0,P|239:108|232:39,1,135.000005149842
232,42,198260,6,0,P|191:99|142:146,1,135.000005149842,4|0,0:0|0:0,0:0:0
279,183,198732,1,8,0:0:0
116,131,198969,1,0,0:0:0
142,295,199205,2,0,P|188:256|182:185,1,135.000005149842
114,224,199559,2,0,P|175:221|249:207,1,135.000005149842
308,144,199913,2,0,P|371:130|443:100,1,135.000005149842
308,144,200386,5,0,0:0:0
162,72,200622,1,8,0:0:0
59,197,200858,1,0,0:0:0
201,288,201095,2,0,P|184:252|178:216,1,67.5000025749208
245,156,201331,2,0,P|255:185|257:223,1,67.5000025749208
118,308,201567,2,0,P|96:264|90:228,1,67.5000025749208,8|0,0:0|0:0,0:0:0
112,206,201803,1,0,0:0:0
98,167,201921,1,0,0:0:0
120,133,202039,6,0,P|57:148|-15:148,1,135.000005149842
77,112,202394,2,0,P|144:139|211:129,1,135.000005149842
311,49,202866,1,0,0:0:0
429,112,203102,1,0,0:0:0
399,244,203339,2,0,P|329:248|261:247,1,135.000005149842
235,218,203693,1,0,0:0:0
268,46,203929,5,0,0:0:0
206,304,204165,1,0,0:0:0
145,60,204402,1,8,0:0:0
305,288,204638,1,0,0:0:0
213,107,204874,2,0,P|229:164|249:244,1,135.000005149842
223,235,205228,2,0,P|254:173|289:118,1,135.000005149842
320,90,205583,1,0,0:0:0
432,217,205819,6,0,P|364:204|296:203,1,135.000005149842,4|0,0:0|0:0,0:0:0
184,274,206291,1,8,0:0:0
66,206,206528,1,0,0:0:0
221,175,206764,1,0,0:0:0
258,193,206882,2,0,B|328:176|375:130,1,135.000005149842
382,96,207236,1,8,0:0:0
377,272,207473,1,0,0:0:0
221,175,207709,5,4,0:0:0
327,188,207945,1,0,0:0:0
159,259,208181,1,8,0:0:0
185,80,208417,1,0,0:0:0
256,272,208654,2,0,P|270:310|275:345,1,67.5000025749208
193,219,208890,2,0,P|213:199|254:176,1,67.5000025749208
178,302,209126,1,8,0:0:0
146,312,209244,1,0,0:0:0
110,292,209362,1,0,0:0:0
69,293,209480,1,0,0:0:0
39,320,209599,6,0,P|63:250|56:180,1,135.000005149842,4|0,0:0|0:0,0:0:0
26,152,209953,1,0,0:0:0
145,172,210189,1,0,0:0:0
246,51,210425,2,0,P|248:108|260:195,2,135.000005149842
272,24,211016,1,8,0:0:0
374,111,211252,1,0,0:0:0
177,160,211488,6,0,P|168:223|150:306,1,135.000005149842,4|0,0:0|0:0,0:0:0
93,130,211961,1,4,0:0:0
241,317,212197,1,0,0:0:0
327,98,212433,1,4,0:0:0
327,98,212551,2,0,P|309:142|270:171|270:171|251:176|222:178,2,135.000005149842
327,98,213142,1,0,0:0:0
227,86,213378,6,0,P|162:84|89:80,1,135.000005149842,4|0,0:0|0:0,0:0:0
285,298,213850,2,0,P|350:300|423:304,1,135.000005149842,8|0,0:0|0:0,0:0:0
204,188,214323,1,0,0:0:0
338,176,214559,1,0,0:0:0
308,196,214677,1,0,0:0:0
140,278,214913,1,0,0:0:0
180,290,215032,2,0,P|223:238|217:168,1,135.000005149842
111,80,215504,6,0,P|128:144|140:212,2,135.000005149842,0|8|0,0:0|0:0|0:0,0:0:0
275,136,216213,2,0,P|307:164|396:152,1,135.000005149842
342,91,216567,2,0,P|354:158|370:234,1,135.000005149842
410,287,216921,1,0,0:0:0
222,248,217158,5,0,0:0:0
306,311,217394,1,0,0:0:0
137,302,217630,2,0,P|92:317|4:302,1,135.000005149842,8|0,0:0|0:0,0:0:0
224,327,218102,2,0,P|230:261|248:183,1,135.000005149842
245,85,218457,2,0,P|252:152|275:216,1,135.000005149842
316,238,218811,1,0,0:0:0
167,159,219047,5,0,0:0:0
354,80,219284,1,0,0:0:0
174,112,219520,1,8,0:0:0
333,236,219756,1,0,0:0:0
354,80,219992,2,0,P|304:104|269:172,1,135.000005149842
261,212,220347,1,0,0:0:0
258,252,220465,2,0,P|274:284|305:306,1,67.5000025749208,8|0,0:0|0:0,0:0:0
333,236,220701,2,0,P|366:237|408:233,1,67.5000025749208
312,155,220937,6,0,P|245:160|170:161,1,135.000005149842,4|0,0:0|0:0,0:0:0
14,154,221410,1,8,0:0:0
152,69,221646,1,0,0:0:0
91,226,221882,2,0,P|99:151|74:99,1,135.000005149842
52,63,222236,2,0,P|91:77|199:84,1,135.000005149842
258,53,222591,1,0,0:0:0
186,347,222827,6,0,P|199:280|217:208,1,135.000005149842,4|0,0:0|0:0,0:0:0
364,194,223299,1,8,0:0:0
282,148,223536,1,0,0:0:0
438,136,223772,2,0,P|460:201|433:258,1,135.000005149842
307,268,224126,2,0,P|271:216|282:148,1,135.000005149842
356,106,224480,1,0,0:0:0
194,210,224717,6,0,P|148:200|54:187,1,135.000005149842,4|0,0:0|0:0,0:0:0
299,245,225189,2,0,P|342:227|432:198,1,135.000005149842,8|0,0:0|0:0,0:0:0
240,315,225662,2,0,P|190:261|228:193|228:193|290:156|276:71,1,270.000010299683,4|8,0:0|0:0,0:0:0
175,102,226370,1,0,0:0:0
175,102,226606,5,4,0:0:0
337,282,227079,2,0,P|385:263|433:247,1,101.250003862381,4|0,0:0|0:0,0:0:0
432,247,227551,1,0,0:0:0
432,247,227669,1,0,0:0:0
269,220,227906,5,0,0:0:0
269,220,228024,1,0,0:0:0
269,220,228142,2,0,P|246:263|258:322,1,101.250003862381,0|4,0:0|0:0,0:0:0
256,192,228614,12,0,232748,0:0:0
