osu file format v13

[General]
AudioFilename: HappyS.mp3
AudioLeadIn: 0
PreviewTime: 56522
Countdown: 1
SampleSet: Normal
StackLeniency: 0.7
Mode: 0
LetterboxInBreaks: 0
WidescreenStoryboard: 1

[Editor]
DistanceSpacing: 1.2
BeatDivisor: 4
GridSize: 8
TimelineZoom: 1

[Metadata]
Title:Happy Synthesizer
TitleUnicode:Happy Synthesizer
Artist:EasyPop
ArtistUnicode:EasyPop
Creator:GG BenQ MoaB
Version:Hard
Source:Vocaloid
Tags:
BeatmapID:496746
BeatmapSetID:211191

[Difficulty]
HPDrainRate:5
CircleSize:4
OverallDifficulty:5
ApproachRate:7
SliderMultiplier:1.8
SliderTickRate:1

[Events]
//Background and Video events
0,0,"vocaloid.jpg",0,0
//Break Periods
2,98532,165228
2,168690,227590
//Storyboard Layer 0 (Background)
//Storyboard Layer 1 (Fail)
//Storyboard Layer 2 (Pass)
//Storyboard Layer 3 (Foreground)
//Storyboard Sound Samples
//Background Colour Transformations
3,100,163,162,255

[TimingPoints]
1719,472.44094488189,4,1,0,100,1,0
56522,-100,4,1,0,100,0,1
64081,-100,4,1,0,100,0,0
64104,-100,4,1,0,100,0,0

[HitObjects]
16,300,1719,6,0,B|48:228|76:328|120:244|116:168|44:96|164:88|160:248|208:264|252:156,1,360
212,264,3136,5,0,0:0:0:0:
228,252,3254,1,0,0:0:0:0:
248,240,3372,1,0,0:0:0:0:
268,232,3490,1,0,0:0:0:0:
288,220,3608,1,0,0:0:0:0:
336,160,3844,5,0,0:0:0:0:
280,128,4081,1,0,0:0:0:0:
220,136,4317,1,0,0:0:0:0:
172,176,4553,1,0,0:0:0:0:
128,220,4789,2,0,B|56:288|24:276|76:292,1,90,0|0,0:0|0:0,0:0:0:0:
104,328,5262,1,0,0:0:0:0:
180,324,5498,6,0,P|248:320|292:300,1,90
268,312,5970,1,0,0:0:0:0:
312,264,6207,1,0,0:0:0:0:
312,200,6443,1,0,0:0:0:0:
292,140,6679,1,0,0:0:0:0:
240,104,6915,2,0,B|208:160|280:188|200:188,1,90
228,185,7388,1,0,0:0:0:0:
208,244,7624,1,0,0:0:0:0:
152,268,7860,2,0,B|104:232|104:144|160:168|156:104,1,180
296,268,8805,5,0,0:0:0:0:
252,216,9041,1,0,0:0:0:0:
160,200,9278,1,0,0:0:0:0:
160,200,9396,1,0,0:0:0:0:
160,200,9514,1,0,0:0:0:0:
160,200,9632,1,0,0:0:0:0:
160,200,9750,1,0,0:0:0:0:
160,200,9868,1,0,0:0:0:0:
160,200,9986,1,0,0:0:0:0:
160,200,10104,1,0,0:0:0:0:
160,200,10222,1,0,0:0:0:0:
160,200,10341,5,0,0:0:0:0:
160,200,10459,1,0,0:0:0:0:
160,200,10577,1,0,0:0:0:0:
160,200,10695,1,0,0:0:0:0:
160,200,10813,1,0,0:0:0:0:
160,200,10931,1,0,0:0:0:0:
160,200,11049,1,0,0:0:0:0:
160,200,11167,6,0,P|136:284|152:300,1,90
131,275,11640,1,0,0:0:0:0:
196,284,11876,2,0,P|248:308|272:292,1,90
256,216,12348,2,0,P|208:152|216:128,1,90
260,112,12821,1,0,0:0:0:0:
328,112,13057,1,0,0:0:0:0:
344,244,13530,5,0,0:0:0:0:
320,256,13648,1,0,0:0:0:0:
292,272,13766,1,0,0:0:0:0:
268,288,13884,1,0,0:0:0:0:
228,296,14002,1,0,0:0:0:0:
192,288,14120,1,0,0:0:0:0:
160,276,14238,2,0,P|112:252|80:220,1,90
104,160,14711,5,0,0:0:0:0:
156,120,14947,1,0,0:0:0:0:
216,96,15183,1,0,0:0:0:0:
280,88,15419,1,0,0:0:0:0:
256,152,15656,2,0,B|184:188|172:212|172:212|188:240,1,135
212,252,16128,2,0,P|296:256|324:240,1,90
304,256,16600,5,0,0:0:0:0:
360,220,16837,1,0,0:0:0:0:
336,156,17073,1,0,0:0:0:0:
288,112,17309,1,0,0:0:0:0:
240,72,17545,2,0,P|168:64|144:80,1,90
104,116,18254,1,0,0:0:0:0:
104,144,18372,1,0,0:0:0:0:
104,184,18490,1,0,0:0:0:0:
104,216,18608,1,0,0:0:0:0:
104,252,18726,1,0,0:0:0:0:
240,80,19199,5,0,0:0:0:0:
288,124,19435,1,0,0:0:0:0:
304,188,19671,1,0,0:0:0:0:
272,244,19907,1,0,0:0:0:0:
224,292,20144,1,0,0:0:0:0:
164,312,20380,1,0,0:0:0:0:
104,288,20616,1,0,0:0:0:0:
152,240,20852,6,0,P|200:208|224:156,1,90
208,112,21325,1,0,0:0:0:0:
156,68,21561,1,0,0:0:0:0:
208,112,22033,1,0,0:0:0:0:
232,128,22152,1,0,0:0:0:0:
264,156,22270,2,0,P|304:184|340:224,1,90
260,264,22978,5,0,0:0:0:0:
232,240,23096,1,0,0:0:0:0:
204,216,23215,2,0,P|144:160|144:144,1,90
244,128,23923,5,0,0:0:0:0:
272,128,24041,1,0,0:0:0:0:
308,128,24159,1,0,0:0:0:0:
336,128,24278,2,0,L|392:128,1,45
308,220,24868,1,0,0:0:0:0:
256,264,25104,1,0,0:0:0:0:
200,292,25341,1,0,0:0:0:0:
136,292,25577,1,0,0:0:0:0:
92,244,25813,6,0,P|56:200|56:164,1,90
55,168,26285,1,0,0:0:0:0:
112,132,26522,1,0,0:0:0:0:
176,108,26758,1,0,0:0:0:0:
240,96,26994,1,0,0:0:0:0:
304,104,27230,1,0,0:0:0:0:
268,160,27467,6,0,P|212:208|188:248,1,90
72,304,28175,2,0,L|168:256,1,90,0|0,0:0|0:0,0:0:0:0:
152,263,28648,2,0,L|80:199,1,90
84,203,29120,2,0,L|192:199,1,90
173,199,29593,1,0,0:0:0:0:
264,64,30065,2,0,P|336:100|352:96,1,90
340,99,30537,2,0,P|288:132|272:168,1,90
275,155,31010,2,0,B|352:180|360:184|320:224,1,90
340,200,31482,6,0,L|332:252,4,45,0|0|0|0|0,0:0|0:0|0:0|0:0|0:0,0:0:0:0:
320,268,32427,2,0,P|256:292|228:296,1,90
208,264,32781,1,0,0:0:0:0:
228,220,32900,2,0,P|280:192|308:168,1,90
240,140,33372,5,0,0:0:0:0:
240,140,33490,1,0,0:0:0:0:
240,140,33608,1,0,0:0:0:0:
240,140,33726,1,0,0:0:0:0:
240,140,33844,1,0,0:0:0:0:
104,128,34081,1,0,0:0:0:0:
136,188,34317,1,0,0:0:0:0:
168,248,34553,1,0,0:0:0:0:
224,280,34789,1,0,0:0:0:0:
200,160,35026,6,0,P|260:224|264:240,1,90
340,180,35498,2,0,L|276:116|252:92,1,90,0|0,0:0|0:0,0:0:0:0:
248,96,35852,1,0,0:0:0:0:
208,88,35970,1,0,0:0:0:0:
180,96,36089,1,0,0:0:0:0:
144,112,36207,1,0,0:0:0:0:
120,140,36325,1,0,0:0:0:0:
132,220,36679,5,0,0:0:0:0:
160,228,36796,1,0,0:0:0:0:
196,244,36915,1,0,0:0:0:0:
224,256,37033,1,0,0:0:0:0:
264,272,37152,1,0,0:0:0:0:
400,248,37624,2,0,B|352:212|352:280|332:200,1,90
392,160,38096,6,0,B|352:120|420:112|320:108|320:104,1,90
248,80,38569,2,0,B|244:128|196:80|272:156,1,90
216,216,39041,2,0,B|152:208|152:244|168:136|164:136,1,90
161,174,39514,1,0,0:0:0:0:
161,174,39750,1,0,0:0:0:0:
161,174,39986,1,0,0:0:0:0:
88,104,40459,5,0,0:0:0:0:
88,128,40577,1,0,0:0:0:0:
88,152,40695,1,0,0:0:0:0:
88,176,40813,2,0,B|88:240|120:272|120:288,1,90
232,248,41404,1,0,0:0:0:0:
232,248,41522,1,0,0:0:0:0:
232,248,41640,2,0,L|136:208,1,90
272,176,42112,6,0,L|176:136,1,90
320,104,42585,2,0,L|224:64,1,90
236,69,43057,1,0,0:0:0:0:
236,69,43293,2,0,P|192:144|168:152,1,90
144,96,43766,2,0,P|96:112|80:160,1,90
80,224,44238,2,0,L|112:264,3,45,0|0|0|0,0:0|0:0|0:0|0:0,0:0:0:0:
108,259,44711,1,0,0:0:0:0:
184,160,45183,5,0,0:0:0:0:
208,176,45301,1,0,0:0:0:0:
240,200,45419,1,0,0:0:0:0:
264,216,45537,1,0,0:0:0:0:
296,240,45656,1,0,0:0:0:0:
248,312,45892,1,0,0:0:0:0:
248,312,46128,2,0,B|136:216|168:176|208:144,1,180
248,128,46837,5,0,0:0:0:0:
312,144,47073,1,0,0:0:0:0:
336,208,47309,1,0,0:0:0:0:
320,272,47545,2,0,P|232:320|152:320,1,180
152,208,48490,1,0,0:0:0:0:
184,192,48608,1,0,0:0:0:0:
208,176,48726,1,0,0:0:0:0:
296,104,48963,6,0,L|344:184|344:184,1,90
336,208,49435,2,0,L|248:256,1,90
240,240,49907,2,0,L|208:144,1,90
211,154,50380,1,0,0:0:0:0:
147,154,50616,1,0,0:0:0:0:
99,202,50852,1,0,0:0:0:0:
115,266,51089,1,0,0:0:0:0:
168,304,51325,1,0,0:0:0:0:
232,296,51561,1,0,0:0:0:0:
304,232,51797,5,0,0:0:0:0:
304,232,51915,1,0,0:0:0:0:
304,232,52033,1,0,0:0:0:0:
304,232,52152,1,0,0:0:0:0:
304,232,52270,1,0,0:0:0:0:
136,264,52742,2,0,L|200:200,1,90,0|0,0:0|0:0,0:0:0:0:
199,200,53215,2,0,L|96:200,1,90
109,200,53687,6,0,L|165:128,1,90
232,112,54159,1,0,0:0:0:0:
272,168,54396,2,0,P|344:208|352:224,1,90
328,272,54868,2,0,P|256:336|240:328,1,90
240,280,55341,1,0,0:0:0:0:
208,216,55577,1,0,0:0:0:0:
208,216,55813,1,0,0:0:0:0:
208,216,56049,5,0,0:0:0:0:
208,216,56167,1,0,0:0:0:0:
208,216,56285,1,0,0:0:0:0:
208,216,56404,1,0,0:0:0:0:
208,216,56522,1,0,0:0:0:0:
280,192,56758,2,0,P|328:192|384:176,1,90
288,272,57230,6,0,P|192:328|184:328,1,90
160,296,57703,1,0,0:0:0:0:
112,256,57939,1,0,0:0:0:0:
176,224,58175,2,0,P|232:232|280:232,1,90
264,160,58648,2,0,L|176:112,1,90
144,56,59120,1,0,0:0:0:0:
144,56,59356,1,0,0:0:0:0:
88,120,59593,1,0,0:0:0:0:
72,144,59711,6,0,P|40:200|64:272,1,135
57,264,60301,1,0,0:0:0:0:
104,280,60537,1,0,0:0:0:0:
104,280,60656,1,0,0:0:0:0:
160,240,60892,1,0,0:0:0:0:
216,272,61128,1,0,0:0:0:0:
264,224,61364,1,0,0:0:0:0:
336,248,61600,2,0,B|328:176|280:144|232:152,1,135
256,151,62191,5,0,0:0:0:0:
192,144,62427,2,0,P|152:224|136:240,1,90
152,223,62900,2,0,P|32:152|24:80,1,180
88,312,64081,1,0,0:0:0:0:
152,304,64317,2,0,P|200:272|208:240,1,90
207,243,64789,1,0,0:0:0:0:
240,168,65026,1,0,0:0:0:0:
240,168,65144,1,0,0:0:0:0:
184,128,65380,1,0,0:0:0:0:
120,240,65734,6,0,B|176:304|224:304|208:312,1,90
189,296,66207,2,0,P|181:208|173:200,1,90,0|0,0:0|0:0,0:0:0:0:
183,211,66679,1,0,0:0:0:0:
152,160,66915,1,0,0:0:0:0:
216,112,67152,1,0,0:0:0:0:
216,112,67270,1,0,0:0:0:0:
320,96,67624,6,0,B|376:136|368:120|392:96|376:152,1,90
368,208,68096,1,0,0:0:0:0:
352,216,68215,1,0,0:0:0:0:
280,248,68451,1,0,0:0:0:0:
280,248,68687,2,0,P|256:288|208:312,1,90
192,248,69159,2,0,P|216:192|192:112,1,135
168,64,69750,1,0,0:0:0:0:
168,64,69986,1,0,0:0:0:0:
168,64,70222,1,0,0:0:0:0:
168,64,70459,1,0,0:0:0:0:
168,64,70695,1,0,0:0:0:0:
88,112,71167,5,0,0:0:0:0:
88,136,71285,1,0,0:0:0:0:
88,160,71404,1,0,0:0:0:0:
88,184,71522,1,0,0:0:0:0:
88,208,71640,1,0,0:0:0:0:
184,224,71876,2,0,P|208:280|184:304,1,90,0|0,0:0|0:0,0:0:0:0:
176,144,72348,2,0,P|168:208|208:232,1,90
248,88,72821,2,0,L|168:152,1,90
256,168,73293,2,0,P|264:104|232:72,1,90
208,240,73766,5,0,0:0:0:0:
96,256,74002,1,0,0:0:0:0:
136,200,74238,2,0,P|168:160|168:112,1,90
168,56,74711,1,0,0:0:0:0:
248,72,74947,2,0,P|280:112|288:128,1,45
304,136,75183,1,0,0:0:0:0:
328,168,75301,2,0,P|344:224|336:232,1,45
96,256,75656,2,0,B|136:312|152:256|184:216,1,90
304,248,76128,6,0,B|288:288|272:296|232:240,1,90
144,184,76600,2,0,L|200:112,1,90
264,192,77073,2,0,L|208:112,1,90
212,118,77545,1,0,0:0:0:0:
212,118,77781,2,0,P|288:88|320:88,1,90
352,120,78254,1,0,0:0:0:0:
248,208,78726,1,0,0:0:0:0:
56,304,79199,6,0,L|144:272,1,90
120,208,79671,2,0,L|56:128,1,90
128,112,80144,1,0,0:0:0:0:
200,104,80380,2,0,B|192:160|208:168|224:168,1,45
208,184,80616,1,0,0:0:0:0:
216,256,80852,1,0,0:0:0:0:
280,288,81089,1,0,0:0:0:0:
416,328,81325,6,0,P|336:288|336:272,1,90
256,208,81797,2,0,P|320:192|320:160,1,90
352,88,82270,2,0,P|392:152|392:176,1,90
312,304,82742,2,0,P|320:232|304:208,1,90
313,219,83215,1,0,0:0:0:0:
280,168,83451,1,0,0:0:0:0:
248,112,83687,2,0,P|208:80|160:72,1,90
168,152,84159,1,0,0:0:0:0:
96,208,84396,6,0,B|176:152|176:152|176:48|176:48|176:56,1,180
248,72,85104,1,0,0:0:0:0:
320,72,85341,2,0,B|320:168|320:168|400:208,1,180
248,200,86285,1,0,0:0:0:0:
248,200,86404,1,0,0:0:0:0:
248,200,86522,1,0,0:0:0:0:
248,200,86640,1,0,0:0:0:0:
248,200,86758,1,0,0:0:0:0:
440,320,90537,6,0,P|456:256|456:224,1,90,0|0,0:0|0:0,0:0:0:0:
392,232,91010,2,0,P|384:160|368:144,1,90
312,160,91482,2,0,P|288:112|256:80,1,90
216,128,91955,1,0,0:0:0:0:
152,144,92191,1,0,0:0:0:0:
128,208,92427,1,0,0:0:0:0:
176,256,92663,1,0,0:0:0:0:
48,224,92900,2,0,P|96:176|128:168,1,90
115,169,93372,5,0,0:0:0:0:
115,169,93490,1,0,0:0:0:0:
115,169,93608,1,0,0:0:0:0:
115,169,93726,1,0,0:0:0:0:
115,169,93844,1,0,0:0:0:0:
200,272,94317,6,0,B|256:232|256:232|240:200,1,90
246,213,94789,2,0,B|208:160|208:160|168:184|168:176,1,90
176,104,95262,1,0,0:0:0:0:
200,96,95380,1,0,0:0:0:0:
264,80,95616,2,0,P|320:80|384:128,1,135
384,160,96089,1,0,0:0:0:0:
376,192,96207,1,0,0:0:0:0:
312,216,96443,1,0,0:0:0:0:
248,224,96679,2,0,B|208:184|208:184|168:184|144:128|88:152,1,180
64,216,97388,5,0,0:0:0:0:
104,264,97624,2,0,P|152:304|192:312,1,90
216,256,98096,2,0,B|160:184|160:184|168:176,1,90
256,224,166128,5,0,0:0:0:0:
256,224,166364,1,0,0:0:0:0:
256,224,166600,1,0,0:0:0:0:
256,224,166837,1,0,0:0:0:0:
256,224,167073,1,0,0:0:0:0:
256,224,167309,1,0,0:0:0:0:
256,224,167467,1,0,0:0:0:0:
256,224,167781,5,0,0:0:0:0:
32,160,168018,1,0,0:0:0:0:
32,160,168254,1,0,0:0:0:0:
32,160,168490,1,0,0:0:0:0:
256,192,228490,12,0,232742,0:0:0:0:
