osu file format v13

[General]
AudioFilename: metal_folk_xenoglossy-VHZgt_r2WCU_fmt22.mp3
AudioLeadIn: 0
PreviewTime: -1
Countdown: 1
SampleSet: Normal
StackLeniency: 0.7
Mode: 1
LetterboxInBreaks: 1
WidescreenStoryboard: 1

[Editor]
DistanceSpacing: 0.9
BeatDivisor: 4
GridSize: 32
TimelineZoom: 2.1

[Metadata]
Title:Ancient Temple
TitleUnicode:Ancient Temple
Artist:Eastern Mystical Dream
ArtistUnicode:Eastern Mystical Dream
Creator:Ilikecheese
Version:InnerCheeseOni
Source:Touhou
Tags:ZUN
BeatmapID:456728
BeatmapSetID:191975

[Difficulty]
HPDrainRate:6
CircleSize:5
OverallDifficulty:6
ApproachRate:10
SliderMultiplier:1.4
SliderTickRate:1

[Events]
//Background and Video events
0,0,"mysticaldream.jpg",0,0
//Break Periods
//Storyboard Layer 0 (Background)
//Storyboard Layer 1 (Fail)
//Storyboard Layer 2 (Pass)
//Storyboard Layer 3 (Foreground)
//Storyboard Sound Samples
//Background Colour Transformations
3,100,163,162,255

[TimingPoints]
23151,260.869565217391,4,1,0,100,1,0
23151,-83.3333333333333,4,1,0,100,0,0
25107,-100,4,1,0,100,0,0
81585,-100,4,1,0,100,0,1
114455,-100,4,1,0,100,0,0
148368,-95.2380952380952,4,1,0,100,0,1
156716,-100,4,1,0,100,0,0
165064,-95.2380952380952,4,1,0,100,0,1
182803,-100,4,1,0,100,0,0
189324,-100,4,3,0,100,0,0
190042,-100,4,1,0,100,0,0
281933,-95.2380952380952,4,1,0,100,0,1
298629,-100,4,1,0,100,0,0

[HitObjects]
256,192,23150,5,4,0:0:0:0:
256,192,23281,12,0,24977,0:0:0:0:
256,192,25107,5,8,0:0:0:0:
256,192,25172,1,8,0:0:0:0:
256,192,25237,1,8,0:0:0:0:
256,192,25629,1,8,0:0:0:0:
256,192,25955,1,0,0:0:0:0:
256,192,26216,1,8,0:0:0:0:
256,192,26477,1,0,0:0:0:0:
256,192,26672,1,8,0:0:0:0:
256,192,26868,1,0,0:0:0:0:
256,192,27064,1,8,0:0:0:0:
256,192,27129,1,8,0:0:0:0:
256,192,27194,1,8,0:0:0:0:
256,192,27259,1,0,0:0:0:0:
256,192,27324,1,8,0:0:0:0:
256,192,27390,12,0,27977,0:0:0:0:
256,192,28107,5,0,0:0:0:0:
248,192,28237,1,0,0:0:0:0:
256,192,28368,1,8,0:0:0:0:
256,192,29150,1,0,0:0:0:0:
256,192,29411,1,8,0:0:0:0:
256,192,29542,1,0,0:0:0:0:
256,192,29672,1,0,0:0:0:0:
256,192,29803,1,0,0:0:0:0:
256,192,29933,1,8,0:0:0:0:
256,192,30064,1,0,0:0:0:0:
256,192,30194,1,0,0:0:0:0:
256,192,30324,1,0,0:0:0:0:
256,192,30455,1,8,0:0:0:0:
256,192,30585,1,0,0:0:0:0:
256,192,30716,1,0,0:0:0:0:
256,192,30846,1,0,0:0:0:0:
256,192,30977,1,0,0:0:0:0:
256,192,31107,1,0,0:0:0:0:
256,192,31237,1,0,0:0:0:0:
256,192,31303,1,0,0:0:0:0:
256,192,31368,1,0,0:0:0:0:
256,192,31433,1,0,0:0:0:0:
256,192,31498,1,8,0:0:0:0:
256,192,31629,1,0,0:0:0:0:
256,192,31759,1,8,0:0:0:0:
256,192,31890,1,8,0:0:0:0:
256,192,32020,1,0,0:0:0:0:
256,192,32150,1,8,0:0:0:0:
256,192,32281,1,8,0:0:0:0:
256,192,32411,1,8,0:0:0:0:
256,192,32542,1,4,0:0:0:0:
256,192,32803,1,0,0:0:0:0:
256,192,32933,1,8,0:0:0:0:
256,192,33194,1,0,0:0:0:0:
256,192,33324,1,8,0:0:0:0:
256,192,33585,1,8,0:0:0:0:
256,192,33716,1,0,0:0:0:0:
256,192,33846,1,0,0:0:0:0:
256,192,33977,1,8,0:0:0:0:
256,192,34107,1,0,0:0:0:0:
256,192,34237,1,0,0:0:0:0:
256,192,34368,1,0,0:0:0:0:
256,192,34498,1,0,0:0:0:0:
256,192,34629,1,12,0:0:0:0:
256,192,34890,1,0,0:0:0:0:
256,192,35020,1,8,0:0:0:0:
256,192,35150,1,8,0:0:0:0:
256,192,35281,1,8,0:0:0:0:
256,192,35411,1,0,0:0:0:0:
256,192,35672,1,4,0:0:0:0:
256,192,35933,1,8,0:0:0:0:
256,192,36194,1,8,0:0:0:0:
256,192,36455,1,8,0:0:0:0:
256,192,36585,1,0,0:0:0:0:
256,192,36716,1,0,0:0:0:0:
256,192,36977,1,8,0:0:0:0:
256,192,37107,1,0,0:0:0:0:
256,192,37498,1,8,0:0:0:0:
256,192,37629,1,0,0:0:0:0:
256,192,37759,1,0,0:0:0:0:
256,192,37890,1,8,0:0:0:0:
256,192,38020,1,8,0:0:0:0:
256,192,38150,1,0,0:0:0:0:
256,192,38281,1,0,0:0:0:0:
256,192,38411,1,0,0:0:0:0:
256,192,38542,1,0,0:0:0:0:
256,192,38672,1,0,0:0:0:0:
256,192,38803,1,8,0:0:0:0:
256,192,38890,1,0,0:0:0:0:
256,192,38977,1,0,0:0:0:0:
256,192,39064,1,8,0:0:0:0:
256,192,39150,1,0,0:0:0:0:
256,192,39237,1,0,0:0:0:0:
256,192,39324,1,8,0:0:0:0:
256,192,39411,1,0,0:0:0:0:
256,192,39498,1,0,0:0:0:0:
256,192,39585,1,8,0:0:0:0:
256,192,39672,1,0,0:0:0:0:
256,192,39759,1,0,0:0:0:0:
256,192,39846,1,8,0:0:0:0:
256,192,39977,1,0,0:0:0:0:
256,192,40107,1,0,0:0:0:0:
256,192,40237,1,8,0:0:0:0:
256,192,40368,1,0,0:0:0:0:
256,192,40498,1,0,0:0:0:0:
256,192,40629,1,8,0:0:0:0:
256,192,40759,1,0,0:0:0:0:
256,192,40890,1,0,0:0:0:0:
256,192,41020,1,8,0:0:0:0:
256,192,41150,1,8,0:0:0:0:
256,192,41281,1,0,0:0:0:0:
256,192,41411,1,0,0:0:0:0:
256,192,41542,1,0,0:0:0:0:
256,192,41672,1,8,0:0:0:0:
256,192,41803,1,0,0:0:0:0:
256,192,41933,1,0,0:0:0:0:
256,192,42064,1,0,0:0:0:0:
256,192,42194,1,8,0:0:0:0:
256,192,42324,1,0,0:0:0:0:
256,192,42455,1,0,0:0:0:0:
256,192,42585,1,8,0:0:0:0:
256,192,42716,1,8,0:0:0:0:
256,192,42846,1,0,0:0:0:0:
256,192,42977,1,0,0:0:0:0:
256,192,43042,1,0,0:0:0:0:
256,192,43107,1,0,0:0:0:0:
256,192,43237,1,8,0:0:0:0:
256,192,43368,1,0,0:0:0:0:
256,192,43433,1,0,0:0:0:0:
256,192,43498,1,8,0:0:0:0:
256,192,43629,1,0,0:0:0:0:
256,192,43759,1,8,0:0:0:0:
256,192,43824,1,8,0:0:0:0:
256,192,43890,1,8,0:0:0:0:
256,192,44020,1,4,0:0:0:0:
256,192,44150,1,0,0:0:0:0:
256,192,44281,1,8,0:0:0:0:
256,192,44411,1,0,0:0:0:0:
256,192,44542,1,8,0:0:0:0:
256,192,44672,1,0,0:0:0:0:
256,192,44803,1,8,0:0:0:0:
256,192,44933,1,0,0:0:0:0:
256,192,45064,1,0,0:0:0:0:
256,192,45129,1,0,0:0:0:0:
256,192,45194,1,0,0:0:0:0:
256,192,45324,1,8,0:0:0:0:
256,192,45455,1,0,0:0:0:0:
256,192,45520,1,0,0:0:0:0:
256,192,45585,1,0,0:0:0:0:
256,192,45716,1,0,0:0:0:0:
256,192,45846,1,8,0:0:0:0:
256,192,45977,1,0,0:0:0:0:
256,192,46107,1,8,0:0:0:0:
256,192,46172,1,0,0:0:0:0:
256,192,46237,1,0,0:0:0:0:
256,192,46368,1,0,0:0:0:0:
256,192,46498,1,0,0:0:0:0:
256,192,46629,1,8,0:0:0:0:
256,192,46694,1,0,0:0:0:0:
256,192,46759,1,0,0:0:0:0:
256,192,46890,1,8,0:0:0:0:
256,192,46955,1,0,0:0:0:0:
256,192,47020,1,0,0:0:0:0:
256,192,47150,1,8,0:0:0:0:
256,192,47281,1,8,0:0:0:0:
256,192,47411,1,8,0:0:0:0:
256,192,47542,1,0,0:0:0:0:
256,192,47672,1,0,0:0:0:0:
256,192,47803,1,8,0:0:0:0:
256,192,47933,1,0,0:0:0:0:
256,192,48064,1,8,0:0:0:0:
256,192,48194,1,4,0:0:0:0:
256,192,48324,1,0,0:0:0:0:
256,192,48455,1,8,0:0:0:0:
256,192,48585,1,0,0:0:0:0:
256,192,48716,1,0,0:0:0:0:
256,192,48846,1,0,0:0:0:0:
256,192,48977,1,8,0:0:0:0:
256,192,49107,1,0,0:0:0:0:
256,192,49237,1,0,0:0:0:0:
256,192,49303,1,0,0:0:0:0:
256,192,49368,1,0,0:0:0:0:
256,192,49498,1,8,0:0:0:0:
256,192,49629,1,0,0:0:0:0:
256,192,49694,1,0,0:0:0:0:
256,192,49759,1,0,0:0:0:0:
256,192,49890,1,0,0:0:0:0:
256,192,50020,1,8,0:0:0:0:
256,192,50150,1,0,0:0:0:0:
256,192,50281,1,0,0:0:0:0:
256,192,50411,1,0,0:0:0:0:
256,192,50542,1,8,0:0:0:0:
256,192,50672,1,0,0:0:0:0:
256,192,50803,1,0,0:0:0:0:
256,192,50933,1,0,0:0:0:0:
256,192,51064,1,8,0:0:0:0:
256,192,51194,1,0,0:0:0:0:
256,192,51324,1,0,0:0:0:0:
256,192,51390,1,0,0:0:0:0:
256,192,51455,1,0,0:0:0:0:
256,192,51585,1,8,0:0:0:0:
256,192,51715,1,0,0:0:0:0:
256,192,51781,1,0,0:0:0:0:
256,192,51846,1,0,0:0:0:0:
256,192,51977,1,0,0:0:0:0:
256,192,52107,1,8,0:0:0:0:
256,192,52172,1,0,0:0:0:0:
256,192,52237,1,0,0:0:0:0:
256,192,52303,1,0,0:0:0:0:
256,192,52368,1,8,0:0:0:0:
256,192,52498,1,0,0:0:0:0:
256,192,52629,1,8,0:0:0:0:
256,192,52759,1,0,0:0:0:0:
256,192,52890,1,0,0:0:0:0:
256,192,53020,1,0,0:0:0:0:
256,192,53150,1,8,0:0:0:0:
256,192,53281,1,0,0:0:0:0:
256,192,53411,1,0,0:0:0:0:
256,192,53477,1,0,0:0:0:0:
256,192,53542,1,0,0:0:0:0:
256,192,53672,1,8,0:0:0:0:
256,192,53803,1,0,0:0:0:0:
256,192,53868,1,0,0:0:0:0:
256,192,53933,1,0,0:0:0:0:
256,192,54064,1,0,0:0:0:0:
256,192,54194,1,8,0:0:0:0:
256,192,54324,1,0,0:0:0:0:
256,192,54455,1,8,0:0:0:0:
256,192,54520,1,8,0:0:0:0:
256,192,54585,1,8,0:0:0:0:
256,192,54716,1,0,0:0:0:0:
256,192,54977,1,8,0:0:0:0:
256,192,55042,1,8,0:0:0:0:
256,192,55107,1,8,0:0:0:0:
256,192,55237,1,0,0:0:0:0:
256,192,55303,1,8,0:0:0:0:
256,192,55368,1,0,0:0:0:0:
256,192,55498,1,8,0:0:0:0:
256,192,55629,1,8,0:0:0:0:
256,192,55759,1,0,0:0:0:0:
256,192,55890,1,0,0:0:0:0:
256,192,56020,1,8,0:0:0:0:
256,192,56150,1,8,0:0:0:0:
256,192,56281,1,0,0:0:0:0:
256,192,56411,1,8,0:0:0:0:
256,192,56542,1,0,0:0:0:0:
256,192,56607,1,0,0:0:0:0:
256,192,56672,1,0,0:0:0:0:
256,192,56737,1,0,0:0:0:0:
256,192,57324,1,8,0:0:0:0:
256,192,57390,1,0,0:0:0:0:
256,192,57455,1,0,0:0:0:0:
256,192,57520,1,0,0:0:0:0:
256,192,57585,1,8,0:0:0:0:
256,192,57846,1,8,0:0:0:0:
256,192,58107,1,8,0:0:0:0:
256,192,58172,1,0,0:0:0:0:
256,192,58237,1,0,0:0:0:0:
256,192,58303,1,0,0:0:0:0:
256,192,58629,1,8,0:0:0:0:
256,192,58694,1,0,0:0:0:0:
256,192,58759,1,0,0:0:0:0:
256,192,58824,1,0,0:0:0:0:
256,192,59411,1,0,0:0:0:0:
256,192,59477,1,0,0:0:0:0:
256,192,59542,1,0,0:0:0:0:
256,192,59607,1,0,0:0:0:0:
256,192,59672,1,8,0:0:0:0:
256,192,59933,1,0,0:0:0:0:
256,192,60107,1,0,0:0:0:0:
256,192,60194,1,8,0:0:0:0:
256,192,60281,1,0,0:0:0:0:
256,192,60368,1,0,0:0:0:0:
256,192,60455,1,8,0:0:0:0:
256,192,60542,1,0,0:0:0:0:
256,192,60629,1,0,0:0:0:0:
256,192,60716,1,8,0:0:0:0:
256,192,60781,1,0,0:0:0:0:
256,192,60846,1,0,0:0:0:0:
256,192,60911,1,0,0:0:0:0:
256,192,60977,1,0,0:0:0:0:
256,192,61498,1,0,0:0:0:0:
256,192,61563,1,0,0:0:0:0:
256,192,61628,1,0,0:0:0:0:
256,192,61693,1,0,0:0:0:0:
256,192,61759,1,8,0:0:0:0:
256,192,62020,1,0,0:0:0:0:
256,192,62280,1,8,0:0:0:0:
256,192,62346,1,0,0:0:0:0:
256,192,62411,1,0,0:0:0:0:
256,192,62476,1,0,0:0:0:0:
256,192,62541,1,8,0:0:0:0:
256,192,62803,1,8,0:0:0:0:
256,192,62868,1,0,0:0:0:0:
256,192,62933,1,0,0:0:0:0:
256,192,62999,1,0,0:0:0:0:
256,192,63324,1,0,0:0:0:0:
256,192,63585,1,0,0:0:0:0:
256,192,63846,1,8,0:0:0:0:
256,192,63933,1,8,0:0:0:0:
256,192,64020,1,0,0:0:0:0:
256,192,64107,1,8,0:0:0:0:
256,192,64194,1,8,0:0:0:0:
256,192,64281,1,0,0:0:0:0:
256,192,64368,1,8,0:0:0:0:
256,192,64455,1,8,0:0:0:0:
256,192,64542,1,0,0:0:0:0:
256,192,64629,1,8,0:0:0:0:
256,196,64890,1,8,0:0:0:0:
256,192,64955,1,0,0:0:0:0:
256,192,65020,1,0,0:0:0:0:
256,192,65085,1,0,0:0:0:0:
256,192,65672,1,0,0:0:0:0:
256,192,65737,1,0,0:0:0:0:
256,192,65803,1,0,0:0:0:0:
256,192,65868,1,0,0:0:0:0:
256,192,65933,1,0,0:0:0:0:
256,192,66194,1,0,0:0:0:0:
256,192,66455,1,0,0:0:0:0:
256,192,66520,1,0,0:0:0:0:
256,192,66585,1,0,0:0:0:0:
256,192,66650,1,0,0:0:0:0:
256,192,66977,1,8,0:0:0:0:
256,192,67042,1,0,0:0:0:0:
256,192,67107,1,0,0:0:0:0:
256,192,67172,1,0,0:0:0:0:
256,192,67759,1,0,0:0:0:0:
256,192,67824,1,0,0:0:0:0:
256,192,67890,1,0,0:0:0:0:
256,192,67955,1,0,0:0:0:0:
256,192,68020,1,0,0:0:0:0:
256,192,68281,1,0,0:0:0:0:
256,192,68455,1,0,0:0:0:0:
256,192,68542,1,8,0:0:0:0:
256,192,68629,1,0,0:0:0:0:
256,192,68716,1,0,0:0:0:0:
256,192,68803,1,8,0:0:0:0:
256,192,68890,1,0,0:0:0:0:
256,192,68977,1,0,0:0:0:0:
256,192,69064,1,8,0:0:0:0:
256,192,69129,1,0,0:0:0:0:
256,192,69194,1,0,0:0:0:0:
256,192,69259,1,0,0:0:0:0:
256,192,69324,1,0,0:0:0:0:
256,192,69846,1,0,0:0:0:0:
256,192,69911,1,0,0:0:0:0:
256,192,69977,1,0,0:0:0:0:
256,192,70042,1,0,0:0:0:0:
256,192,70107,1,0,0:0:0:0:
256,192,70368,1,0,0:0:0:0:
256,192,70629,1,8,0:0:0:0:
256,192,70694,1,0,0:0:0:0:
256,192,70759,1,0,0:0:0:0:
256,192,70824,1,0,0:0:0:0:
256,192,70890,1,8,0:0:0:0:
256,192,71150,1,8,0:0:0:0:
256,192,71216,1,8,0:0:0:0:
256,192,71281,1,8,0:0:0:0:
256,192,71346,1,8,0:0:0:0:
256,192,71411,1,8,0:0:0:0:
256,192,71672,1,0,0:0:0:0:
256,192,71933,1,0,0:0:0:0:
256,192,72194,1,8,0:0:0:0:
256,192,72281,1,0,0:0:0:0:
256,192,72368,1,0,0:0:0:0:
256,192,72455,1,8,0:0:0:0:
256,192,72542,1,0,0:0:0:0:
256,192,72629,1,0,0:0:0:0:
256,192,72716,1,8,0:0:0:0:
256,192,72803,1,0,0:0:0:0:
256,192,72890,1,0,0:0:0:0:
256,192,72977,1,0,0:0:0:0:
256,192,73064,1,8,0:0:0:0:
256,192,73150,1,0,0:0:0:0:
256,192,73237,1,0,0:0:0:0:
256,192,74020,1,0,0:0:0:0:
256,192,74281,1,8,0:0:0:0:
256,192,75064,1,0,0:0:0:0:
256,192,75194,1,0,0:0:0:0:
256,192,75324,1,8,0:0:0:0:
256,192,76368,1,8,0:0:0:0:
256,192,76629,1,0,0:0:0:0:
256,192,76759,1,0,0:0:0:0:
256,192,76890,1,8,0:0:0:0:
256,192,77020,1,0,0:0:0:0:
256,192,77411,1,4,0:0:0:0:
256,192,78194,1,0,0:0:0:0:
256,192,78259,1,0,0:0:0:0:
256,192,78324,1,0,0:0:0:0:
256,192,78390,1,0,0:0:0:0:
256,192,78455,1,8,0:0:0:0:
256,192,78977,1,0,0:0:0:0:
256,192,79237,1,8,0:0:0:0:
256,192,79303,1,0,0:0:0:0:
256,192,79368,1,0,0:0:0:0:
256,192,79433,1,0,0:0:0:0:
256,192,79498,1,8,0:0:0:0:
256,192,79759,1,0,0:0:0:0:
256,192,79890,1,0,0:0:0:0:
256,192,80020,1,0,0:0:0:0:
256,192,80150,1,8,0:0:0:0:
256,192,80281,1,0,0:0:0:0:
256,192,80411,1,8,0:0:0:0:
256,192,80542,1,0,0:0:0:0:
256,192,80803,1,8,0:0:0:0:
256,192,80933,1,0,0:0:0:0:
256,192,81064,1,0,0:0:0:0:
256,192,81194,1,0,0:0:0:0:
256,192,81324,1,8,0:0:0:0:
256,192,81585,1,4,0:0:0:0:
256,192,81846,1,8,0:0:0:0:
256,192,82107,1,0,0:0:0:0:
256,192,82237,1,0,0:0:0:0:
256,192,82368,1,8,0:0:0:0:
256,192,82629,1,0,0:0:0:0:
256,192,82890,1,8,0:0:0:0:
256,192,83020,1,0,0:0:0:0:
256,192,83281,1,0,0:0:0:0:
256,192,83346,1,0,0:0:0:0:
256,192,83411,1,8,0:0:0:0:
256,192,83672,1,4,0:0:0:0:
256,192,83933,1,8,0:0:0:0:
256,192,84194,1,0,0:0:0:0:
256,192,84324,1,0,0:0:0:0:
256,192,84455,1,8,0:0:0:0:
256,192,84585,1,0,0:0:0:0:
256,192,84846,1,0,0:0:0:0:
256,192,84977,1,8,0:0:0:0:
256,192,85107,1,0,0:0:0:0:
256,192,85237,1,8,0:0:0:0:
256,192,85368,1,8,0:0:0:0:
256,192,85498,1,0,0:0:0:0:
256,192,85759,1,4,0:0:0:0:
256,192,86020,1,8,0:0:0:0:
256,192,86281,1,0,0:0:0:0:
256,192,86411,1,8,0:0:0:0:
256,192,86542,1,0,0:0:0:0:
256,192,86803,1,8,0:0:0:0:
256,192,87064,1,8,0:0:0:0:
256,192,87194,1,0,0:0:0:0:
256,192,87324,1,0,0:0:0:0:
256,192,87455,1,0,0:0:0:0:
256,192,87585,1,8,0:0:0:0:
256,192,87846,1,4,0:0:0:0:
256,192,88107,1,0,0:0:0:0:
256,192,88172,1,0,0:0:0:0:
256,192,88237,1,8,0:0:0:0:
256,192,88498,1,8,0:0:0:0:
256,192,88629,1,0,0:0:0:0:
256,192,88890,1,8,0:0:0:0:
256,192,89020,1,0,0:0:0:0:
256,192,89150,1,0,0:0:0:0:
256,192,89281,1,8,0:0:0:0:
256,192,89411,1,0,0:0:0:0:
256,192,89542,1,0,0:0:0:0:
256,192,89672,1,8,0:0:0:0:
256,192,89803,1,0,0:0:0:0:
256,192,89933,1,8,0:0:0:0:
256,192,90194,1,12,0:0:0:0:
256,192,90455,1,0,0:0:0:0:
256,192,90585,1,0,0:0:0:0:
256,192,90716,1,8,0:0:0:0:
256,192,90977,1,0,0:0:0:0:
256,192,91237,1,8,0:0:0:0:
256,192,91368,1,0,0:0:0:0:
256,192,91498,1,0,0:0:0:0:
256,192,91629,1,8,0:0:0:0:
256,192,91759,1,8,0:0:0:0:
256,192,92020,1,4,0:0:0:0:
256,192,92281,1,8,0:0:0:0:
256,192,92542,1,0,0:0:0:0:
256,192,92672,1,0,0:0:0:0:
256,192,92803,1,8,0:0:0:0:
256,192,92933,1,0,0:0:0:0:
256,192,93064,1,0,0:0:0:0:
256,192,93324,1,8,0:0:0:0:
256,192,93455,1,0,0:0:0:0:
256,192,93585,1,0,0:0:0:0:
256,192,93716,1,0,0:0:0:0:
256,192,93846,1,8,0:0:0:0:
256,192,94107,1,12,0:0:0:0:
256,192,94368,1,8,0:0:0:0:
256,192,94629,1,0,0:0:0:0:
256,192,94759,1,0,0:0:0:0:
256,192,94890,1,8,0:0:0:0:
256,192,95150,1,0,0:0:0:0:
256,192,95411,1,8,0:0:0:0:
256,192,95542,1,0,0:0:0:0:
256,192,95672,1,0,0:0:0:0:
256,192,95803,1,0,0:0:0:0:
256,192,95933,1,8,0:0:0:0:
256,192,96194,1,4,0:0:0:0:
256,192,96716,1,0,0:0:0:0:
256,192,96846,1,0,0:0:0:0:
256,192,96977,1,8,0:0:0:0:
256,192,97237,1,4,0:0:0:0:
256,192,97411,1,0,0:0:0:0:
256,192,97498,1,8,0:0:0:0:
256,192,97585,1,0,0:0:0:0:
256,192,97672,1,0,0:0:0:0:
256,192,97759,1,8,0:0:0:0:
256,192,97846,1,0,0:0:0:0:
256,192,97933,1,0,0:0:0:0:
256,192,98020,1,8,0:0:0:0:
256,192,98150,1,8,0:0:0:0:
260,192,98281,5,0,0:0:0:0:
260,192,98411,1,0,0:0:0:0:
260,192,98542,1,8,0:0:0:0:
260,192,98672,1,0,0:0:0:0:
260,192,98803,1,0,0:0:0:0:
260,192,98933,1,0,0:0:0:0:
260,192,99064,1,8,0:0:0:0:
260,192,99194,1,0,0:0:0:0:
260,192,99324,1,0,0:0:0:0:
260,192,99455,1,0,0:0:0:0:
260,192,99585,1,8,0:0:0:0:
260,192,99716,1,0,0:0:0:0:
260,192,99846,1,0,0:0:0:0:
260,192,99977,1,0,0:0:0:0:
260,192,100107,1,8,0:0:0:0:
260,192,100237,1,0,0:0:0:0:
260,192,100368,1,8,0:0:0:0:
260,192,100498,1,0,0:0:0:0:
260,192,100629,1,8,0:0:0:0:
260,192,100759,1,0,0:0:0:0:
260,192,100890,1,0,0:0:0:0:
260,192,101020,1,0,0:0:0:0:
260,192,101150,1,8,0:0:0:0:
260,192,101281,1,0,0:0:0:0:
260,192,101411,1,0,0:0:0:0:
260,192,101542,1,0,0:0:0:0:
260,192,101672,1,8,0:0:0:0:
260,192,101803,1,0,0:0:0:0:
260,192,101933,1,0,0:0:0:0:
260,192,102064,1,0,0:0:0:0:
260,192,102194,1,8,0:0:0:0:
260,192,102324,1,0,0:0:0:0:
260,192,102455,1,8,0:0:0:0:
260,192,102585,1,0,0:0:0:0:
260,192,102716,1,8,0:0:0:0:
260,192,102846,1,0,0:0:0:0:
260,192,102977,1,0,0:0:0:0:
260,192,103107,1,0,0:0:0:0:
260,192,103237,1,8,0:0:0:0:
260,192,103368,1,0,0:0:0:0:
260,192,103498,1,0,0:0:0:0:
260,192,103629,1,0,0:0:0:0:
260,192,103759,1,8,0:0:0:0:
260,192,103890,1,0,0:0:0:0:
260,192,104020,1,0,0:0:0:0:
260,192,104150,1,0,0:0:0:0:
260,192,104281,1,8,0:0:0:0:
260,192,104411,1,0,0:0:0:0:
260,192,104542,1,8,0:0:0:0:
260,192,104672,1,0,0:0:0:0:
260,192,104803,1,0,0:0:0:0:
260,192,104933,1,0,0:0:0:0:
260,192,105064,1,0,0:0:0:0:
260,192,105194,1,0,0:0:0:0:
260,192,105324,1,8,0:0:0:0:
260,192,105455,1,0,0:0:0:0:
260,192,105585,1,8,0:0:0:0:
260,192,105716,1,8,0:0:0:0:
260,192,105846,1,0,0:0:0:0:
260,192,105977,1,8,0:0:0:0:
260,192,106107,1,8,0:0:0:0:
260,192,106237,1,0,0:0:0:0:
260,192,106368,1,8,0:0:0:0:
260,192,106498,1,0,0:0:0:0:
260,192,106629,1,8,0:0:0:0:
260,192,106759,1,0,0:0:0:0:
260,192,106890,1,8,0:0:0:0:
260,192,107020,1,0,0:0:0:0:
260,192,107150,1,0,0:0:0:0:
260,192,107281,1,0,0:0:0:0:
260,192,107411,1,8,0:0:0:0:
260,192,107542,1,0,0:0:0:0:
260,192,107672,1,0,0:0:0:0:
260,192,107803,1,0,0:0:0:0:
260,192,107933,1,8,0:0:0:0:
260,192,108064,1,0,0:0:0:0:
260,192,108194,1,0,0:0:0:0:
260,192,108324,1,0,0:0:0:0:
260,192,108455,1,8,0:0:0:0:
260,192,108585,1,0,0:0:0:0:
260,192,108716,1,8,0:0:0:0:
260,192,108846,1,0,0:0:0:0:
260,192,108977,1,8,0:0:0:0:
260,192,109107,1,0,0:0:0:0:
260,192,109237,1,0,0:0:0:0:
260,192,109368,1,0,0:0:0:0:
260,192,109498,1,8,0:0:0:0:
260,192,109629,1,0,0:0:0:0:
260,192,109759,1,0,0:0:0:0:
260,192,109890,1,0,0:0:0:0:
260,192,110020,1,8,0:0:0:0:
260,192,110150,1,0,0:0:0:0:
260,192,110281,1,0,0:0:0:0:
260,192,110411,1,0,0:0:0:0:
260,192,110542,1,8,0:0:0:0:
260,192,110672,1,0,0:0:0:0:
260,192,110803,1,8,0:0:0:0:
260,192,110933,1,0,0:0:0:0:
260,192,111064,1,8,0:0:0:0:
260,192,111194,1,0,0:0:0:0:
260,192,111324,1,0,0:0:0:0:
260,192,111455,1,0,0:0:0:0:
260,192,111585,1,8,0:0:0:0:
260,192,111716,1,0,0:0:0:0:
260,192,111846,1,0,0:0:0:0:
260,192,111977,1,0,0:0:0:0:
260,192,112107,1,8,0:0:0:0:
260,192,112237,1,0,0:0:0:0:
260,192,112368,1,0,0:0:0:0:
260,192,112498,1,0,0:0:0:0:
260,192,112629,1,8,0:0:0:0:
260,192,112890,1,0,0:0:0:0:
260,192,112955,1,0,0:0:0:0:
260,192,113020,1,0,0:0:0:0:
260,192,113150,1,8,0:0:0:0:
260,192,113281,1,8,0:0:0:0:
260,192,113411,1,8,0:0:0:0:
260,192,113672,1,0,0:0:0:0:
260,192,113737,1,0,0:0:0:0:
260,192,113803,1,0,0:0:0:0:
260,192,113868,1,0,0:0:0:0:
260,192,113933,1,8,0:0:0:0:
260,192,114064,1,0,0:0:0:0:
260,192,114194,1,8,0:0:0:0:
260,192,114324,1,8,0:0:0:0:
260,192,114455,1,4,0:0:0:0:
260,192,114977,1,8,0:0:0:0:
260,192,115042,1,0,0:0:0:0:
260,192,115107,1,0,0:0:0:0:
260,192,115237,1,0,0:0:0:0:
260,192,115368,1,0,0:0:0:0:
260,192,115498,1,8,0:0:0:0:
260,192,116020,1,0,0:0:0:0:
260,192,116085,1,0,0:0:0:0:
260,192,116150,1,8,0:0:0:0:
260,192,116281,1,0,0:0:0:0:
260,192,116411,1,0,0:0:0:0:
260,192,116542,1,8,0:0:0:0:
260,192,116933,1,0,0:0:0:0:
260,192,117064,1,8,0:0:0:0:
260,192,117129,1,0,0:0:0:0:
260,192,117194,1,0,0:0:0:0:
260,192,117324,1,0,0:0:0:0:
260,192,117455,1,0,0:0:0:0:
260,192,117585,1,0,0:0:0:0:
260,192,117650,1,0,0:0:0:0:
260,192,117716,1,0,0:0:0:0:
260,192,117846,1,0,0:0:0:0:
260,192,118107,1,0,0:0:0:0:
260,192,118303,1,0,0:0:0:0:
260,192,118498,1,0,0:0:0:0:
260,192,118629,1,8,0:0:0:0:
260,192,119150,1,8,0:0:0:0:
260,192,119216,1,0,0:0:0:0:
260,192,119281,1,0,0:0:0:0:
260,192,119411,1,0,0:0:0:0:
260,192,119542,1,0,0:0:0:0:
260,192,119672,1,8,0:0:0:0:
260,192,120194,1,0,0:0:0:0:
260,192,120259,1,0,0:0:0:0:
260,192,120324,1,0,0:0:0:0:
260,192,120455,1,0,0:0:0:0:
260,192,120585,1,0,0:0:0:0:
260,192,120716,1,8,0:0:0:0:
260,192,121107,1,8,0:0:0:0:
260,192,121237,1,0,0:0:0:0:
260,192,121303,1,0,0:0:0:0:
260,192,121368,1,0,0:0:0:0:
260,192,121498,1,0,0:0:0:0:
260,192,121629,1,0,0:0:0:0:
260,192,121694,1,0,0:0:0:0:
260,192,121759,1,0,0:0:0:0:
260,192,121890,1,0,0:0:0:0:
260,192,122020,1,0,0:0:0:0:
260,192,122150,1,0,0:0:0:0:
260,192,122281,1,8,0:0:0:0:
260,192,122411,1,0,0:0:0:0:
260,192,122542,1,8,0:0:0:0:
260,192,122672,1,0,0:0:0:0:
260,192,122803,1,8,0:0:0:0:
260,192,122933,1,0,0:0:0:0:
260,192,123064,1,8,0:0:0:0:
260,192,123129,1,8,0:0:0:0:
260,192,123194,1,8,0:0:0:0:
260,192,123259,1,8,0:0:0:0:
260,192,123324,1,0,0:0:0:0:
260,192,123585,1,8,0:0:0:0:
260,192,123716,1,0,0:0:0:0:
260,192,123846,1,0,0:0:0:0:
260,192,123977,1,0,0:0:0:0:
260,192,124107,1,8,0:0:0:0:
260,192,124237,1,0,0:0:0:0:
260,192,124368,1,0,0:0:0:0:
260,192,124433,1,0,0:0:0:0:
260,192,124498,1,0,0:0:0:0:
260,192,124629,1,8,0:0:0:0:
260,192,124759,1,0,0:0:0:0:
260,192,124824,1,0,0:0:0:0:
260,192,124890,1,0,0:0:0:0:
260,192,125020,1,0,0:0:0:0:
260,192,125150,1,8,0:0:0:0:
260,192,125281,1,0,0:0:0:0:
260,192,125411,1,0,0:0:0:0:
260,192,125542,1,0,0:0:0:0:
260,192,125672,1,8,0:0:0:0:
260,192,125803,1,0,0:0:0:0:
260,192,125933,1,0,0:0:0:0:
260,192,126064,1,0,0:0:0:0:
260,192,126194,1,8,0:0:0:0:
260,192,126324,1,0,0:0:0:0:
260,192,126455,1,0,0:0:0:0:
260,192,126520,1,0,0:0:0:0:
260,192,126585,1,0,0:0:0:0:
260,192,126716,1,8,0:0:0:0:
260,192,126846,1,0,0:0:0:0:
260,192,126911,1,0,0:0:0:0:
260,192,126977,1,0,0:0:0:0:
260,192,127107,1,0,0:0:0:0:
260,192,127237,1,0,0:0:0:0:
260,192,127303,1,8,0:0:0:0:
260,192,127368,1,8,0:0:0:0:
260,192,127433,1,8,0:0:0:0:
260,192,127498,1,0,0:0:0:0:
260,192,127629,1,0,0:0:0:0:
260,192,127759,1,8,0:0:0:0:
260,192,127890,1,0,0:0:0:0:
260,192,128020,1,0,0:0:0:0:
260,192,128150,1,0,0:0:0:0:
260,192,128281,1,8,0:0:0:0:
260,192,128411,1,0,0:0:0:0:
260,192,128542,1,0,0:0:0:0:
260,192,128607,1,0,0:0:0:0:
260,192,128672,1,0,0:0:0:0:
260,192,128803,1,8,0:0:0:0:
260,192,128933,1,0,0:0:0:0:
260,192,128998,1,0,0:0:0:0:
260,192,129063,1,0,0:0:0:0:
260,192,129324,1,12,0:0:0:0:
260,192,129585,1,0,0:0:0:0:
260,192,129672,1,0,0:0:0:0:
260,192,129759,1,0,0:0:0:0:
260,192,129846,1,8,0:0:0:0:
260,192,129933,1,8,0:0:0:0:
260,192,130020,1,0,0:0:0:0:
260,192,130107,1,0,0:0:0:0:
260,192,130194,1,0,0:0:0:0:
260,192,130281,1,0,0:0:0:0:
260,192,130368,1,8,0:0:0:0:
260,192,130455,1,8,0:0:0:0:
260,192,130542,1,8,0:0:0:0:
260,192,130629,1,0,0:0:0:0:
260,192,130716,1,0,0:0:0:0:
260,192,130803,1,0,0:0:0:0:
260,192,130890,1,8,0:0:0:0:
260,192,130977,1,8,0:0:0:0:
260,192,131064,1,8,0:0:0:0:
260,192,131150,1,8,0:0:0:0:
260,192,131672,1,0,0:0:0:0:
260,192,131737,1,0,0:0:0:0:
260,192,131803,1,0,0:0:0:0:
260,192,132064,1,0,0:0:0:0:
260,192,132129,1,0,0:0:0:0:
260,192,132194,1,0,0:0:0:0:
260,192,132455,1,8,0:0:0:0:
260,192,132520,1,0,0:0:0:0:
260,192,132585,1,8,0:0:0:0:
260,192,132716,1,4,0:0:0:0:
260,192,133759,1,4,0:0:0:0:
260,192,134020,1,0,0:0:0:0:
260,192,134150,1,0,0:0:0:0:
260,192,134281,1,8,0:0:0:0:
256,192,134542,1,0,0:0:0:0:
256,192,134607,1,0,0:0:0:0:
256,192,134672,1,0,0:0:0:0:
260,192,134803,1,12,0:0:0:0:
260,192,135064,1,0,0:0:0:0:
260,192,135194,1,0,0:0:0:0:
260,192,135324,1,8,0:0:0:0:
260,192,135455,1,0,0:0:0:0:
260,192,135846,1,4,0:0:0:0:
260,192,136237,1,0,0:0:0:0:
260,192,136629,1,0,0:0:0:0:
260,192,136759,1,0,0:0:0:0:
260,192,136890,1,8,0:0:0:0:
260,192,137411,1,8,0:0:0:0:
260,192,137672,1,0,0:0:0:0:
260,192,137803,1,0,0:0:0:0:
260,192,137933,1,0,0:0:0:0:
260,192,137998,1,0,0:0:0:0:
260,192,138064,1,0,0:0:0:0:
260,192,138194,1,8,0:0:0:0:
260,192,138324,1,0,0:0:0:0:
260,192,138455,1,0,0:0:0:0:
260,192,138585,1,0,0:0:0:0:
260,192,138716,1,0,0:0:0:0:
260,192,138846,1,0,0:0:0:0:
260,192,138977,1,8,0:0:0:0:
256,192,139237,1,8,0:0:0:0:
256,192,139324,1,0,0:0:0:0:
256,192,139411,1,0,0:0:0:0:
256,192,139498,1,8,0:0:0:0:
256,192,139585,1,0,0:0:0:0:
256,192,139672,1,0,0:0:0:0:
256,192,139759,1,8,0:0:0:0:
256,192,139846,1,0,0:0:0:0:
256,192,139933,1,0,0:0:0:0:
256,192,140020,1,8,0:0:0:0:
256,192,140085,1,0,0:0:0:0:
256,192,140150,1,0,0:0:0:0:
256,192,140216,1,0,0:0:0:0:
256,192,140411,1,0,0:0:0:0:
256,192,140477,1,0,0:0:0:0:
256,192,140542,1,0,0:0:0:0:
256,192,140803,1,0,0:0:0:0:
256,192,140868,1,0,0:0:0:0:
256,192,140933,1,0,0:0:0:0:
256,192,140998,1,0,0:0:0:0:
256,192,141064,1,8,0:0:0:0:
256,192,141846,1,8,0:0:0:0:
256,192,142107,1,4,0:0:0:0:
256,192,142368,1,0,0:0:0:0:
256,192,142629,1,0,0:0:0:0:
256,192,142694,1,0,0:0:0:0:
256,192,142759,1,0,0:0:0:0:
256,192,142890,1,0,0:0:0:0:
256,192,143020,1,0,0:0:0:0:
256,192,143150,1,8,0:0:0:0:
256,192,143281,1,0,0:0:0:0:
256,192,143411,1,0,0:0:0:0:
256,192,143542,1,0,0:0:0:0:
256,192,143672,1,8,0:0:0:0:
256,192,143803,1,0,0:0:0:0:
256,192,144194,1,4,0:0:0:0:
256,192,144585,1,0,0:0:0:0:
256,192,144977,1,0,0:0:0:0:
256,192,145107,1,0,0:0:0:0:
256,192,145237,1,8,0:0:0:0:
256,192,145759,1,8,0:0:0:0:
256,192,145890,1,0,0:0:0:0:
256,192,146020,1,0,0:0:0:0:
256,192,146150,1,0,0:0:0:0:
256,192,146281,1,8,0:0:0:0:
256,192,146346,1,0,0:0:0:0:
256,192,146411,1,0,0:0:0:0:
256,192,146477,1,0,0:0:0:0:
256,192,146672,1,0,0:0:0:0:
256,192,146933,1,0,0:0:0:0:
256,192,147064,1,0,0:0:0:0:
256,192,147194,1,0,0:0:0:0:
256,192,147324,1,12,0:0:0:0:
256,192,147455,1,8,0:0:0:0:
256,192,147585,1,8,0:0:0:0:
256,192,147716,1,0,0:0:0:0:
256,192,147846,1,8,0:0:0:0:
256,192,147977,1,0,0:0:0:0:
256,192,148107,1,8,0:0:0:0:
256,192,148368,1,8,0:0:0:0:
256,192,148455,1,8,0:0:0:0:
256,192,148542,1,8,0:0:0:0:
256,192,148629,1,0,0:0:0:0:
256,192,148716,1,0,0:0:0:0:
252,192,148803,1,8,0:0:0:0:
252,192,148890,1,8,0:0:0:0:
252,192,148977,1,0,0:0:0:0:
256,192,149064,1,0,0:0:0:0:
256,192,149150,1,0,0:0:0:0:
256,192,149237,1,0,0:0:0:0:
256,192,149324,1,8,0:0:0:0:
256,192,149411,1,8,0:0:0:0:
256,192,149498,1,0,0:0:0:0:
256,192,149585,1,0,0:0:0:0:
256,192,149672,1,0,0:0:0:0:
256,192,149759,1,8,0:0:0:0:
256,192,149846,1,0,0:0:0:0:
256,192,149933,1,8,0:0:0:0:
256,192,150020,1,8,0:0:0:0:
256,192,150107,1,8,0:0:0:0:
256,192,150194,1,0,0:0:0:0:
256,192,150281,1,8,0:0:0:0:
252,192,150368,1,0,0:0:0:0:
252,192,150455,1,8,0:0:0:0:
252,192,150846,1,4,0:0:0:0:
252,192,151237,1,4,0:0:0:0:
252,192,151498,1,4,0:0:0:0:
252,192,151890,1,4,0:0:0:0:
252,192,152281,1,4,0:0:0:0:
252,192,152542,1,8,0:0:0:0:
252,192,152672,1,0,0:0:0:0:
252,192,152803,1,0,0:0:0:0:
252,192,152933,1,8,0:0:0:0:
252,192,153324,1,8,0:0:0:0:
252,192,153455,1,0,0:0:0:0:
252,192,153585,1,8,0:0:0:0:
252,192,153716,1,0,0:0:0:0:
252,192,153846,1,8,0:0:0:0:
252,192,153977,1,0,0:0:0:0:
252,192,154107,1,0,0:0:0:0:
252,192,154237,1,8,0:0:0:0:
252,192,154368,1,0,0:0:0:0:
252,192,154498,1,0,0:0:0:0:
252,192,154629,1,8,0:0:0:0:
252,192,154759,1,8,0:0:0:0:
252,192,154890,1,8,0:0:0:0:
252,192,155020,1,0,0:0:0:0:
252,192,155150,1,8,0:0:0:0:
252,192,155281,1,0,0:0:0:0:
252,192,155411,1,0,0:0:0:0:
252,192,155542,1,8,0:0:0:0:
252,192,155672,1,0,0:0:0:0:
252,192,155803,1,0,0:0:0:0:
252,192,155933,1,8,0:0:0:0:
252,192,156064,1,0,0:0:0:0:
252,192,156194,1,8,0:0:0:0:
252,192,156324,1,0,0:0:0:0:
256,192,156455,5,8,0:0:0:0:
260,192,156716,5,4,0:0:0:0:
252,192,156977,1,8,0:0:0:0:
256,188,157107,1,0,0:0:0:0:
256,188,157237,1,0,0:0:0:0:
256,188,157368,1,0,0:0:0:0:
252,192,157498,1,8,0:0:0:0:
256,188,157629,1,0,0:0:0:0:
260,192,157759,1,0,0:0:0:0:
260,192,157824,1,0,0:0:0:0:
260,192,157890,1,0,0:0:0:0:
256,192,158020,1,8,0:0:0:0:
260,192,158150,1,0,0:0:0:0:
260,192,158216,1,0,0:0:0:0:
260,192,158281,1,0,0:0:0:0:
256,188,158411,1,0,0:0:0:0:
256,188,158542,1,0,0:0:0:0:
256,188,158672,1,0,0:0:0:0:
256,188,158803,1,0,0:0:0:0:
256,188,158933,1,0,0:0:0:0:
260,192,159064,1,8,0:0:0:0:
256,188,159194,1,0,0:0:0:0:
256,188,159324,1,0,0:0:0:0:
256,188,159455,1,0,0:0:0:0:
260,192,159585,1,8,0:0:0:0:
256,188,159716,1,0,0:0:0:0:
260,192,159846,1,0,0:0:0:0:
260,192,159911,1,0,0:0:0:0:
260,192,159977,1,0,0:0:0:0:
256,188,160107,1,8,0:0:0:0:
260,192,160237,1,0,0:0:0:0:
260,192,160303,1,0,0:0:0:0:
260,192,160368,1,0,0:0:0:0:
256,188,160498,1,0,0:0:0:0:
256,188,160629,1,0,0:0:0:0:
256,188,160759,1,0,0:0:0:0:
256,188,160890,1,0,0:0:0:0:
256,188,161020,1,0,0:0:0:0:
252,192,161150,1,8,0:0:0:0:
256,188,161281,1,0,0:0:0:0:
256,188,161411,1,0,0:0:0:0:
256,188,161542,1,0,0:0:0:0:
252,192,161672,1,8,0:0:0:0:
256,188,161803,1,0,0:0:0:0:
260,192,161933,1,0,0:0:0:0:
260,192,161998,1,0,0:0:0:0:
260,192,162064,1,0,0:0:0:0:
256,188,162194,1,8,0:0:0:0:
260,192,162324,1,0,0:0:0:0:
260,192,162390,1,0,0:0:0:0:
260,192,162455,1,0,0:0:0:0:
248,192,162585,1,0,0:0:0:0:
252,192,162716,1,8,0:0:0:0:
248,192,162846,1,0,0:0:0:0:
260,192,162977,1,0,0:0:0:0:
260,192,163042,1,0,0:0:0:0:
260,192,163107,1,0,0:0:0:0:
252,192,163237,1,0,0:0:0:0:
248,192,163368,1,0,0:0:0:0:
260,192,163498,1,0,0:0:0:0:
260,192,163564,1,0,0:0:0:0:
260,192,163629,1,0,0:0:0:0:
260,192,163759,1,0,0:0:0:0:
260,192,163825,1,0,0:0:0:0:
260,192,163890,1,0,0:0:0:0:
248,192,164020,1,0,0:0:0:0:
256,192,164150,1,0,0:0:0:0:
256,192,164281,1,8,0:0:0:0:
256,192,164411,1,0,0:0:0:0:
260,192,164542,1,0,0:0:0:0:
260,192,164672,1,0,0:0:0:0:
256,192,164803,1,8,0:0:0:0:
260,192,165064,1,8,0:0:0:0:
260,192,165150,1,8,0:0:0:0:
260,192,165237,1,0,0:0:0:0:
260,192,165324,1,8,0:0:0:0:
260,192,165411,1,8,0:0:0:0:
260,192,165498,1,0,0:0:0:0:
260,192,165585,1,8,0:0:0:0:
256,192,165672,1,8,0:0:0:0:
256,192,165759,1,0,0:0:0:0:
256,192,165846,1,8,0:0:0:0:
256,192,165933,1,8,0:0:0:0:
256,192,166020,1,0,0:0:0:0:
256,192,166107,1,8,0:0:0:0:
256,192,166194,1,8,0:0:0:0:
256,192,166281,1,0,0:0:0:0:
256,192,166368,1,8,0:0:0:0:
256,192,166455,1,8,0:0:0:0:
256,192,166542,1,0,0:0:0:0:
256,192,166629,1,8,0:0:0:0:
256,192,166716,1,8,0:0:0:0:
256,192,166803,1,0,0:0:0:0:
256,192,166890,1,8,0:0:0:0:
256,192,166977,1,8,0:0:0:0:
256,192,167064,1,0,0:0:0:0:
256,192,167150,1,8,0:0:0:0:
256,192,167237,1,0,0:0:0:0:
256,192,167324,1,0,0:0:0:0:
256,192,167411,1,8,0:0:0:0:
256,192,167498,1,0,0:0:0:0:
256,192,167585,1,0,0:0:0:0:
256,192,167672,1,8,0:0:0:0:
256,192,167759,1,0,0:0:0:0:
256,192,167846,1,0,0:0:0:0:
256,192,167933,1,8,0:0:0:0:
256,192,168020,1,0,0:0:0:0:
256,192,168107,1,0,0:0:0:0:
256,192,168194,1,8,0:0:0:0:
256,192,168281,1,8,0:0:0:0:
256,192,168368,1,0,0:0:0:0:
256,192,168455,1,8,0:0:0:0:
256,192,168542,1,0,0:0:0:0:
256,192,168629,1,0,0:0:0:0:
256,192,168716,1,8,0:0:0:0:
256,192,168803,1,0,0:0:0:0:
256,192,168890,1,0,0:0:0:0:
256,192,168977,1,8,0:0:0:0:
256,192,169064,1,0,0:0:0:0:
256,192,169150,1,0,0:0:0:0:
256,192,169237,1,8,0:0:0:0:
256,192,169368,12,0,171324,0:0:0:0:
256,192,171585,5,0,0:0:0:0:
256,192,171716,1,8,0:0:0:0:
256,192,171846,5,0,0:0:0:0:
256,192,171911,1,0,0:0:0:0:
256,192,171977,1,0,0:0:0:0:
256,192,172107,1,0,0:0:0:0:
256,192,172237,1,0,0:0:0:0:
256,192,172368,1,8,0:0:0:0:
256,192,172498,1,0,0:0:0:0:
256,192,172629,1,0,0:0:0:0:
256,192,172759,1,0,0:0:0:0:
256,192,172890,1,8,0:0:0:0:
256,192,173020,1,0,0:0:0:0:
256,192,173150,1,8,0:0:0:0:
256,192,173216,1,0,0:0:0:0:
256,192,173281,1,0,0:0:0:0:
256,192,173346,1,0,0:0:0:0:
256,192,173411,1,8,0:0:0:0:
256,192,173542,12,0,174716,0:0:0:0:
256,192,174977,5,8,0:0:0:0:
256,192,175107,1,8,0:0:0:0:
256,192,175237,1,0,0:0:0:0:
256,192,175368,1,0,0:0:0:0:
256,192,175498,1,8,0:0:0:0:
256,192,175629,1,8,0:0:0:0:
256,192,175759,1,0,0:0:0:0:
256,192,175890,1,8,0:0:0:0:
256,192,176020,1,0,0:0:0:0:
256,192,176150,1,0,0:0:0:0:
256,192,176281,1,8,0:0:0:0:
256,192,176411,1,8,0:0:0:0:
256,192,176542,1,8,0:0:0:0:
256,192,176672,1,0,0:0:0:0:
256,192,176803,1,0,0:0:0:0:
256,192,176933,1,8,0:0:0:0:
256,192,177064,1,8,0:0:0:0:
256,192,177194,1,0,0:0:0:0:
256,192,177324,1,8,0:0:0:0:
256,192,177455,1,0,0:0:0:0:
256,192,177585,1,0,0:0:0:0:
256,192,177672,1,0,0:0:0:0:
256,192,177759,1,8,0:0:0:0:
256,192,177846,1,0,0:0:0:0:
256,192,177933,1,0,0:0:0:0:
256,192,178020,1,8,0:0:0:0:
256,192,178107,1,8,0:0:0:0:
256,192,178194,1,0,0:0:0:0:
256,192,178281,1,0,0:0:0:0:
256,192,178368,1,8,0:0:0:0:
256,192,178455,1,8,0:0:0:0:
256,192,178542,1,8,0:0:0:0:
256,192,178629,1,0,0:0:0:0:
256,192,178716,1,0,0:0:0:0:
256,192,178803,1,8,0:0:0:0:
256,192,178890,1,8,0:0:0:0:
252,196,178977,1,0,0:0:0:0:
252,196,179064,1,0,0:0:0:0:
252,196,179150,1,8,0:0:0:0:
252,196,179237,1,0,0:0:0:0:
252,196,179324,1,0,0:0:0:0:
252,196,179411,1,8,0:0:0:0:
252,196,179498,1,0,0:0:0:0:
252,196,179585,1,0,0:0:0:0:
256,192,179672,1,8,0:0:0:0:
256,192,179803,12,0,180585,0:0:0:0:
256,192,180716,5,0,0:0:0:0:
256,192,180803,1,0,0:0:0:0:
256,192,180890,1,0,0:0:0:0:
256,192,180977,1,8,0:0:0:0:
256,192,181064,1,0,0:0:0:0:
256,192,181150,1,0,0:0:0:0:
256,192,181237,1,8,0:0:0:0:
256,192,181324,1,0,0:0:0:0:
256,192,181411,1,0,0:0:0:0:
256,192,181498,1,8,0:0:0:0:
256,192,181585,1,0,0:0:0:0:
256,192,181672,1,0,0:0:0:0:
256,192,181759,1,8,0:0:0:0:
256,192,182803,1,8,0:0:0:0:
256,192,183324,1,0,0:0:0:0:
256,192,183846,1,8,0:0:0:0:
256,192,184890,1,8,0:0:0:0:
256,192,185411,1,0,0:0:0:0:
256,192,185933,1,8,0:0:0:0:
256,192,186716,1,8,0:0:0:0:
256,192,186977,1,8,0:0:0:0:
256,192,187498,1,8,0:0:0:0:
256,192,188020,1,0,0:0:0:0:
256,192,188542,1,0,0:0:0:0:
256,192,189064,1,8,0:0:0:0:
256,192,189455,1,8,0:0:0:0:
256,192,189520,1,8,0:0:0:0:
256,192,189585,1,8,0:0:0:0:
256,196,189716,1,8,0:0:0:0:
256,196,189977,1,8,0:0:0:0:
256,192,190107,1,4,0:0:0:0:
256,192,190629,1,8,0:0:0:0:
256,192,191020,1,0,0:0:0:0:
256,192,191150,1,0,0:0:0:0:
256,192,191411,1,0,0:0:0:0:
256,192,191672,1,8,0:0:0:0:
256,192,192064,1,8,0:0:0:0:
256,192,192194,1,0,0:0:0:0:
256,192,192455,1,0,0:0:0:0:
256,192,192585,1,0,0:0:0:0:
256,192,192716,1,8,0:0:0:0:
256,192,192977,1,0,0:0:0:0:
256,192,193107,1,8,0:0:0:0:
256,192,193237,1,0,0:0:0:0:
256,192,193498,1,0,0:0:0:0:
256,192,193629,1,8,0:0:0:0:
256,192,193759,1,8,0:0:0:0:
256,192,193890,1,8,0:0:0:0:
256,192,194020,1,0,0:0:0:0:
256,192,194150,1,8,0:0:0:0:
256,192,194281,1,0,0:0:0:0:
256,192,194542,1,0,0:0:0:0:
256,192,194803,1,0,0:0:0:0:
256,192,195064,1,0,0:0:0:0:
256,192,195194,1,0,0:0:0:0:
256,192,195324,1,8,0:0:0:0:
256,192,195455,1,8,0:0:0:0:
256,192,195585,1,8,0:0:0:0:
256,192,195716,1,8,0:0:0:0:
256,192,195846,1,0,0:0:0:0:
256,192,195977,1,0,0:0:0:0:
256,192,196107,1,8,0:0:0:0:
256,192,196237,1,8,0:0:0:0:
256,192,196368,1,0,0:0:0:0:
256,192,196890,1,8,0:0:0:0:
256,192,196977,1,0,0:0:0:0:
256,192,197064,1,0,0:0:0:0:
256,192,197150,1,0,0:0:0:0:
256,192,197237,1,0,0:0:0:0:
256,192,197324,1,0,0:0:0:0:
256,192,197411,1,8,0:0:0:0:
256,192,197498,1,0,0:0:0:0:
256,192,197585,1,0,0:0:0:0:
256,192,197672,1,0,0:0:0:0:
256,192,197759,1,0,0:0:0:0:
256,192,197846,1,0,0:0:0:0:
256,192,197933,1,8,0:0:0:0:
256,192,198020,1,8,0:0:0:0:
256,192,198107,1,8,0:0:0:0:
256,192,198194,1,8,0:0:0:0:
256,192,198281,1,8,0:0:0:0:
256,192,198368,1,8,0:0:0:0:
256,192,198455,1,4,0:0:0:0:
256,192,198716,1,8,0:0:0:0:
256,192,198977,1,0,0:0:0:0:
256,192,199107,1,0,0:0:0:0:
256,192,199237,1,8,0:0:0:0:
256,192,199368,1,0,0:0:0:0:
256,192,199498,1,0,0:0:0:0:
256,192,199759,1,8,0:0:0:0:
256,192,199890,1,0,0:0:0:0:
256,192,200020,1,0,0:0:0:0:
256,192,200150,1,0,0:0:0:0:
256,192,200281,1,8,0:0:0:0:
256,192,200542,1,4,0:0:0:0:
256,192,200803,1,8,0:0:0:0:
256,192,201064,1,0,0:0:0:0:
256,192,201194,1,0,0:0:0:0:
256,192,201324,1,8,0:0:0:0:
256,192,201585,1,0,0:0:0:0:
256,192,201846,1,0,0:0:0:0:
256,192,201977,1,8,0:0:0:0:
256,192,202107,1,0,0:0:0:0:
256,192,202237,1,8,0:0:0:0:
256,192,202368,1,0,0:0:0:0:
256,192,202498,1,0,0:0:0:0:
256,192,202629,1,8,0:0:0:0:
256,192,202890,1,12,0:0:0:0:
256,192,203150,1,0,0:0:0:0:
256,192,203281,1,0,0:0:0:0:
256,192,203411,1,8,0:0:0:0:
256,192,203542,1,0,0:0:0:0:
256,192,203672,1,0,0:0:0:0:
256,192,203933,1,8,0:0:0:0:
256,192,204064,1,0,0:0:0:0:
256,192,204194,1,8,0:0:0:0:
256,192,204324,1,0,0:0:0:0:
256,192,204455,1,0,0:0:0:0:
256,192,204716,1,4,0:0:0:0:
256,192,204977,1,8,0:0:0:0:
256,192,205107,1,0,0:0:0:0:
256,192,205368,1,0,0:0:0:0:
256,192,205498,1,0,0:0:0:0:
256,192,205629,1,0,0:0:0:0:
256,192,205759,1,8,0:0:0:0:
256,192,206020,1,8,0:0:0:0:
256,192,206150,1,0,0:0:0:0:
256,192,206281,1,0,0:0:0:0:
256,192,206411,1,8,0:0:0:0:
256,192,206542,1,0,0:0:0:0:
256,192,206672,1,0,0:0:0:0:
256,192,206803,1,8,0:0:0:0:
256,192,207064,1,12,0:0:0:0:
256,192,207324,1,0,0:0:0:0:
256,192,207455,1,0,0:0:0:0:
256,192,207585,1,8,0:0:0:0:
256,192,207846,1,0,0:0:0:0:
256,192,208107,1,0,0:0:0:0:
256,192,208172,1,0,0:0:0:0:
256,192,208237,1,8,0:0:0:0:
256,192,208498,1,8,0:0:0:0:
256,192,208629,1,0,0:0:0:0:
256,192,208890,1,0,0:0:0:0:
256,192,209150,1,8,0:0:0:0:
256,192,209411,1,0,0:0:0:0:
256,192,209542,1,0,0:0:0:0:
256,192,209672,1,8,0:0:0:0:
256,192,209933,1,0,0:0:0:0:
256,192,210194,1,0,0:0:0:0:
256,192,210324,1,8,0:0:0:0:
256,192,210455,1,8,0:0:0:0:
256,192,210585,1,8,0:0:0:0:
256,192,210716,1,0,0:0:0:0:
256,192,210977,1,4,0:0:0:0:
256,192,211237,1,8,0:0:0:0:
256,192,211498,1,0,0:0:0:0:
256,192,211629,1,0,0:0:0:0:
256,192,211759,1,8,0:0:0:0:
256,192,212020,1,0,0:0:0:0:
256,192,212281,1,0,0:0:0:0:
256,192,212411,1,0,0:0:0:0:
256,192,212542,1,8,0:0:0:0:
256,192,212672,1,0,0:0:0:0:
256,192,212803,1,0,0:0:0:0:
256,192,213064,1,4,0:0:0:0:
256,192,213324,1,0,0:0:0:0:
256,192,213585,1,8,0:0:0:0:
256,192,213716,1,0,0:0:0:0:
256,192,213846,1,8,0:0:0:0:
256,192,213977,1,8,0:0:0:0:
256,192,214107,1,8,0:0:0:0:
256,192,214194,1,0,0:0:0:0:
256,192,214281,1,0,0:0:0:0:
256,192,214368,1,8,0:0:0:0:
256,192,214455,1,0,0:0:0:0:
256,192,214542,1,0,0:0:0:0:
256,192,214629,1,8,0:0:0:0:
256,192,214716,1,0,0:0:0:0:
256,192,214803,1,0,0:0:0:0:
256,192,214890,1,0,0:0:0:0:
256,192,214977,1,0,0:0:0:0:
256,192,215150,5,4,0:0:0:0:
256,192,215411,1,8,0:0:0:0:
256,192,215542,1,0,0:0:0:0:
256,192,215672,1,0,0:0:0:0:
256,192,215803,1,0,0:0:0:0:
256,192,215933,1,8,0:0:0:0:
256,192,216064,1,0,0:0:0:0:
256,192,216195,1,0,0:0:0:0:
256,192,216325,1,0,0:0:0:0:
256,192,216456,1,8,0:0:0:0:
256,192,216586,1,0,0:0:0:0:
256,192,216716,1,8,0:0:0:0:
256,192,216847,1,0,0:0:0:0:
256,192,216977,1,8,0:0:0:0:
256,192,217108,1,0,0:0:0:0:
256,192,217238,1,8,0:0:0:0:
256,192,217368,1,0,0:0:0:0:
256,192,217499,1,0,0:0:0:0:
256,192,217629,1,0,0:0:0:0:
256,192,217760,1,0,0:0:0:0:
256,192,217890,1,0,0:0:0:0:
256,192,218020,1,8,0:0:0:0:
256,192,218151,1,0,0:0:0:0:
256,192,218281,1,0,0:0:0:0:
256,192,218412,1,0,0:0:0:0:
256,192,218542,1,8,0:0:0:0:
256,192,218672,1,0,0:0:0:0:
256,192,218803,1,8,0:0:0:0:
256,192,218933,1,0,0:0:0:0:
256,192,219064,1,8,0:0:0:0:
256,192,219194,1,0,0:0:0:0:
256,192,219324,1,8,0:0:0:0:
256,192,219455,1,0,0:0:0:0:
256,192,219585,1,0,0:0:0:0:
256,192,219716,1,0,0:0:0:0:
256,192,219846,1,0,0:0:0:0:
256,192,219977,1,0,0:0:0:0:
256,192,220108,1,8,0:0:0:0:
256,192,220238,1,0,0:0:0:0:
256,192,220369,1,0,0:0:0:0:
256,192,220499,1,0,0:0:0:0:
256,192,220629,1,8,0:0:0:0:
256,192,220760,1,0,0:0:0:0:
256,192,220890,1,8,0:0:0:0:
256,192,221021,1,0,0:0:0:0:
256,192,221151,1,8,0:0:0:0:
256,192,221281,1,0,0:0:0:0:
256,192,221412,1,8,0:0:0:0:
256,192,221542,1,0,0:0:0:0:
256,192,221673,1,8,0:0:0:0:
256,192,221803,1,0,0:0:0:0:
256,192,221933,1,8,0:0:0:0:
256,192,222064,1,0,0:0:0:0:
256,192,222194,1,8,0:0:0:0:
256,192,222325,1,0,0:0:0:0:
256,192,222455,1,8,0:0:0:0:
256,192,222585,1,0,0:0:0:0:
256,192,222716,1,8,0:0:0:0:
256,192,222846,1,8,0:0:0:0:
256,192,222977,1,8,0:0:0:0:
256,192,223107,1,8,0:0:0:0:
256,192,223237,1,0,0:0:0:0:
256,192,223368,1,8,0:0:0:0:
256,192,223498,1,0,0:0:0:0:
256,192,223629,1,0,0:0:0:0:
256,192,223759,1,8,0:0:0:0:
256,192,223890,1,0,0:0:0:0:
256,192,224021,1,0,0:0:0:0:
256,192,224151,1,0,0:0:0:0:
256,192,224282,1,8,0:0:0:0:
256,192,224412,1,0,0:0:0:0:
256,192,224542,1,0,0:0:0:0:
256,192,224673,1,0,0:0:0:0:
256,192,224803,1,8,0:0:0:0:
256,192,224934,1,0,0:0:0:0:
256,192,225064,1,8,0:0:0:0:
256,192,225194,1,0,0:0:0:0:
256,192,225325,1,8,0:0:0:0:
256,192,225455,1,0,0:0:0:0:
256,192,225586,1,8,0:0:0:0:
256,192,225716,1,0,0:0:0:0:
256,192,225846,1,0,0:0:0:0:
256,192,225977,1,0,0:0:0:0:
256,192,226107,1,0,0:0:0:0:
256,192,226238,1,0,0:0:0:0:
256,192,226368,1,8,0:0:0:0:
256,192,226498,1,0,0:0:0:0:
256,192,226629,1,0,0:0:0:0:
256,192,226759,1,0,0:0:0:0:
256,192,226890,1,8,0:0:0:0:
256,192,227020,1,0,0:0:0:0:
256,192,227150,1,8,0:0:0:0:
256,192,227281,1,0,0:0:0:0:
256,192,227411,1,8,0:0:0:0:
256,192,227542,1,0,0:0:0:0:
256,192,227672,5,8,0:0:0:0:
256,192,227803,1,0,0:0:0:0:
256,192,227933,1,0,0:0:0:0:
256,192,228064,1,0,0:0:0:0:
256,192,228194,1,0,0:0:0:0:
256,192,228324,1,0,0:0:0:0:
256,192,228455,1,8,0:0:0:0:
256,192,228585,1,0,0:0:0:0:
256,192,228716,1,0,0:0:0:0:
256,192,228847,1,0,0:0:0:0:
256,192,228977,1,8,0:0:0:0:
256,192,229108,1,0,0:0:0:0:
256,192,229238,1,8,0:0:0:0:
256,192,229368,1,0,0:0:0:0:
256,192,229499,1,8,0:0:0:0:
256,192,229629,1,0,0:0:0:0:
256,192,229759,1,0,0:0:0:0:
256,192,229824,1,0,0:0:0:0:
256,192,229890,1,0,0:0:0:0:
256,192,229955,1,0,0:0:0:0:
256,192,230020,1,8,0:0:0:0:
256,192,230150,1,0,0:0:0:0:
256,192,230281,1,8,0:0:0:0:
256,192,230411,1,0,0:0:0:0:
256,192,230542,1,0,0:0:0:0:
256,192,230672,1,0,0:0:0:0:
256,192,230803,1,8,0:0:0:0:
256,192,230933,1,0,0:0:0:0:
256,192,231064,1,0,0:0:0:0:
256,192,231194,1,0,0:0:0:0:
256,192,231324,1,8,0:0:0:0:
256,192,231455,1,0,0:0:0:0:
256,192,231585,1,0,0:0:0:0:
256,192,231716,1,0,0:0:0:0:
260,192,231846,1,8,0:0:0:0:
260,192,231911,1,0,0:0:0:0:
260,192,231976,1,0,0:0:0:0:
260,192,232106,1,0,0:0:0:0:
260,192,232237,1,0,0:0:0:0:
260,192,232367,1,8,0:0:0:0:
260,192,232889,1,0,0:0:0:0:
260,192,232954,1,0,0:0:0:0:
260,192,233019,1,8,0:0:0:0:
260,192,233150,1,0,0:0:0:0:
260,192,233280,1,0,0:0:0:0:
260,192,233411,1,8,0:0:0:0:
260,192,233802,1,0,0:0:0:0:
260,192,233933,1,8,0:0:0:0:
260,192,233998,1,0,0:0:0:0:
260,192,234063,1,0,0:0:0:0:
260,192,234193,1,0,0:0:0:0:
260,192,234324,1,0,0:0:0:0:
260,192,234454,1,0,0:0:0:0:
260,192,234519,1,0,0:0:0:0:
260,192,234585,1,0,0:0:0:0:
260,192,234715,1,0,0:0:0:0:
260,192,234976,1,0,0:0:0:0:
260,192,235172,1,0,0:0:0:0:
260,192,235367,1,0,0:0:0:0:
260,192,235498,1,8,0:0:0:0:
260,192,236019,1,8,0:0:0:0:
260,192,236085,1,0,0:0:0:0:
260,192,236150,1,0,0:0:0:0:
260,192,236280,1,0,0:0:0:0:
260,192,236411,1,0,0:0:0:0:
260,192,236541,1,8,0:0:0:0:
260,192,237063,1,0,0:0:0:0:
260,192,237128,1,0,0:0:0:0:
260,192,237193,1,0,0:0:0:0:
260,192,237324,1,0,0:0:0:0:
260,192,237454,1,0,0:0:0:0:
260,192,237585,1,8,0:0:0:0:
260,192,237976,1,8,0:0:0:0:
260,192,238106,1,0,0:0:0:0:
260,192,238172,1,0,0:0:0:0:
260,192,238237,1,0,0:0:0:0:
260,192,238367,1,0,0:0:0:0:
260,192,238498,1,0,0:0:0:0:
260,192,238563,1,0,0:0:0:0:
260,192,238628,1,0,0:0:0:0:
260,192,238759,1,0,0:0:0:0:
260,192,238889,1,0,0:0:0:0:
260,192,239019,1,0,0:0:0:0:
260,192,239150,1,8,0:0:0:0:
260,192,239280,1,0,0:0:0:0:
260,192,239411,1,8,0:0:0:0:
260,192,239541,1,0,0:0:0:0:
260,192,239672,1,8,0:0:0:0:
260,192,239802,1,8,0:0:0:0:
260,192,239933,1,0,0:0:0:0:
260,192,239998,1,0,0:0:0:0:
260,192,240063,1,0,0:0:0:0:
260,192,240129,1,0,0:0:0:0:
260,192,240194,1,8,0:0:0:0:
260,192,240324,1,0,0:0:0:0:
260,192,240455,1,8,0:0:0:0:
260,192,240585,1,0,0:0:0:0:
260,192,240716,1,0,0:0:0:0:
260,192,240846,1,0,0:0:0:0:
260,192,240977,1,8,0:0:0:0:
260,192,241107,1,0,0:0:0:0:
260,192,241237,1,0,0:0:0:0:
260,192,241303,1,0,0:0:0:0:
260,192,241368,1,0,0:0:0:0:
260,192,241498,1,8,0:0:0:0:
260,192,241629,1,0,0:0:0:0:
260,192,241694,1,0,0:0:0:0:
260,192,241759,1,0,0:0:0:0:
260,192,241890,1,8,0:0:0:0:
260,192,242020,1,8,0:0:0:0:
260,192,242150,1,0,0:0:0:0:
260,192,242281,1,0,0:0:0:0:
260,192,242411,1,0,0:0:0:0:
260,192,242542,1,8,0:0:0:0:
260,192,242672,1,0,0:0:0:0:
260,192,242803,1,0,0:0:0:0:
260,192,242933,1,0,0:0:0:0:
260,192,243064,1,8,0:0:0:0:
260,192,243194,1,0,0:0:0:0:
260,192,243324,1,0,0:0:0:0:
260,192,243390,1,0,0:0:0:0:
260,192,243455,1,0,0:0:0:0:
260,192,243585,1,8,0:0:0:0:
260,192,243716,1,0,0:0:0:0:
260,192,243781,1,0,0:0:0:0:
260,192,243846,1,0,0:0:0:0:
260,192,243977,1,0,0:0:0:0:
260,192,244107,1,8,0:0:0:0:
260,192,244172,1,8,0:0:0:0:
260,192,244237,1,8,0:0:0:0:
260,192,244303,1,0,0:0:0:0:
260,192,244368,1,8,0:0:0:0:
260,192,244498,1,0,0:0:0:0:
260,192,244629,1,8,0:0:0:0:
260,192,244759,1,0,0:0:0:0:
260,192,244890,1,0,0:0:0:0:
260,192,245020,1,0,0:0:0:0:
260,192,245150,1,8,0:0:0:0:
260,192,245281,1,0,0:0:0:0:
260,192,245411,1,0,0:0:0:0:
260,192,245477,1,0,0:0:0:0:
260,192,245542,1,0,0:0:0:0:
260,192,245672,1,8,0:0:0:0:
260,192,245803,1,0,0:0:0:0:
260,192,245868,1,0,0:0:0:0:
260,192,245933,1,8,0:0:0:0:
260,192,246194,1,8,0:0:0:0:
260,192,246455,1,8,0:0:0:0:
260,192,246542,1,8,0:0:0:0:
260,192,246629,1,0,0:0:0:0:
260,192,246716,1,0,0:0:0:0:
260,192,246803,1,0,0:0:0:0:
260,192,246890,1,0,0:0:0:0:
260,192,246977,1,8,0:0:0:0:
260,192,247064,1,8,0:0:0:0:
260,192,247150,1,0,0:0:0:0:
260,192,247237,1,8,0:0:0:0:
260,192,247324,1,8,0:0:0:0:
260,192,247411,1,0,0:0:0:0:
260,192,247498,1,8,0:0:0:0:
260,192,247585,1,0,0:0:0:0:
260,192,247672,1,0,0:0:0:0:
260,192,247759,1,0,0:0:0:0:
260,192,247846,1,0,0:0:0:0:
260,192,247933,1,8,0:0:0:0:
260,192,248020,1,8,0:0:0:0:
260,192,248542,1,0,0:0:0:0:
260,192,248607,1,0,0:0:0:0:
260,192,248673,1,0,0:0:0:0:
260,192,248934,1,0,0:0:0:0:
260,192,248999,1,8,0:0:0:0:
260,192,249064,1,0,0:0:0:0:
260,192,249325,1,0,0:0:0:0:
260,192,249390,1,0,0:0:0:0:
260,192,249455,1,8,0:0:0:0:
260,192,249586,1,4,0:0:0:0:
260,192,250629,1,4,0:0:0:0:
260,192,250890,1,0,0:0:0:0:
260,192,251020,1,0,0:0:0:0:
260,192,251151,1,8,0:0:0:0:
256,192,251216,1,0,0:0:0:0:
256,192,251281,1,0,0:0:0:0:
256,192,251346,1,0,0:0:0:0:
260,192,251673,1,12,0:0:0:0:
260,192,251934,1,0,0:0:0:0:
260,192,252064,1,0,0:0:0:0:
260,192,252194,1,8,0:0:0:0:
260,192,252325,1,0,0:0:0:0:
260,192,252716,1,4,0:0:0:0:
260,192,253107,1,0,0:0:0:0:
260,192,253499,1,0,0:0:0:0:
260,192,253629,1,0,0:0:0:0:
260,192,253760,1,8,0:0:0:0:
260,192,254281,1,8,0:0:0:0:
260,192,254542,1,0,0:0:0:0:
260,192,254673,1,0,0:0:0:0:
260,192,254803,1,0,0:0:0:0:
260,192,254868,1,0,0:0:0:0:
260,192,254934,1,0,0:0:0:0:
260,192,255064,1,8,0:0:0:0:
260,192,255194,1,0,0:0:0:0:
260,192,255325,1,0,0:0:0:0:
260,192,255455,1,0,0:0:0:0:
260,192,255586,1,0,0:0:0:0:
260,192,255716,1,0,0:0:0:0:
260,192,255847,1,8,0:0:0:0:
256,192,256107,1,8,0:0:0:0:
256,192,256194,1,0,0:0:0:0:
256,192,256281,1,0,0:0:0:0:
256,192,256368,1,8,0:0:0:0:
256,192,256455,1,0,0:0:0:0:
256,192,256542,1,0,0:0:0:0:
256,192,256629,1,8,0:0:0:0:
256,192,256716,1,0,0:0:0:0:
256,192,256803,1,0,0:0:0:0:
256,192,256890,1,8,0:0:0:0:
256,192,256955,1,0,0:0:0:0:
256,192,257020,1,0,0:0:0:0:
256,192,257086,1,0,0:0:0:0:
256,192,257281,1,0,0:0:0:0:
256,192,257347,1,0,0:0:0:0:
256,192,257412,1,0,0:0:0:0:
256,192,257672,1,8,0:0:0:0:
256,192,257737,1,0,0:0:0:0:
256,192,257802,1,0,0:0:0:0:
256,192,257868,1,0,0:0:0:0:
256,192,257933,1,8,0:0:0:0:
256,192,258716,1,8,0:0:0:0:
256,192,258977,1,4,0:0:0:0:
256,192,259238,1,0,0:0:0:0:
256,192,259499,1,0,0:0:0:0:
256,192,259564,1,0,0:0:0:0:
256,192,259629,1,0,0:0:0:0:
256,192,259760,1,0,0:0:0:0:
256,192,259890,1,0,0:0:0:0:
256,192,260020,1,8,0:0:0:0:
256,192,260151,1,0,0:0:0:0:
256,192,260281,1,0,0:0:0:0:
256,192,260412,1,0,0:0:0:0:
256,192,260542,1,8,0:0:0:0:
256,192,260673,1,0,0:0:0:0:
256,192,261064,1,4,0:0:0:0:
256,192,261455,1,0,0:0:0:0:
256,192,261847,1,0,0:0:0:0:
256,192,261977,1,0,0:0:0:0:
256,192,262107,1,8,0:0:0:0:
256,192,262629,1,8,0:0:0:0:
256,192,262760,1,0,0:0:0:0:
256,192,262890,1,0,0:0:0:0:
256,192,263020,1,0,0:0:0:0:
256,192,263151,1,8,0:0:0:0:
256,192,263216,1,0,0:0:0:0:
256,192,263281,1,0,0:0:0:0:
256,192,263347,1,0,0:0:0:0:
256,192,263542,1,0,0:0:0:0:
256,192,263803,1,0,0:0:0:0:
256,192,263934,1,0,0:0:0:0:
256,192,264064,1,0,0:0:0:0:
256,192,264194,1,12,0:0:0:0:
256,192,264325,1,8,0:0:0:0:
256,192,264455,1,8,0:0:0:0:
256,192,264586,1,0,0:0:0:0:
256,192,264716,1,8,0:0:0:0:
256,192,264847,1,0,0:0:0:0:
256,192,264977,1,8,0:0:0:0:
256,192,265237,1,4,0:0:0:0:
256,192,266281,1,4,0:0:0:0:
256,192,267324,1,4,0:0:0:0:
256,192,268368,1,4,0:0:0:0:
256,192,268629,1,0,0:0:0:0:
256,192,268759,1,0,0:0:0:0:
256,192,268890,1,8,0:0:0:0:
256,192,269020,1,0,0:0:0:0:
256,192,269411,1,4,0:0:0:0:
256,192,270455,1,4,0:0:0:0:
256,192,271498,1,8,0:0:0:0:
256,192,271694,1,0,0:0:0:0:
256,192,271890,1,0,0:0:0:0:
256,192,272085,1,8,0:0:0:0:
256,192,272216,1,0,0:0:0:0:
256,192,272411,1,0,0:0:0:0:
256,192,272542,1,8,0:0:0:0:
256,192,272933,1,0,0:0:0:0:
256,192,273064,1,0,0:0:0:0:
256,192,273324,1,8,0:0:0:0:
256,192,273455,1,0,0:0:0:0:
256,192,273585,1,8,0:0:0:0:
256,192,274629,1,4,0:0:0:0:
256,192,275672,1,4,0:0:0:0:
256,192,276716,1,4,0:0:0:0:
268,192,277237,1,8,0:0:0:0:
268,192,277498,1,8,0:0:0:0:
268,192,277629,1,0,0:0:0:0:
268,192,277759,1,0,0:0:0:0:
256,192,278020,1,8,0:0:0:0:
256,192,278281,1,8,0:0:0:0:
256,192,278542,1,0,0:0:0:0:
256,192,278672,1,0,0:0:0:0:
256,192,278803,1,8,0:0:0:0:
256,192,279064,1,0,0:0:0:0:
256,192,279194,1,0,0:0:0:0:
256,192,279324,1,8,0:0:0:0:
256,192,279455,1,0,0:0:0:0:
256,192,279846,1,4,0:0:0:0:
256,192,280107,1,8,0:0:0:0:
256,192,280194,1,8,0:0:0:0:
256,192,280281,1,8,0:0:0:0:
256,192,280368,1,8,0:0:0:0:
256,192,280455,1,8,0:0:0:0:
256,192,280542,1,8,0:0:0:0:
256,192,280629,1,0,0:0:0:0:
256,192,280716,1,0,0:0:0:0:
256,192,280803,1,8,0:0:0:0:
256,192,280890,1,0,0:0:0:0:
256,192,280977,1,0,0:0:0:0:
256,192,281064,1,8,0:0:0:0:
256,192,281150,1,0,0:0:0:0:
256,192,281237,1,0,0:0:0:0:
256,192,281324,1,8,0:0:0:0:
256,192,281411,1,0,0:0:0:0:
256,192,281933,1,0,0:0:0:0:
256,192,282063,1,0,0:0:0:0:
256,192,282194,1,8,0:0:0:0:
256,192,282324,1,0,0:0:0:0:
256,192,282455,1,0,0:0:0:0:
256,192,282585,1,0,0:0:0:0:
256,192,282715,1,8,0:0:0:0:
256,192,282846,1,0,0:0:0:0:
256,192,282976,1,8,0:0:0:0:
256,192,283042,1,0,0:0:0:0:
256,192,283107,1,8,0:0:0:0:
256,192,283237,1,8,0:0:0:0:
256,192,283368,1,0,0:0:0:0:
256,192,283433,1,0,0:0:0:0:
256,192,283498,1,8,0:0:0:0:
256,192,283629,1,0,0:0:0:0:
256,192,283759,1,8,0:0:0:0:
256,192,283889,1,0,0:0:0:0:
256,192,284020,1,0,0:0:0:0:
256,192,284150,1,0,0:0:0:0:
256,192,284281,1,8,0:0:0:0:
256,192,284411,1,0,0:0:0:0:
256,192,284542,1,8,0:0:0:0:
256,192,284672,1,8,0:0:0:0:
256,192,284802,1,0,0:0:0:0:
256,192,284933,1,0,0:0:0:0:
256,192,285063,1,0,0:0:0:0:
256,192,285129,1,0,0:0:0:0:
256,192,285194,1,8,0:0:0:0:
256,192,285324,1,0,0:0:0:0:
256,192,285455,1,0,0:0:0:0:
256,192,285520,1,0,0:0:0:0:
256,192,285585,1,8,0:0:0:0:
256,192,285716,1,0,0:0:0:0:
256,192,285846,1,8,0:0:0:0:
256,192,285911,1,8,0:0:0:0:
256,192,285976,1,8,0:0:0:0:
256,192,286107,1,12,0:0:0:0:
256,192,286237,1,0,0:0:0:0:
256,192,286368,1,8,0:0:0:0:
256,192,286498,1,0,0:0:0:0:
256,192,286629,1,8,0:0:0:0:
256,192,286759,1,0,0:0:0:0:
256,192,286889,1,0,0:0:0:0:
256,192,287020,1,0,0:0:0:0:
256,192,287150,1,8,0:0:0:0:
256,192,287216,1,0,0:0:0:0:
256,192,287281,1,0,0:0:0:0:
256,192,287411,1,0,0:0:0:0:
256,192,287542,1,0,0:0:0:0:
256,192,287607,1,0,0:0:0:0:
256,192,287672,1,8,0:0:0:0:
256,192,287802,1,0,0:0:0:0:
256,192,287933,1,0,0:0:0:0:
256,192,288063,1,0,0:0:0:0:
256,192,288194,1,0,0:0:0:0:
256,192,288259,1,0,0:0:0:0:
256,192,288324,1,0,0:0:0:0:
256,192,288455,1,8,0:0:0:0:
256,192,288585,1,0,0:0:0:0:
256,192,288650,1,0,0:0:0:0:
256,192,288715,1,0,0:0:0:0:
256,192,288846,1,0,0:0:0:0:
256,192,288911,1,0,0:0:0:0:
256,192,288976,1,8,0:0:0:0:
256,192,289107,1,0,0:0:0:0:
256,192,289237,1,8,0:0:0:0:
256,192,289368,1,8,0:0:0:0:
256,192,289498,1,0,0:0:0:0:
256,192,289629,1,0,0:0:0:0:
256,192,289759,1,8,0:0:0:0:
256,192,289889,1,0,0:0:0:0:
256,192,290020,1,8,0:0:0:0:
256,192,290150,1,0,0:0:0:0:
256,192,290281,1,12,0:0:0:0:
256,192,290411,1,0,0:0:0:0:
256,192,290542,1,0,0:0:0:0:
256,192,290672,1,0,0:0:0:0:
256,192,290802,1,8,0:0:0:0:
256,192,290933,1,0,0:0:0:0:
256,192,291063,1,8,0:0:0:0:
256,192,291194,1,0,0:0:0:0:
256,192,291324,1,8,0:0:0:0:
256,192,291390,1,0,0:0:0:0:
256,192,291455,1,0,0:0:0:0:
256,192,291585,1,0,0:0:0:0:
256,192,291715,1,0,0:0:0:0:
256,192,291781,1,0,0:0:0:0:
256,192,291846,1,0,0:0:0:0:
256,192,291976,1,0,0:0:0:0:
256,192,292107,1,8,0:0:0:0:
256,192,292237,1,0,0:0:0:0:
256,192,292368,1,8,0:0:0:0:
256,192,292498,1,0,0:0:0:0:
256,192,292629,1,0,0:0:0:0:
256,192,292759,1,0,0:0:0:0:
256,192,292889,1,8,0:0:0:0:
256,192,293020,1,0,0:0:0:0:
256,192,293150,1,0,0:0:0:0:
256,192,293281,1,0,0:0:0:0:
256,192,293411,1,0,0:0:0:0:
256,192,293477,1,0,0:0:0:0:
256,192,293542,1,0,0:0:0:0:
256,192,293672,1,8,0:0:0:0:
256,192,293802,1,0,0:0:0:0:
256,192,293868,1,0,0:0:0:0:
256,192,293933,1,0,0:0:0:0:
256,192,294064,1,0,0:0:0:0:
256,192,294194,1,8,0:0:0:0:
256,192,294259,1,0,0:0:0:0:
256,192,294324,1,0,0:0:0:0:
256,192,294389,1,0,0:0:0:0:
256,192,294455,1,8,0:0:0:0:
256,192,294585,1,8,0:0:0:0:
256,192,294715,1,0,0:0:0:0:
256,192,294846,1,0,0:0:0:0:
256,192,294976,1,8,0:0:0:0:
256,192,295107,1,0,0:0:0:0:
256,192,295237,1,0,0:0:0:0:
256,192,295368,1,0,0:0:0:0:
256,192,295498,1,8,0:0:0:0:
256,192,295564,1,0,0:0:0:0:
256,192,295629,1,0,0:0:0:0:
256,192,295759,1,0,0:0:0:0:
256,192,295889,1,0,0:0:0:0:
256,192,295955,1,0,0:0:0:0:
256,192,296020,1,8,0:0:0:0:
256,192,296150,1,0,0:0:0:0:
256,192,296281,1,0,0:0:0:0:
256,192,296411,1,8,0:0:0:0:
256,192,296542,1,8,0:0:0:0:
256,192,296607,1,0,0:0:0:0:
256,192,296672,1,0,0:0:0:0:
256,192,296737,1,0,0:0:0:0:
256,192,296803,1,0,0:0:0:0:
256,192,296868,1,0,0:0:0:0:
256,192,296933,1,8,0:0:0:0:
256,192,296998,1,8,0:0:0:0:
256,192,297064,1,0,0:0:0:0:
256,192,297129,1,8,0:0:0:0:
256,192,297194,1,0,0:0:0:0:
256,192,297259,1,0,0:0:0:0:
256,192,297325,1,8,0:0:0:0:
256,192,297390,1,0,0:0:0:0:
256,192,297455,1,8,0:0:0:0:
256,192,297585,1,0,0:0:0:0:
256,192,297716,1,0,0:0:0:0:
256,192,297846,1,8,0:0:0:0:
256,192,297977,1,8,0:0:0:0:
256,192,298107,1,0,0:0:0:0:
256,192,298238,1,8,0:0:0:0:
256,192,298368,1,0,0:0:0:0:
256,192,298499,1,0,0:0:0:0:
256,192,298629,1,8,0:0:0:0:
256,192,298694,1,0,0:0:0:0:
256,192,298759,1,0,0:0:0:0:
256,192,298824,1,0,0:0:0:0:
256,192,299411,1,8,0:0:0:0:
256,192,299476,1,0,0:0:0:0:
256,192,299542,1,0,0:0:0:0:
256,192,299607,1,0,0:0:0:0:
256,192,299672,1,8,0:0:0:0:
256,192,299933,1,8,0:0:0:0:
256,192,300194,1,8,0:0:0:0:
256,192,300259,1,0,0:0:0:0:
256,192,300324,1,0,0:0:0:0:
256,192,300389,1,0,0:0:0:0:
256,192,300715,1,8,0:0:0:0:
256,192,300781,1,0,0:0:0:0:
256,192,300846,1,0,0:0:0:0:
256,192,300911,1,8,0:0:0:0:
256,192,301498,1,0,0:0:0:0:
256,192,301563,1,0,0:0:0:0:
256,192,301629,1,0,0:0:0:0:
256,192,301694,1,0,0:0:0:0:
256,192,301759,1,8,0:0:0:0:
256,192,302020,1,0,0:0:0:0:
256,192,302194,1,0,0:0:0:0:
256,192,302281,1,8,0:0:0:0:
256,192,302368,1,0,0:0:0:0:
256,192,302455,1,0,0:0:0:0:
256,192,302542,1,8,0:0:0:0:
256,192,302629,1,0,0:0:0:0:
256,192,302716,1,0,0:0:0:0:
256,192,302803,1,8,0:0:0:0:
256,192,302890,1,0,0:0:0:0:
256,192,302977,1,0,0:0:0:0:
256,192,303064,1,0,0:0:0:0:
256,192,303585,1,0,0:0:0:0:
256,192,303650,1,0,0:0:0:0:
256,192,303715,1,0,0:0:0:0:
256,192,303781,1,0,0:0:0:0:
256,192,303846,1,0,0:0:0:0:
256,192,304107,1,0,0:0:0:0:
256,192,304368,1,8,0:0:0:0:
256,192,304433,1,0,0:0:0:0:
256,192,304498,1,0,0:0:0:0:
256,192,304563,1,0,0:0:0:0:
256,192,304889,1,8,0:0:0:0:
256,192,304955,1,0,0:0:0:0:
256,192,305020,1,0,0:0:0:0:
256,192,305085,1,0,0:0:0:0:
256,192,305411,1,0,0:0:0:0:
256,192,305672,1,0,0:0:0:0:
256,192,305933,1,8,0:0:0:0:
256,192,306020,1,8,0:0:0:0:
256,192,306107,1,0,0:0:0:0:
256,192,306194,1,8,0:0:0:0:
256,192,306281,1,8,0:0:0:0:
256,192,306368,1,0,0:0:0:0:
256,192,306455,1,8,0:0:0:0:
256,192,306542,1,8,0:0:0:0:
256,192,306629,1,0,0:0:0:0:
256,192,306716,1,8,0:0:0:0:
256,196,306803,1,8,0:0:0:0:
256,192,306890,1,0,0:0:0:0:
256,192,306977,1,0,0:0:0:0:
256,192,307064,1,0,0:0:0:0:
256,192,307150,1,0,0:0:0:0:
256,192,307237,1,0,0:0:0:0:
256,192,307759,1,0,0:0:0:0:
256,192,307824,1,0,0:0:0:0:
256,192,307889,1,0,0:0:0:0:
256,192,307955,1,0,0:0:0:0:
256,192,308020,1,0,0:0:0:0:
256,192,308281,1,0,0:0:0:0:
256,192,308542,1,0,0:0:0:0:
256,192,308607,1,0,0:0:0:0:
256,192,308672,1,0,0:0:0:0:
256,192,308737,1,0,0:0:0:0:
256,192,309063,1,8,0:0:0:0:
256,192,309129,1,0,0:0:0:0:
256,192,309194,1,0,0:0:0:0:
256,192,309259,1,0,0:0:0:0:
256,192,309846,1,0,0:0:0:0:
256,192,309911,1,0,0:0:0:0:
256,192,309976,1,0,0:0:0:0:
256,192,310042,1,0,0:0:0:0:
256,192,310107,1,0,0:0:0:0:
256,192,310368,1,0,0:0:0:0:
256,192,310542,1,0,0:0:0:0:
256,192,310629,1,8,0:0:0:0:
256,192,310716,1,0,0:0:0:0:
256,192,310803,1,0,0:0:0:0:
256,192,310889,1,8,0:0:0:0:
256,192,310977,1,0,0:0:0:0:
256,192,311064,1,0,0:0:0:0:
256,192,311150,1,8,0:0:0:0:
256,192,311237,1,0,0:0:0:0:
256,192,311324,1,0,0:0:0:0:
256,192,311411,1,0,0:0:0:0:
256,192,311933,1,0,0:0:0:0:
256,192,311998,1,0,0:0:0:0:
256,192,312063,1,0,0:0:0:0:
256,192,312129,1,0,0:0:0:0:
256,192,312194,1,8,0:0:0:0:
256,192,312455,1,0,0:0:0:0:
256,192,312715,1,8,0:0:0:0:
256,192,312781,1,0,0:0:0:0:
256,192,312846,1,0,0:0:0:0:
256,192,312911,1,8,0:0:0:0:
256,192,313237,1,8,0:0:0:0:
256,192,313302,1,8,0:0:0:0:
256,192,313368,1,8,0:0:0:0:
256,192,313433,1,8,0:0:0:0:
256,192,313759,1,8,0:0:0:0:
256,192,314020,1,8,0:0:0:0:
256,192,314150,1,0,0:0:0:0:
256,192,314281,1,8,0:0:0:0:
256,192,314368,1,0,0:0:0:0:
256,192,314455,1,0,0:0:0:0:
256,192,314542,1,8,0:0:0:0:
256,192,314629,1,0,0:0:0:0:
256,192,314716,1,0,0:0:0:0:
256,192,314803,1,8,0:0:0:0:
256,192,314890,1,0,0:0:0:0:
256,192,314977,1,0,0:0:0:0:
256,192,315064,1,0,0:0:0:0:
256,192,315150,1,8,0:0:0:0:
256,192,315237,1,0,0:0:0:0:
256,192,315324,1,0,0:0:0:0:
256,192,315846,1,0,0:0:0:0:
256,192,315911,1,0,0:0:0:0:
256,192,315977,1,0,0:0:0:0:
256,192,316107,1,0,0:0:0:0:
256,192,316237,1,0,0:0:0:0:
256,192,316368,1,8,0:0:0:0:
256,192,316455,1,8,0:0:0:0:
256,192,316542,1,0,0:0:0:0:
256,192,316629,1,0,0:0:0:0:
256,192,316716,1,8,0:0:0:0:
256,192,316803,1,0,0:0:0:0:
256,192,316890,1,8,0:0:0:0:
256,192,316977,1,0,0:0:0:0:
256,192,317064,1,0,0:0:0:0:
256,192,317150,1,8,0:0:0:0:
256,192,317237,1,8,0:0:0:0:
256,192,317324,1,8,0:0:0:0:
256,192,317411,1,8,0:0:0:0:
256,192,317933,1,8,0:0:0:0:
256,192,318324,1,0,0:0:0:0:
256,192,318455,1,8,0:0:0:0:
256,192,318585,1,0,0:0:0:0:
256,192,318716,1,0,0:0:0:0:
256,192,318846,1,0,0:0:0:0:
256,192,318977,1,8,0:0:0:0:
256,192,319107,1,0,0:0:0:0:
256,192,319498,1,4,0:0:0:0:
256,192,319759,1,8,0:0:0:0:
256,192,319824,1,0,0:0:0:0:
256,192,319890,1,0,0:0:0:0:
256,192,320020,1,0,0:0:0:0:
256,192,320150,1,0,0:0:0:0:
256,192,320281,1,0,0:0:0:0:
256,192,320411,1,0,0:0:0:0:
256,192,320672,1,4,0:0:0:0:
256,192,320933,1,4,0:0:0:0:
260,196,321194,1,4,0:0:0:0:
256,192,321324,1,4,0:0:0:0:
256,192,321585,1,4,0:0:0:0:
256,192,321716,12,4,325759,0:0:0:0:
