osu file format v9

[General]
AudioFilename: EastNewSound x Irus - ENS-Megamix feat.LiLAcRecords.mp3
AudioLeadIn: 0
PreviewTime: 582006
Countdown: 0
SampleSet: Soft
StackLeniency: 0.7
Mode: 0
LetterboxInBreaks: 1

[Editor]
Bookmarks: 90939,484775,889856
DistanceSpacing: 1.1
BeatDivisor: 8
GridSize: 4

[Metadata]
Title:ENS-Megamix feat.LiLA cRecords
Artist:EastNewSound x Irus
Creator:Shinxyn
Version:undefined songs
Source:Touhou
Tags:0989596108 pokedigi Irus Crouka Kokucho Raku Sumijun Izu nayuta Tsubaki Ritsuka Zensai Hotaru nano.czkey Uki Hanabi Idumin izumin my direction Fudoseika reimeinokei stay here not alone aka 6.0 records missing sorrow hen gekka enbukyoku undefined songs aoreido proof of river intense Krisom Siriru orioncomet NatsumeRin Mafiamaster Lybydose Doomsday Aenna Dangaard

[Difficulty]
HPDrainRate:4
CircleSize:4
OverallDifficulty:7
ApproachRate:8
SliderMultiplier:1.6
SliderTickRate:1

[Events]
//Background and Video events
0,0,"nazspring.jpg"
//Break Periods
2,612206,620422
//Storyboard Layer 0 (Background)
//Storyboard Layer 1 (Fail)
//Storyboard Layer 2 (Pass)
//Storyboard Layer 3 (Foreground)
//Storyboard Sound Samples
//Background Colour Transformations
3,100,255,255,255

[TimingPoints]
12571.8107960885,408.163265306122,4,2,0,100,1,0
104000,422.535211267606,4,2,0,100,1,0
180056,419.58041958042,4,2,0,100,1,0
274042,416.666666666667,4,2,0,100,1,0
382375,400,4,2,0,100,1,0
497575,413.793103448276,4,2,0,100,1,0
582006,416.666666666667,4,2,0,100,1,0
582370,-100,4,1,0,75,0,0
582474,-100,4,2,0,100,0,0
584037,-100,4,1,0,75,0,0
584141,-100,4,2,0,100,0,0
584870,-100,4,1,0,75,0,0
584974,-100,4,2,0,100,0,0
585703,-100,4,1,0,75,0,0
585808,-100,4,2,0,100,0,0
586589,-100,4,1,0,75,0,0
586693,-100,4,2,0,100,0,0
587370,-100,4,1,0,75,0,0
587474,-100,4,2,0,100,0,0
588203,-100,4,1,0,75,0,0
588308,-100,4,2,0,100,0,0
589037,-100,4,1,0,75,0,0
589141,-100,4,2,0,100,0,0
589922,-100,4,1,0,75,0,0
590026,-100,4,2,0,100,0,0
590703,-100,4,1,0,75,0,0
590808,-100,4,2,0,100,0,0
591537,-100,4,1,0,75,0,0
591693,-100,4,2,0,100,0,0
593203,-100,4,1,0,75,0,0
593308,-100,4,2,0,100,0,0
595703,-100,4,1,0,75,0,0
595808,-100,4,2,0,100,0,0
597370,-100,4,1,0,75,0,0
597474,-100,4,2,0,100,0,0
598203,-100,4,1,0,75,0,0
598308,-100,4,2,0,100,0,0
599037,-100,4,1,0,75,0,0
599141,-100,4,2,0,100,0,0
599922,-100,4,1,0,75,0,0
600026,-100,4,2,0,100,0,0
600703,-100,4,1,0,75,0,0
600808,-100,4,2,0,100,0,0
601537,-100,4,1,0,75,0,0
601641,-100,4,2,0,100,0,0
602370,-100,4,1,0,75,0,0
602474,-100,4,2,0,100,0,0
603203,-100,4,1,0,75,0,0
603308,-100,4,2,0,100,0,0
604037,-100,4,1,0,75,0,0
604141,-100,4,2,0,100,0,0
604922,-100,4,1,0,75,0,0
605026,-100,4,2,0,100,0,0
605287,-100,4,1,0,75,0,0
605391,-100,4,2,0,100,0,0
605599,-100,4,1,0,75,0,0
607787,-50,4,1,0,50,0,0
608620,-50,4,2,0,100,0,0
620339,-100,4,2,0,100,0,0
622787,-100,4,1,0,75,0,0
622891,-100,4,2,0,100,0,0
624453,-100,4,1,0,75,0,0
624558,-100,4,2,0,100,0,0
626120,-100,4,1,0,75,0,0
626224,-100,4,2,0,100,0,0
627787,-100,4,1,0,75,0,0
627891,-100,4,2,0,100,0,0
629506,-100,4,1,0,75,0,0
629610,-100,4,2,0,100,0,0
631068,-100,4,1,0,75,0,0
631276,-100,4,2,0,100,0,0
632735,-100,4,1,0,75,0,0
632943,-100,4,2,0,100,0,0
633568,-100,4,1,0,75,0,0
635131,-100,4,2,0,100,0,0
636068,-100,4,1,0,75,0,0
636276,-100,4,2,0,100,0,0
637735,-100,4,1,0,75,0,0
637943,-100,4,2,0,100,0,0
639401,-100,4,1,0,75,0,0
639610,-100,4,2,0,100,0,0
641068,-100,4,1,0,75,0,0
641276,-100,4,2,0,100,0,0
642735,-100,4,1,0,75,0,0
642943,-100,4,2,0,100,0,0
644401,-100,4,1,0,75,0,0
644610,-100,4,2,0,100,0,0
646068,-100,4,1,0,75,0,0
646276,-100,4,2,0,100,0,0
646953,-100,4,1,0,75,0,0
647995,-100,4,2,0,100,0,0
649037,-100,4,1,0,75,0,0
649141,-100,4,2,0,100,0,0
649870,-100,4,1,0,75,0,0
649974,-100,4,2,0,100,0,0
650703,-100,4,1,0,75,0,0
650808,-100,4,2,0,100,0,0
651537,-100,4,1,0,75,0,0
651641,-100,4,2,0,100,0,0
652370,-100,4,1,0,75,0,0
652474,-100,4,2,0,100,0,0
653203,-100,4,1,0,75,0,0
653308,-100,4,2,0,100,0,0
654037,-100,4,1,0,75,0,0
654141,-100,4,2,0,100,0,0
654870,-100,4,1,0,75,0,0
654974,-100,4,2,0,100,0,0
655703,-100,4,1,0,75,0,0
655808,-100,4,2,0,100,0,0
656537,-100,4,1,0,75,0,0
656641,-100,4,2,0,100,0,0
657370,-100,4,1,0,75,0,0
657474,-100,4,2,0,100,0,0
658203,-100,4,1,0,75,0,0
658308,-100,4,2,0,100,0,0
659037,-100,4,1,0,75,0,0
659141,-100,4,2,0,100,0,0
659870,-100,4,1,0,75,0,0
659974,-100,4,2,0,100,0,0
660599,-100,4,1,0,75,0,0
660703,-100,4,2,0,100,0,0
660912,-100,4,1,0,75,0,0
661224,-100,4,2,0,100,0,0
661433,-100,4,1,0,75,0,0
661537,-100,4,2,0,100,0,0
661693,-200,4,2,0,100,0,0
663776,-100,4,2,0,100,0,0
664037,-100,4,1,0,75,0,0
664141,-100,4,2,0,100,0,0
665703,-100,4,1,0,75,0,0
665808,-100,4,2,0,100,0,0
666537,-100,4,1,0,75,0,0
666641,-100,4,2,0,100,0,0
667370,-100,4,1,0,75,0,0
667474,-100,4,2,0,100,0,0
668256,-100,4,1,0,75,0,0
668360,-100,4,2,0,100,0,0
669089,-100,4,1,0,75,0,0
669193,-100,4,2,0,100,0,0
669870,-100,4,1,0,75,0,0
669990,-100,4,2,0,100,0,0
670703,-100,4,1,0,75,0,0
670808,-100,4,2,0,100,0,0
671537,-100,4,1,0,75,0,0
671641,-100,4,2,0,100,0,0
672370,-100,4,1,0,75,0,0
672474,-100,4,2,0,100,0,0
673151,-100,4,1,0,75,0,0
673360,-100,4,2,0,100,0,0
674870,-100,4,1,0,75,0,0
674974,-100,4,2,0,100,0,0
675287,-100,4,1,0,75,0,0
676485,-100,4,2,0,100,0,0
677318,-100,4,1,0,75,0,0
677526,-100,4,2,0,100,0,0
678985,-100,4,1,0,75,0,0
679193,-100,4,2,0,100,0,0
679870,-100,4,1,0,75,0,0
679974,-100,4,2,0,100,0,0
680703,-100,4,1,0,75,0,0
680808,-100,4,2,0,100,0,0
681537,-100,4,1,0,75,0,0
681641,-100,4,2,0,100,0,0
682370,-100,4,1,0,75,0,0
682474,-100,4,2,0,100,0,0
683203,-100,4,1,0,75,0,0
683308,-100,4,2,0,100,0,0
684037,-100,4,1,0,75,0,0
684141,-100,4,2,0,100,0,0
684870,-100,4,1,0,75,0,0
684974,-100,4,2,0,100,0,0
685703,-100,4,1,0,75,0,0
685808,-100,4,2,0,100,0,0
686537,-100,4,1,0,75,0,0
686693,-100,4,2,0,100,0,0
689037,-100,4,1,0,75,0,0
689141,-100,4,2,0,100,0,0
690321,387.096774193548,4,2,0,100,1,0
792514,419.58041958042,4,2,0,100,1,0
901632,413.793103448276,4,2,0,100,1,0

[HitObjects]
272,96,582006,5,4
360,88,582214,1,0
440,128,582422,1,0
464,216,582631,1,0
464,216,582735,2,0,B|384:208|352:288,1,120,2|0
360,305,583151,2,0,B|336:353|264:345,1,80,2|0
255,348,583464,1,0
190,272,583672,6,0,B|104:248,2,53.3333333333333,2|0|0
190,218,584089,2,0,B|246:202,2,53.3333333333333
190,164,584506,2,0,B|112:140,2,53.3333333333333,2|0|0
190,110,584922,1,0
217,76,585026,1,0
326,40,585235,2,0,B|403:74|387:171,1,120,2|0
356,288,585756,1,0
356,288,585860,2,0,B|279:254|295:157,1,120,2|0
291,158,586276,1,0
287,121,586381,2,0,B|294:67|252:33,1,80,2|0
184,32,586797,1,2
96,96,587006,6,0,B|26:139,1,80,2|0
192,184,587422,2,0,B|101:196,1,80
112,194,587735,1,2
39,264,587943,1,2
70,288,588047,1,0
107,300,588151,1,0
146,309,588256,1,0
185,312,588360,1,0
224,310,588464,1,0
263,305,588568,1,0
304,291,588672,6,0,B|357:270|362:196,1,80,2|0
326,62,589089,2,0,B|282:80|277:120,1,80
248,147,589401,2,0,B|155:147,1,80,2|0
137,120,589714,2,0,B|132:79|87:62,1,80,2|0
41,137,590131,1,2
23,223,590339,5,2
54,305,590547,1,0
136,273,590756,2,0,B|205:213|312:224,1,160,0|2
344,288,591381,1,0
416,232,591589,1,0
480,288,591797,1,0
416,232,592006,5,2
256,144,592318,1,2
96,232,592631,1,0
40,160,592839,2,0,B|0:128|16:64,1,80,2|0
96,56,593256,5,0
96,56,593360,1,0
96,56,593464,1,0
96,56,593568,1,0
96,56,593672,1,2
256,144,593985,1,2
416,56,594297,1,0
416,56,594506,2,0,B|416:144,1,80,2|0
416,224,594922,2,0,B|368:296,1,80
216,336,595339,5,4
136,296,595547,1,0
104,216,595756,1,0
104,128,595964,1,0
104,128,596068,2,0,B|112:56|176:32,1,120,2|0
216,32,596485,2,0,B|216:128,1,80,2|0
216,112,596797,1,0
212,232,597006,5,2
248,280,597144,1,0
296,312,597283,1,0
352,324,597422,1,0
408,312,597561,1,0
456,280,597700,1,0
492,232,597839,1,2
456,184,597978,1,0
408,152,598117,1,0
352,140,598256,5,0
352,140,598360,1,0
234,104,598568,2,0,B|250:176|162:224,1,120,2|0
24,248,599089,1,0
24,248,599193,2,0,B|8:320|96:368,1,120,2|0
112,352,599610,1,0
152,352,599714,2,0,B|256:352,1,80,2|0
312,320,600131,1,2
392,352,600339,6,0,B|504:352,1,80,2|0
456,264,600756,2,0,B|392:208,1,80
395,211,601068,1,2
392,120,601276,1,2
356,101,601381,1,0
318,88,601485,1,0
280,80,601589,1,0
240,80,601693,1,0
202,88,601797,1,0
164,101,601901,1,0
128,120,602006,5,2
96,200,602214,1,0
176,240,602422,2,0,B|288:240,1,80
272,280,602735,2,0,B|384:280,1,80,2|0
368,320,603047,2,0,B|448:320,1,80,2|0
496,248,603464,1,2
456,168,603672,5,2
456,168,603881,1,0
488,88,604089,2,0,B|440:8|336:24,1,160,0|2
312,32,604610,1,0
280,56,604714,2,0,B|248:88|176:80,1,80,2|0
128,48,605131,1,0
48,88,605339,5,0
32,128,605443,1,0
24,168,605547,1,0
32,208,605651,1,0
48,248,605756,1,0
128,288,605964,1,0
256,296,606276,2,0,B|256:256,6,40
304,296,607006,2,0,B|328:272,15,20
344,320,607839,2,0,B|368:320,24,20
256,192,608672,5,4
256,192,608881,12,0,612006
80,200,621172,6,0,B|64:96|176:56,1,160,2|0
432,184,622006,2,0,B|448:288|336:328,1,160,4|0
184,312,622839,2,0,B|288:144,1,160,0|0
320,104,623464,1,0
232,104,623672,2,0,B|176:152|120:136,2,120,2|2|2
320,104,624506,2,0,B|400:160|344:272,1,160,0|0
272,280,625131,1,0
192,312,625339,5,2
104,288,625547,1,0
104,288,625651,2,0,B|40:248|48:160,1,120,0|2
112,128,626172,1,0
184,184,626381,1,0
256,128,626589,1,2
256,128,626693,2,0,B|256:48|344:32,1,120,0|2
392,88,627214,1,2
454,150,627422,1,2
391,212,627631,1,2
453,274,627839,2,0,B|408:355|318:331,1,160,0|2
256,268,628464,1,2
193,330,628672,6,0,B|103:354|58:272,2,160,2|0|0
255,267,629714,1,0
256,176,629922,1,0
256,88,630131,1,0
328,136,630339,1,2
256,8,630651,1,2
184,136,630964,1,2
120,72,631172,2,0,B|32:112|48:224,1,160,0|0
80,280,631797,1,0
160,312,632006,5,2
248,304,632214,1,2
288,296,632318,1,0
312,216,632526,1,0
352,208,632631,1,2
440,184,632839,2,0,B|504:88,1,80
400,80,633256,2,0,B|352:16,1,80,2|0
256,32,633672,5,0
40,192,633985,1,0
256,352,634297,1,0
472,192,634610,1,0
256,192,634922,1,0
256,192,635026,1,0
183,112,635339,6,0,B|152:192|182:268,1,160,4|0
329,268,636172,2,0,B|360:192|328:112,1,160,0|2
256,56,636797,1,0
168,56,637006,2,0,B|48:48,2,120,2|2|2
256,56,637839,2,0,B|416:40,1,160
448,120,638464,1,0
472,208,638672,5,2
432,296,638881,1,0
431,296,638985,2,0,B|391:351|333:360,1,120,0|2
256,248,639506,2,0,B|256:352,1,80
176,360,639922,1,2
176,360,640026,2,0,B|117:350|78:295,1,120,0|2
176,256,640547,1,2
256,176,640756,1,2
336,256,640964,1,2
256,176,641172,2,0,B|256:8,1,160,0|2
336,56,641797,1,2
423,74,642006,6,0,B|416:168|334:195,1,160,2|0
177,195,642839,2,0,B|96:168|88:74,1,160
176,72,643464,1,0
256,32,643672,1,2
256,192,643985,1,2
256,352,644297,1,2
336,312,644506,1,0
464,192,644922,1,0
464,192,645131,1,0
432,96,645339,5,2
336,64,645547,1,2
336,64,645651,1,0
176,64,645860,1,0
176,64,645964,1,2
256,184,646172,2,0,B|256:104,1,80
256,264,646589,2,0,B|256:344,1,80
168,336,647006,5,0
344,336,647422,1,0
256,184,647839,1,0
48,56,648672,5,4
120,128,648881,1,2
120,128,648985,1,2
120,128,649089,1,0
48,200,649297,1,0
192,200,649506,5,4
264,128,649714,1,2
264,128,649818,1,2
264,128,649922,1,0
192,56,650131,1,0
336,56,650339,5,4
408,128,650547,1,2
408,128,650651,1,2
408,128,650755,1,0
336,200,650964,1,0
264,128,651172,1,4
192,56,651381,1,0
120,128,651589,1,0
256,360,652006,5,4
344,312,652214,1,2
366,284,652318,1,2
378,250,652422,1,0
352,160,652631,1,0
256,360,652839,5,4
168,312,653047,1,2
146,284,653151,1,2
134,250,653255,1,0
160,160,653464,1,0
256,360,653672,5,4
256,264,653881,1,2
256,232,653985,1,2
256,200,654089,1,0
256,96,654297,1,0
344,40,654506,1,4
256,96,654714,1,0
168,40,654922,1,0
80,232,655339,5,4
168,184,655547,1,2
184,232,655651,1,2
168,280,655756,1,0
80,232,655964,1,0
184,232,656172,5,4
272,184,656380,1,2
288,232,656484,1,2
272,280,656589,1,0
184,232,656797,1,0
288,232,657006,5,4
376,184,657214,1,2
392,232,657318,1,2
376,280,657423,1,0
288,232,657631,1,0
392,232,657839,5,4
472,168,658047,1,0
488,64,658256,1,0
384,40,658464,2,0,B|344:0,2,40,0|0|4
300,84,658881,5,2
256,100,658985,1,2
212,84,659089,1,0
256,0,659297,1,0
256,192,659506,5,4
212,300,659714,1,2
256,284,659818,1,2
300,300,659922,1,0
256,384,660131,1,0
152,372,660339,5,4
115,347,660443,1,2
90,310,660547,1,2
77,267,660651,1,0
77,222,660756,1,0
82,134,660964,1,0
166,108,661172,2,0,B|214:192,1,80
247,192,661485,1,0
290,192,661589,1,0
256,272,661797,2,0,B|376:312|440:192|376:72|256:112,1,360,2|4
296,192,663881,5,0
208,192,664089,1,0
120,192,664298,1,0
120,192,664402,2,0,B|40:184|8:264,1,120,2|0
16,288,664818,2,0,B|32:344|104:352,1,80,2|0
112,344,665131,1,0
224,320,665339,6,0,B|272:256,2,53.3333333333333,2|0|0
280,336,665756,2,0,B|328:272,2,53.3333333333333
336,352,666172,2,0,B|384:288,2,53.3333333333333,2|0|0
384,368,666589,1,0
424,368,666693,1,0
496,288,666902,2,0,B|522:208|439:155,1,120,2|0
384,48,667423,1,0
384,48,667527,2,0,B|307:82|323:179,1,120,2|2
328,176,667943,1,0
344,216,668048,2,0,B|368:256|336:304,1,80,2|0
240,256,668464,1,0
136,280,668672,6,0,B|176:352,2,80,2|0|0
32,256,669297,1,0
32,256,669401,2,0,B|88:160,1,80,2|2
105,163,669714,1,0
139,142,669818,1,0
178,134,669923,1,0
217,134,670027,1,0
255,144,670131,1,0
291,161,670235,1,0
319,188,670339,6,0,B|359:257,1,80,2|0
437,272,670756,1,0
463,196,670964,1,0
463,196,671068,1,2
436,120,671276,1,2
436,120,671381,1,0
379,63,671589,1,0
302,37,671798,1,2
292,116,672006,6,0,B|256:148|220:116,1,80,2|0
208,36,672422,2,0,B|104:44|87:171,1,160,0|2
96,212,673048,1,0
120,288,673256,1,0
180,344,673464,1,0
256,368,673673,5,2
448,280,673985,1,2
256,192,674298,1,0
212,124,674506,1,2
208,44,674714,1,0
126,10,674923,1,0
89,25,675027,1,0
57,49,675131,1,0
37,83,675235,1,0
27,121,675339,5,0
96,192,675547,1,0
256,192,675964,1,0
416,192,676381,1,0
416,192,676589,1,0
336,344,677006,5,4
256,312,677214,1,0
176,344,677422,1,0
120,280,677631,1,0
120,280,677735,2,0,B|64:224|104:136,1,120,2|0
136,152,678151,2,0,B|192:80,1,80,2|0
224,72,678464,1,0
300,148,678672,5,2
348,176,678811,1,0
380,224,678950,1,0
380,280,679089,1,0
348,328,679228,1,0
300,356,679367,1,0
248,356,679506,2,0,B|128:356,1,106.666666666667,2|0
109,279,679922,5,0
109,279,680026,1,0
213,277,680235,2,0,B|296:277|331:201,1,120,2|0
316,138,680756,1,0
316,138,680860,1,2
202,70,681172,2,0,B|260:56,2,40
114,56,681589,1,0
69,131,681797,1,0
50,217,682006,6,0,B|27:308,1,80,2|0
111,328,682422,2,0,B|199:361,1,80
227,339,682735,2,0,B|302:305,1,80,2|2
334,279,683047,1,0
358,242,683151,1,0
369,199,683256,1,0
370,155,683360,1,0
362,111,683464,1,0
343,71,683568,1,0
304,48,683672,5,2
240,104,683881,1,0
160,64,684089,1,0
80,104,684297,1,0
80,104,684401,1,2
48,184,684610,1,2
48,184,684714,1,0
56,272,684922,1,0
120,328,685131,1,2
168,256,685339,6,0,B|240:336,1,80,2|0
304,352,685756,2,0,B|304:160,1,160,0|2
384,240,686381,1,0
456,192,686589,1,0
512,128,686797,1,0
452,60,687006,6,0,B|292:60,1,160,4|0
60,324,687631,2,0,B|220:324,1,160,4|4
472,192,688464,1,4
296,192,688881,1,0
260,192,688985,1,0
224,192,689089,1,0
188,192,689193,1,0
152,192,689297,1,0
116,192,689401,1,0
79,192,689506,1,4
