osu file format v8

[General]
AudioFilename: EastNewSound x Irus - ENS-Megamix feat.LiLAcRecords.mp3
AudioLeadIn: 0
PreviewTime: 180056
Countdown: 0
SampleSet: Normal
StackLeniency: 0.7
Mode: 0
LetterboxInBreaks: 1

[Editor]
DistanceSpacing: 1
BeatDivisor: 4
GridSize: 8

[Metadata]
Title:ENS-Megamix feat.LiLA cRecords
Artist:EastNewSound x Irus
Creator:Shinxyn
Version:STAY HERE, NOT ALONE
Source:Touhou
Tags:0989596108 pokedigi Irus Crouka Kokucho Raku Sumijun Izu nayuta Tsubaki Ritsuka Zensai Hotaru nano.czkey Uki Hanabi Idumin izumin my direction Fudoseika reimeinokei stay here not alone aka 6.0 records missing sorrow hen gekka enbukyoku undefined songs aoreido proof of river intense Krisom Siriru orioncomet NatsumeRin Mafiamaster Lybydose Doomsday Aenna Dangaard

[Difficulty]
HPDrainRate:6
CircleSize:4
OverallDifficulty:8
ApproachRate:8
SliderMultiplier:1.6
SliderTickRate:1

[Events]
//Background and Video events
0,0,"mei.jpg"
//Break Periods
//Storyboard Layer 0 (Background)
//Storyboard Layer 1 (Fail)
//Storyboard Layer 2 (Pass)
//Storyboard Layer 3 (Foreground)
//Storyboard Sound Samples
//Background Colour Transformations
3,100,163,162,255

[TimingPoints]
12571.8107960885,408.163265306122,4,1,0,70,1,0
104000,422.535211267606,4,2,0,100,1,0
180056,419.58041958042,4,2,0,100,1,0
182888,-100,4,1,0,40,0,0
183517,-100,4,2,0,100,0,0
186244,-100,4,1,0,50,0,0
186874,-100,4,2,0,100,0,0
188342,-100,4,1,0,50,0,0
188552,-100,4,2,0,100,0,0
190021,-100,4,1,0,50,0,0
190230,-100,4,2,0,100,0,0
190860,-100,4,1,0,50,0,0
191069,-100,4,2,0,100,0,0
191699,-100,4,1,0,45,0,0
233028,-100,4,1,0,30,0,0
233657,-100,4,1,0,45,0,0
274042,416.666666666667,4,2,0,100,1,0
382375,400,4,2,0,100,1,0
497575,413.793103448276,4,2,0,100,1,0
582006,416.666666666667,4,2,0,100,1,0
690321,387.096774193548,4,2,0,100,1,0
792514,419.58041958042,4,2,0,100,1,0
901632,413.793103448276,4,2,0,100,1,0

[HitObjects]
176,200,180056,6,0,B|80:240|32:152,1,160
96,104,180685,1,0
168,56,180895,2,0,B|208:152|120:200,1,160
64,248,181524,1,0
136,272,181734,2,0,B|224:248|248:160,2,160
144,56,182993,5,0
360,56,183202,1,0
256,120,183412,6,0,B|272:200|232:200|256:296,1,160
320,240,184042,1,0
400,240,184251,2,0,B|400:136|304:136,1,160
320,216,184881,1,0
320,296,185090,2,0,B|224:272|240:176,2,160
440,176,186349,5,0
280,80,186559,1,0
280,80,186769,6,0,B|208:144|136:80,1,160
104,152,187398,1,0
176,184,187608,2,0,B|264:200|336:136,1,160
256,104,188237,1,0
176,104,188447,2,0,B|80:112|80:216,1,160
160,184,189076,6,0,B|169:227|208:264,1,80
248,192,189496,2,0,B|280:168|296:120,2,80
192,256,190125,6,0,B|240:304|304:240|344:280,1,160
296,344,190755,1,0
216,352,190965,2,0,B|120:344|104:240,1,160
256,48,191804,6,0,B|352:80|320:184,1,160
248,200,192433,2,0,B|264:248|320:240|336:280,2,120
168,216,193272,1,0
168,216,193482,6,0,B|168:304|72:336,1,160
80,248,194111,1,0
8,200,194321,2,0,B|64:136|160:160,1,160
120,240,194951,1,0
208,216,195160,2,0,B|263:221|296:192,2,80
248,136,195790,1,0
336,136,196000,2,0,B|304:48|200:48,1,160
224,136,196629,1,0
136,128,196839,6,0,B|64:72,1,80
160,56,197258,2,0,B|248:72,1,80
192,144,197678,2,0,B|256:208,1,80
160,216,198097,2,0,B|168:304,1,80
256,288,198517,6,0,B|344:328|408:240,1,160
312,224,199146,1,0
224,224,199356,2,0,B|216:128|312:96,2,160
144,264,200405,5,0
56,280,200615,2,0,B|88:360|208:344,1,160
256,296,201244,2,0,B|208:224,2,80
320,344,201874,2,0,B|400:296,1,80
328,248,202293,2,0,B|400:168,1,80
296,160,202713,2,0,B|216:216|272:320,1,160
88,176,203552,5,0
160,120,203762,2,0,B|192:152|184:200,1,80
144,272,204181,1,0
104,192,204391,2,0,B|32:112|112:40,1,160
160,120,205021,1,0
232,64,205230,2,0,B|256:104|240:160,1,80
328,160,205650,5,0
280,224,205860,2,0,B|264:264|208:256|192:304,2,120
240,160,206699,1,0
168,104,206909,6,0,B|248:40|336:120,1,160
240,160,207538,2,0,B|320:216|400:152,1,160
344,96,208167,1,0
264,88,208377,1,0
216,24,208587,2,0,B|144:88|224:176,1,160
214,164,209216,1,0
280,120,209426,6,0,B|321:141|328:192,1,80
304,256,209846,2,0,B|232:312|152:256,2,160
232,208,210895,1,0
304,176,211104,2,0,B|256:104|160:128,1,160
128,56,211734,5,0
208,32,211944,2,0,B|304:24|368:120,1,160
336,176,212573,1,0
256,152,212783,2,0,B|216:136|168:152,1,80
112,192,213202,5,0
112,192,213412,1,0
112,192,213622,2,0,B|128:288|232:288,1,160
216,208,214251,2,0,B|304:216|328:320,1,160
384,256,214881,1,0
312,224,215090,1,0
368,168,215300,2,0,B|312:112|216:128,1,160
256,200,215930,1,0
248,280,216139,5,0
184,232,216349,1,0
128,296,216559,1,0
104,224,216769,1,0
40,272,216979,2,0,B|8:176|80:128,1,160
160,144,217608,2,0,B|200:224|128:296,1,160
104,208,218237,5,0
80,136,218447,2,0,B|104:56|216:56,1,160
208,136,219076,2,0,B|200:176|224:224,1,80
280,160,219496,2,0,B|315:184|320:232,1,80
304,304,219916,1,0
376,272,220125,1,0
448,312,220335,6,0,B|456:216|368:192,1,160
424,136,220965,2,0,B|387:110|336:120,1,80
352,200,221384,1,0
280,176,221594,1,0
272,96,221804,1,0
320,32,222014,2,0,B|232:-8|168:80,1,160
248,104,222643,1,0
168,120,222853,5,0
136,192,223062,1,0
216,184,223272,1,0
288,208,223482,1,0
272,128,223692,1,0
216,184,223902,1,0
216,264,224111,2,0,B|304:312|368:248,1,160
304,200,224741,5,0
304,200,224951,2,0,B|216:152|152:216,1,160
144,136,225580,1,0
88,72,225790,2,0,B|40:160|104:224,1,160
144,136,226419,1,0
192,72,226629,5,0
232,144,226839,1,0
160,184,227049,2,0,B|224:248|304:184,1,160
344,256,227678,2,0,B|408:192|344:112,1,160
272,80,228307,1,0
208,32,228517,2,0,B|168:37|136:72,1,80
192,128,228937,2,0,B|200:168|256:192,1,80
272,112,229356,5,0
336,64,229566,2,0,B|376:152|272:208,1,160
272,112,230195,1,0
248,40,230405,2,0,B|168:88|216:184,1,160
280,224,231035,2,0,B|208:288|128:216,1,160
64,184,231664,6,0,B|55:147|64:96,2,80
144,192,232293,2,0,B|155:230|144:296,1,80
80,312,232713,1,0
112,336,232818,1,0
152,344,232923,1,0
232,320,233132,1,0
200,248,233342,1,0
280,232,233552,1,0
256,152,233762,6,0,B|360:144|376:264,2,160
176,152,234811,1,0
192,232,235021,2,0,B|224:264|272:256,1,80
320,200,235440,1,0
376,144,235650,1,0
432,200,235860,1,0
376,256,236069,5,0
336,184,236279,1,0
408,152,236489,1,0
352,96,236699,1,0
352,96,237118,6,0,B|248:96|256:216,2,160
432,88,238167,1,0
392,160,238377,1,0
472,176,238587,1,0
424,240,238797,2,0,B|368:304|272:272,1,160
320,208,239426,2,0,B|282:188|248:160,2,80
392,168,240056,2,0,B|360:80|256:88,1,160
200,128,240685,5,0
136,80,240895,2,0,B|80:160|160:240,2,160
200,128,241944,1,0
248,64,242153,2,0,B|288:88|304:128,1,80
256,192,242573,2,0,B|256:288|152:304,2,160
120,72,243832,5,0
248,72,244042,1,0
360,192,244461,6,0,B|374:146|360:104,1,80
288,88,244881,2,0,B|276:130|296:176,1,80
360,192,245300,1,0
328,264,245510,1,0
256,224,245720,1,0
200,280,245930,2,0,B|168:248|176:200,1,80
256,200,246349,2,0,B|312:264|256:352,1,160
344,216,247188,6,0,B|344:304|440:336,1,160
432,248,247817,1,0
504,200,248027,2,0,B|448:136|352:160,1,160
392,240,248657,1,0
304,216,248866,2,0,B|249:221|216:192,2,80
264,136,249496,1,0
176,136,249706,2,0,B|208:48|312:48,1,160
288,136,250335,1,0
352,80,250545,6,0,B|440:96|456:208,1,160
376,200,251174,1,0
424,264,251384,2,0,B|344:304|272:232,1,160
272,320,252014,5,0
208,272,252223,1,0
144,320,252433,1,0
144,240,252643,1,0
208,200,252852,1,0
288,224,253062,2,0,B|296:128|200:96,1,160
280,64,253692,1,0
352,96,253902,6,0,B|352:192|224:216,1,160
312,264,254531,2,0,B|312:304|272:344,1,80
240,264,254951,1,0
176,296,255160,6,0,B|136:312|128:360,1,80
48,352,255580,2,0,B|64:264|152:224,1,160
120,152,256209,1,0
192,184,256419,1,0
240,248,256629,1,0
296,304,256839,2,0,B|336:280|352:240,1,80
400,184,257258,5,0
352,120,257468,2,0,B|320:152|328:200,1,80
368,272,257887,1,0
448,248,258097,1,0
440,168,258307,1,0
440,168,258517,1,0
384,104,258727,2,0,B|352:72|288:64,1,80
224,88,259146,5,0
184,160,259356,1,0
232,224,259566,2,0,B|248:264|304:256|320:304,2,120
272,160,260405,1,0
288,80,260615,6,0,B|384:88|400:184,1,160
320,168,261244,1,0
248,128,261454,2,0,B|224:224|320:256,1,160
376,208,262083,1,0
440,152,262293,2,0,B|416:112|360:104,1,80
368,184,262713,2,0,B|288:224|224:152,2,160
272,312,263972,6,0,B|376:320|392:200,2,160
200,280,265021,1,0
240,208,265231,2,0,B|208:176|160:184,1,80
184,264,265650,1,0
120,304,265860,1,0
64,248,266070,1,0
112,184,266279,5,0
192,208,266489,1,0
168,288,266699,1,0
96,264,266909,1,0
168,48,267328,6,0,B|272:48|264:168,2,160
168,128,268377,1,0
112,184,268587,1,0
176,232,268797,1,0
208,304,269007,2,0,B|272:248|240:152,1,160
304,112,269636,2,0,B|272:80|208:80,2,80
328,192,270265,1,0
328,192,270685,5,0
312,272,270895,2,0,B|320:312|288:352,1,80
240,288,271314,1,0
192,352,271524,2,0,B|120:272|200:200,1,160
240,272,272154,1,0
304,320,272363,2,0,B|328:280|312:224,1,80
256,192,272783,12,0,273622
