osu file format v9

[General]
AudioFilename: EastNewSound x Irus - ENS-Megamix feat.LiLAcRecords.mp3
AudioLeadIn: 0
PreviewTime: 153014
Countdown: 0
SampleSet: Soft
StackLeniency: 0.7
Mode: 0
LetterboxInBreaks: 1

[Editor]
Bookmarks: 90939
DistanceSpacing: 1.2
BeatDivisor: 4
GridSize: 8

[Metadata]
Title:ENS-Megamix feat.LiLA cRecords
Artist:EastNewSound x Irus
Creator:Shinxyn
Version:Fudoseika Reimeinokei
Source:Touhou
Tags:0989596108 pokedigi Irus Crouka Kokucho Raku Sumijun Izu nayuta Tsubaki Ritsuka Zensai Hotaru nano.czkey Uki Hanabi Idumin izumin my direction Fudoseika reimeinokei stay here not alone aka 6.0 records missing sorrow hen gekka enbukyoku undefined songs aoreido proof of river intense Krisom Siriru orioncomet NatsumeRin Mafiamaster Lybydose Doomsday Aenna Dangaard

[Difficulty]
HPDrainRate:6
CircleSize:4
OverallDifficulty:8
ApproachRate:8
SliderMultiplier:1.6
SliderTickRate:1

[Events]
//Background and Video events
0,0,"sana.jpg"
//Break Periods
//Storyboard Layer 0 (Background)
//Storyboard Layer 1 (Fail)
//Storyboard Layer 2 (Pass)
//Storyboard Layer 3 (Foreground)
//Storyboard Sound Samples
//Background Colour Transformations
3,100,163,162,255

[TimingPoints]
12571.8107960885,408.163265306122,4,2,0,100,1,0
104000,422.535211267606,4,2,0,40,1,0
107274,-100,4,2,0,60,0,0
108859,-100,4,2,0,20,0,0
109809,-100,4,2,0,30,0,0
110654,-100,4,2,0,70,0,0
149528,-100,4,2,0,40,0,0
149950,-100,4,2,0,51,0,0
150373,-100,4,2,0,60,0,0
150901,-100,4,2,0,70,0,0
152591,-100,4,2,0,30,0,0
152802,-100,4,2,0,70,0,0
165795,-100,4,1,0,40,0,0
166535,-100,4,2,0,70,0,0
178366,-100,4,1,0,60,0,0
180056,419.58041958042,4,2,0,100,1,0
274042,416.666666666667,4,2,0,100,1,0
382375,400,4,2,0,100,1,0
497575,413.793103448276,4,2,0,100,1,0
582006,416.666666666667,4,2,0,100,1,0
690321,387.096774193548,4,2,0,100,1,0
792514,419.58041958042,4,2,0,100,1,0
901632,413.793103448276,4,2,0,100,1,0

[HitObjects]
144,192,104000,5,4
192,256,104211,1,0
264,232,104422,1,2
288,160,104633,1,0
312,80,104845,5,0
400,56,105056,1,0
464,120,105267,1,2
432,200,105478,1,0
432,288,105690,5,0
352,344,105901,1,0
256,344,106112,1,2
176,288,106323,1,0
256,216,106535,5,0
280,112,106746,1,0
192,56,106957,1,2
88,56,107169,1,2
88,144,107380,6,0,B|88:240,1,80,4|0
168,184,107802,2,0,B|240:272,2,80,2|0|0
248,144,108436,2,0,B|248:88,2,40,0|0|2
256,328,109070,6,0,B|352:328,1,80
256,280,109492,2,0,B|168:280,1,80,2|0
256,232,109915,2,0,B|336:232,1,80
256,184,110338,2,0,B|168:184,1,80,2|0
256,328,110760,5,4
256,328,110971,1,0
168,328,111183,2,0,B|112:328|64:288|64:224|64:192,1,160,2|0
152,224,111816,2,0,B|152:144,2,80,0|2|0
240,224,112450,2,0,B|280:192|368:192|416:248,1,160,0|2
392,312,113084,1,0
392,312,113295,2,0,B|392:136,2,160,0|2|0
304,312,114352,5,0
264,288,114457,1,0
224,312,114563,1,2
136,312,114774,1,0
104,336,114880,1,0
64,312,114985,1,0
104,232,115197,5,0
104,144,115408,2,0,B|108:89|182:79|219:111|216:160,1,160,2|0
288,192,116042,2,0,B|288:280,1,80,0|2
368,232,116464,1,0
368,320,116676,2,0,B|424:320|472:272|464:216|464:192,1,160,0|2
464,128,117309,5,0
376,128,117521,1,4
376,128,117732,2,0,B|296:128,1,80,0|2
256,40,118154,1,0
216,128,118366,6,0,B|144:128|144:208|48:208,1,160,0|2
80,112,119000,1,0
79,204,119211,2,0,B|80:368,1,160,0|2
168,328,119845,1,0
256,288,120056,2,0,B|312:248|376:328|440:272,1,160,0|2
472,216,120690,1,0
488,128,120901,5,0
416,80,121112,1,0
344,32,121323,1,2
344,32,121535,1,0
400,160,121746,5,0
296,160,121957,1,0
192,160,122169,1,2
192,160,122380,1,0
352,248,122591,5,0
240,288,122802,1,0
128,328,123014,1,2
128,328,123225,1,0
56,288,123436,6,0,B|32:240|72:176,1,80
136,112,123859,2,0,B|152:152|136:192,1,80,2|0
216,64,124281,6,0,B|288:64|336:104|352:144,1,160,4|2
352,232,124915,2,0,B|456:232,2,80
352,328,125549,2,0,B|320:368|208:368|192:304,1,160,2|0
112,328,126183,1,0
160,248,126394,2,0,B|160:80,2,160,2|0|2
376,96,127661,6,0,B|456:48,1,80
448,152,128084,2,0,B|448:240,1,80,2|0
360,184,128507,2,0,B|176:184,2,160,0|2|0
328,272,129563,1,0
240,320,129774,1,2
144,320,129985,1,0
144,224,130197,2,0,B|80:224|40:272|32:320,1,160,0|2
144,320,130830,5,0
256,192,131042,1,4
256,192,131253,1,0
256,192,131464,2,0,B|368:192,1,80,2|0
256,192,131887,2,0,B|256:88,1,80
256,192,132309,2,0,B|256:360,2,160,2|0|2
256,192,133577,1,0
256,192,134000,1,2
64,56,134422,6,0,B|64:104|104:136,1,80
160,56,134845,2,0,B|184:56,8,20,2|0|0|0|0|0|0|0|0
184,152,135478,1,2
184,248,135690,1,2
256,192,136112,12,4,137802
256,336,138225,5,2
336,280,138436,1,0
336,184,138647,2,0,B|160:184,1,160,0|2
80,184,139281,2,0,B|80:240|136:264,2,80
80,88,139915,1,2
80,88,140338,1,0
176,88,140549,1,0
272,88,140760,1,2
272,88,141183,2,0,B|368:88,2,80,0|0|2
256,184,141816,5,0
168,224,142028,2,0,B|168:312,1,80
80,272,142450,2,0,B|80:112,2,160,2|0|2
256,360,143718,1,0
296,272,143929,1,0
384,232,144140,1,2
480,232,144352,1,0
480,312,144563,6,0,B|480:136,1,160,4|2
480,56,145197,2,0,B|424:56|408:112,1,80
320,88,145619,2,0,B|320:152|384:176,2,80,0|2|0
224,88,146253,2,0,B|160:88|160:152|72:152,1,160,0|2
80,56,146887,1,0
81,151,147098,2,0,B|82:336,2,160,0|2|0
160,208,148154,5,2
160,208,148366,1,2
320,312,148788,1,0
416,312,149000,2,0,B|448:368,2,40,2|0|2
256,32,149633,6,0,B|256:120,1,80,4|0
352,112,150056,2,0,B|352:168|296:200,1,80,4|0
160,112,150478,2,0,B|160:168|216:200,1,80,4|0
256,256,150901,1,4
256,192,151323,12,4,152591
64,192,153014,6,0,B|64:272,1,80,4|0
152,232,153436,2,0,B|152:320,1,80,8|0
240,280,153859,2,0,B|240:376,1,80
240,184,154281,2,0,B|296:184|344:232|344:296,1,160,2|0
448,192,155126,6,0,B|448:112,1,80,8|0
360,152,155548,2,0,B|360:64,1,80
272,104,155971,2,0,B|272:8,2,80,2|0|0
184,152,156605,5,0
200,248,156816,1,8
248,328,157028,2,0,B|296:320|328:280,1,80
360,208,157450,1,0
352,112,157661,2,0,B|328:56|280:32|208:40,1,160,2|0
128,40,158295,1,0
128,40,158507,2,0,B|128:200,2,160,8|0|2
40,80,159563,1,2
40,176,159774,6,0,B|40:248|88:296|128:320,1,160,4|8
152,224,160408,2,0,B|184:272|256:288|320:272,1,160
296,184,161042,2,0,B|472:184,2,160,2|0|8
256,96,162098,5,0
224,64,162204,1,0
192,96,162309,1,0
96,96,162521,1,0
144,176,162732,2,0,B|120:232|176:296|128:368,2,160,2|0|8
240,176,163788,2,0,B|304:176|328:240,1,80
240,272,164211,2,0,B|240:360,2,80,0|2|0
336,272,164845,5,2
336,272,164950,1,2
416,224,165161,1,2
416,224,165267,1,2
416,128,165478,1,2
416,128,165584,1,0
416,128,165690,1,2
320,128,165901,5,0
296,128,166007,1,0
272,128,166112,1,0
248,128,166218,1,0
224,128,166323,1,0
200,128,166429,1,0
176,128,166535,1,4
72,288,166957,6,0,B|176:288,1,80,8|0
224,224,167380,2,0,B|296:224|296:296|384:288,1,160,0|2
464,288,168014,1,0
366,288,168225,2,0,B|368:120,1,160,0|8
464,112,168859,1,0
367,128,169070,2,0,B|296:128|296:64|224:64,1,160,0|2
128,64,169704,5,0
128,64,169809,1,0
128,64,169915,2,0,B|128:160,1,80
40,192,170338,1,8
40,288,170549,1,0
136,288,170760,6,0,B|232:288|296:368,1,160,0|2
376,352,171394,1,0
352,264,171605,2,0,B|288:200|184:184,1,160,0|8
136,136,172239,1,0
136,40,172450,2,0,B|64:40|24:96|32:160,1,160,0|2
80,216,173084,1,0
80,312,173295,6,0,B|248:312,1,160,4|8
312,248,173929,2,0,B|360:288,2,40
312,152,174352,1,0
256,72,174563,2,0,B|208:88|200:136,1,80,2|0
104,128,174985,6,0,B|112:232|232:240,2,160,0|8|0
408,256,176253,2,0,B|400:152|280:144,2,160,2|0|8
256,344,177521,6,0,B|256:256,1,80
176,184,177943,1,2
336,184,178154,1,2
256,104,178366,6,0,B|256:48,8,40
256,152,179316,1,0
256,200,179422,2,0,B|256:256,4,40
