osu file format v9

[General]
AudioFilename: EastNewSound x Irus - ENS-Megamix feat.LiLAcRecords.mp3
AudioLeadIn: 0
PreviewTime: 729030
Countdown: 0
SampleSet: Soft
StackLeniency: 0.7
Mode: 0
LetterboxInBreaks: 1

[Editor]
Bookmarks: 90939
DistanceSpacing: 1
BeatDivisor: 4
GridSize: 8

[Metadata]
Title:ENS-Megamix feat.LiLA cRecords
Artist:EastNewSound x Irus
Creator:Shinxyn
Version:Aoreido
Source:Touhou
Tags:0989596108 pokedigi Irus Crouka Kokucho Raku Sumijun Izu nayuta Tsubaki Ritsuka Zensai Hotaru nano.czkey Uki Hanabi Idumin izumin my direction Fudoseika reimeinokei stay here not alone aka 6.0 records missing sorrow hen gekka enbukyoku undefined songs aoreido proof of river intense Krisom Siriru orioncomet NatsumeRin Mafiamaster Lybydose Doomsday Aenna Dangaard

[Difficulty]
HPDrainRate:6
CircleSize:4
OverallDifficulty:8
ApproachRate:8
SliderMultiplier:1.6
SliderTickRate:1

[Events]
//Background and Video events
0,0,"cirno.jpg"
//Break Periods
2,716843,728280
//Storyboard Layer 0 (Background)
//Storyboard Layer 1 (Fail)
//Storyboard Layer 2 (Pass)
//Storyboard Layer 3 (Foreground)
//Storyboard Sound Samples
//Background Colour Transformations
3,100,163,162,255

[TimingPoints]
12571.8107960885,408.163265306122,4,2,0,100,1,0
104000,422.535211267606,4,2,0,100,1,0
180056,419.58041958042,4,2,0,100,1,0
274042,416.666666666667,4,2,0,100,1,0
382375,400,4,2,0,100,1,0
497575,413.793103448276,4,2,0,100,1,0
582006,416.666666666667,4,2,0,100,1,0
690321,387.096774193548,4,2,0,100,1,0
792514,419.58041958042,4,2,0,100,1,0
901632,413.793103448276,4,2,0,100,1,0

[HitObjects]
107,95,691095,5,0
179,63,691288,1,0
257,47,691482,1,0
333,63,691675,1,0
406,97,691869,6,0,B|466:152|465:254|383:339|267:306,1,320,4|2
106,97,693030,5,0
106,97,693224,2,0,B|46:152|47:254|129:339|245:306,2,320,0|2|0
184,72,694966,6,0,B|136:168|256:232|384:168|324:62,1,320,0|2
256,104,695933,2,0,B|256:296,1,160
176,128,696708,5,0
336,128,697095,2,0,B|360:256|144:128|176:288,1,240,0|2
333,268,698062,6,0,B|328:338|418:389|501:359|551:258|463:192|462:195,1,320,4|2
179,115,699224,5,0
179,116,699417,2,0,B|184:46|94:-5|11:25|-39:126|49:192|50:189,2,320,0|2|0
99,120,701159,6,0,B|174:291,1,160
256,136,701933,1,2
256,136,702127,1,0
348,266,702514,6,0,B|413:120,1,160
412,120,703095,1,2
256,88,703482,5,2
184,120,703675,1,2
144,192,703869,1,2
184,264,704062,1,2
256,296,704256,6,0,B|376:296|376:296|408:296|432:272|432:240|416:208|376:208|376:208|304:208,1,320,4|2
256,88,705417,5,0
256,88,705611,2,0,B|136:88|136:88|104:88|80:112|80:144|96:176|136:176|136:176|208:176,2,320,0|2|0
327,124,707353,6,0,B|289:167|287:228|343:284,2,160,0|0|2
376,192,708321,1,0
185,124,708708,6,0,B|223:167|225:228|169:284,2,160,0|0|2
328,192,709869,1,2
328,192,710062,1,2
304,352,710450,6,0,B|272:240|320:128|424:72,1,320,4|2
208,32,711611,5,0
208,32,711804,2,0,B|240:144|192:256|88:312,2,320,0|2|0
288,40,713546,5,4
224,344,714321,1,4
296,88,715095,5,4
144,144,715482,1,4
208,288,715869,1,4
360,232,716256,1,4
256,192,716643,5,4
32,192,729030,5,4
104,160,729224,1,0
136,232,729417,1,8
64,264,729611,2,0,B|56:360|160:416|240:336,1,240,0|8
480,192,730579,5,0
408,160,730773,1,0
376,232,730966,1,8
448,264,731160,2,0,B|456:360|352:416|272:336,1,240,0|8
256,272,731933,1,0
192,224,732127,5,0
216,152,732321,1,0
296,152,732514,1,8
320,224,732708,1,0
256,352,733288,6,0,B|256:240,2,80,8|0|0
256,192,734062,1,8
328,48,734450,1,0
256,24,734643,1,8
184,48,734837,1,8
32,88,735224,5,0
0,160,735417,1,0
80,152,735611,1,8
112,80,735804,2,0,B|240:96|136:240|280:248,1,240,0|8
480,296,736772,5,0
512,224,736965,1,0
432,232,737159,1,8
400,304,737352,2,0,B|272:288|376:144|232:136,1,240,0|8
240,216,738127,1,0
176,168,738321,5,0
104,203,738514,1,0
30,234,738708,1,8
30,152,738901,2,0,B|70:88|158:40|254:48,1,240,0|8
336,168,739869,5,0
408,203,740062,1,0
482,234,740256,1,8
482,152,740449,2,0,B|442:88|357:47|325:52,1,160,0|8
336,136,741030,1,8
256,136,741224,1,0
176,136,741417,5,4
120,192,741611,1,0
64,248,741804,1,8
88,328,741998,2,0,B|264:152,1,240,0|8
336,136,742966,5,0
392,192,743160,1,0
448,248,743353,1,8
424,328,743547,2,0,B|248:152,1,240,0|8
176,144,744321,1,0
184,64,744514,5,0
256,24,744708,1,0
328,64,744901,1,8
336,144,745095,1,0
96,136,745675,5,8
40,192,745869,1,0
96,248,746062,1,0
256,192,746450,1,8
416,136,746837,1,0
472,192,747031,1,8
416,248,747224,1,8
288,344,747611,5,0
208,328,747804,1,0
224,248,747998,1,8
306,262,748191,2,0,B|371:280|422:239|443:172|398:113|366:114,1,240,0|8
224,40,749159,5,0
304,56,749352,1,0
288,136,749546,1,8
206,122,749739,2,0,B|141:104|90:145|69:212|114:271|146:270,1,240,0|8
177,198,750514,1,0
257,198,750708,5,0
336,198,750901,1,0
296,272,751095,1,8
216,272,751288,2,0,B|96:288|144:144|0:176,1,240,0|8
257,198,752256,5,0
176,200,752449,1,0
216,272,752643,1,8
296,272,752837,1,0
224,120,753224,1,8
224,120,753417,1,8
224,120,753611,1,8
184,184,753804,5,4
216,256,753998,1,0
296,256,754191,1,8
328,184,754385,1,0
296,24,754772,1,2
216,24,754966,1,2
96,152,755353,6,0,B|136:200|192:200|239:150,1,160,0|8
280,224,755933,2,0,B|320:176|376:176|423:229,1,160
418,224,756514,1,8
328,352,756901,5,0
296,280,757095,1,0
216,280,757288,1,8
184,352,757482,1,0
256,208,757869,1,2
256,128,758062,1,2
392,88,758450,6,0,B|352:16|240:-8|136:24|104:120,1,320
256,168,759611,1,8
136,280,759998,5,4
80,336,760191,1,0
24,280,760385,1,8
80,224,760579,2,0,B|80:48,1,160,0|2
80,64,761159,1,2
184,184,761546,6,0,B|240:160|304:200|296:280,1,160,0|8
216,256,762127,2,0,B|216:314|272:354|328:330,1,160,0|0
327,330,762708,1,8
488,280,763095,5,4
432,336,763289,1,0
376,280,763482,1,8
432,224,763676,2,0,B|432:48,1,160,0|2
432,64,764256,1,2
256,192,764643,12,0,766191
256,48,766966,5,0
256,48,767159,1,0
256,48,767353,1,0
256,48,767546,1,0
256,48,767740,6,0,B|144:0|32:96|72:224,1,320,4|2
256,48,768901,5,0
256,48,769095,2,0,B|368:0|480:96|440:224,2,320,0|2|0
303,112,770837,6,0,B|424:160|192:336|312:40|80:206|208:256,1,320,0|2
176,328,771804,2,0,B|336:328,1,160
256,192,772579,5,0
176,56,772966,2,0,B|336:56,1,160,0|2
336,56,773546,1,2
256,200,773933,6,0,B|336:152|424:208|352:288|448:360|528:288,1,320,4|2
256,200,775095,5,0
256,200,775288,2,0,B|176:152|88:208|160:288|64:360|-16:288,2,320,0|2|0
210,273,777030,6,0,B|272:317|359:271|376:196|339:111|251:112,1,320,0|2
259,112,777998,1,0
112,64,778385,2,0,B|132:-34|417:129|404:0,1,320
448,88,779353,5,2
377,124,779546,1,2
296,121,779740,1,2
217,108,779933,1,2
143,139,780127,6,0,B|6:278,2,160,6|0|2
256,256,781288,1,0
296,320,781482,2,0,B|352:288|351:201|265:174,1,160
256,256,782062,1,0
216,320,782256,2,0,B|166:296|164:212|223:186,1,160
256,120,782837,1,2
408,64,783224,6,0,B|480:104|520:191|485:284|401:329,1,320,0|2
368,256,784191,2,0,B|424:224|425:155|358:122,1,160
144,128,784966,6,0,B|88:160|87:229|154:262,1,160
192,192,785546,1,0
256,248,785740,1,2
320,304,785933,1,2
369,139,786320,6,0,B|506:278,2,160,4|0|2
256,256,787481,1,0
216,320,787675,2,0,B|160:288|161:201|247:174,1,160
256,256,788255,1,0
296,320,788449,2,0,B|346:296|348:212|289:186,1,160
256,120,789030,1,2
216,48,789224,1,0
296,48,789417,5,4
216,336,790191,1,4
160,24,790966,5,4
128,104,791159,1,0
152,184,791353,1,4
216,232,791546,1,0
296,232,791740,5,4
360,184,791933,1,0
384,104,792127,1,4
352,24,792320,1,0
256,32,792514,5,4
