osu file format v9

[General]
AudioFilename: EastNewSound - (Remilia).mp3
AudioLeadIn: 0
PreviewTime: 28440
Countdown: 0
SampleSet: Soft
StackLeniency: 0.7
Mode: 0
LetterboxInBreaks: 0
EpilepsyWarning: 1

[Editor]
DistanceSpacing: 0.9
BeatDivisor: 4
GridSize: 4

[Metadata]
Title:Zakuro wa Chi no Aji, Koi no Aji
Artist:EastNewSound
Creator:Leorda
Version:White Moon
Source:Touhou
Tags:embodiment of scarlet devil koumakyou th06 septette for dead princess remilia stage 6 boss lu-na Numbers 596108

[Difficulty]
HPDrainRate:3
CircleSize:4
OverallDifficulty:3
ApproachRate:5
SliderMultiplier:0.999999999999999
SliderTickRate:2

[Events]
//Background and Video events
0,0,"Remilia.jpg"
//Break Periods
2,42361,53834
2,122899,134773
2,177664,195579
//Storyboard Layer 0 (Background)
//Storyboard Layer 1 (Fail)
//Storyboard Layer 2 (Pass)
//Storyboard Layer 3 (Foreground)
//Storyboard Sound Samples
//Background Colour Transformations
3,100,163,162,255

[TimingPoints]
1880,402.684563758389,4,1,0,100,1,0
55034,-100,4,2,1,100,0,0
57752,-100,4,2,2,100,0,0
57953,-100,4,2,1,100,0,0
59363,-100,4,2,2,100,0,0
59564,-100,4,2,1,100,0,0
60973,-100,4,2,2,100,0,0
61175,-100,4,2,1,100,0,0
63389,-100,4,2,2,100,0,0
63591,-100,4,2,1,100,0,0
69832,-100,4,2,2,100,0,0
70034,-100,4,2,1,100,0,0
70638,-100,4,2,2,100,0,0
70839,-100,4,2,1,100,0,0
81108,-100,4,2,2,100,0,0
81309,-100,4,2,1,100,0,0
83524,-100,4,2,2,100,0,0
83725,-100,4,2,1,100,0,0
85940,-100,4,2,2,100,0,0
86141,-100,4,2,1,100,0,0
86745,-100,4,2,2,100,0,0
86946,-100,4,2,1,100,0,0
89967,-100,4,2,2,100,0,0
90168,-100,4,2,1,100,0,0
95302,-100,4,1,0,80,0,1
98826,-100,4,1,2,80,0,1
99027,-100,4,1,0,80,0,1
103658,-100,4,1,2,80,0,1
103859,-100,4,1,0,80,0,1
105269,-100,4,1,2,80,0,1
105470,-100,4,1,0,80,0,1
106879,-100,4,1,2,80,0,1
107081,-100,4,1,0,80,0,1
108490,-100,4,1,2,80,0,1
108691,-100,4,1,0,80,0,1
110101,-100,4,1,2,80,0,1
110302,-100,4,1,0,80,0,1
111712,-100,4,1,2,80,0,1
111913,-100,4,1,0,80,0,1
112517,-100,4,1,2,80,0,1
112718,-100,4,1,0,80,0,1
115738,-100,4,1,2,80,0,1
115940,-100,4,1,0,80,0,1
116544,-100,4,1,2,80,0,1
116745,-100,4,1,0,80,0,1
118155,-100,4,1,2,80,0,1
118356,-100,4,1,0,80,0,1
118960,-100,4,1,2,80,0,1
119161,-100,4,1,0,80,0,1
121074,-100,4,2,1,5,0,0
122785,-100,4,2,1,100,0,0
143926,-100,4,2,2,100,0,0
144128,-100,4,2,1,100,0,0
168087,-100,4,2,2,100,0,0
168289,-100,4,2,1,100,0,0
168893,-100,4,2,2,100,0,0
169094,-100,4,2,1,100,0,0
170554,-100,4,2,2,100,0,0
170655,-100,4,2,1,100,0,0
172165,-100,4,2,2,100,0,0
172265,-100,4,2,1,100,0,0
175738,-100,4,2,1,5,0,0
196678,-100,4,2,1,100,0,0
203222,-100,4,1,0,80,0,1
206745,-100,4,1,2,80,0,1
206946,-100,4,1,0,80,0,1
209967,-100,4,1,2,80,0,1
210168,-100,4,1,0,80,0,1
212383,-100,4,1,2,80,0,1
212584,-100,4,1,0,80,0,1
214799,-100,4,1,2,80,0,1
215000,-100,4,1,0,80,0,1
216410,-100,4,1,2,80,0,1
216611,-100,4,1,0,80,0,1
217265,-100,4,1,2,80,0,1
217366,-100,4,1,0,80,0,1
220487,-100,4,1,2,80,0,1
220587,-100,4,1,0,80,0,1
221292,-100,4,1,2,80,0,1
221393,-100,4,1,0,80,0,1
224514,-100,4,1,2,80,0,1
224614,-100,4,1,0,80,0,1
225319,-100,4,1,2,80,0,1
225420,-100,4,1,0,80,0,1
228993,-100,4,2,0,100,0,0

[Colours]
Combo1 : 255,166,255
Combo2 : 255,185,220
Combo3 : 255,128,192

[HitObjects]
256,340,29262,1,4
164,340,29665,2,0,B|167:280|219:256,1,99.9999999999999,8|0
304,258,30470,2,0,B|400:260|360:352|472:352,2,200,8|8|8
213,258,32484,6,0,B|208:196|276:164,1,99.9999999999999,0|8
216,96,33289,2,0,B|124:136|116:256,2,200
308,96,35302,2,0,B|380:96,2,50,8|0|0
272,180,36108,5,8
232,256,36510,2,0,B|204:304,2,50,0|0|8
320,240,37316,2,0,B|355:283|419:283|450:241,2,150,0|0|8
384,180,38926,6,0,B|384:68,3,99.9999999999999,0|8|0|8
293,80,40537,2,0,B|293:192,4,99.9999999999999,0|8|0|8|4
144,192,55034,6,0,B|144:132|200:112,2,99.9999999999999,4|8|0
232,196,56242,2,0,B|232:256|176:276,2,99.9999999999999,8|0|8
260,108,57450,2,0,B|316:128|324:192|324:192|416:192,1,200
503,192,58658,5,8
444,260,59061,2,0,B|400:228|400:160|432:112|484:104,1,200
482,104,60269,1,8
504,192,60671,2,0,B|300:192,1,200
213,192,61879,5,8
122,192,62282,2,0,B|52:192,2,50,0|0|8
168,116,63088,2,0,B|244:88|312:128|307:207|284:232,1,200
260,296,64296,1,8
260,296,64698,5,0
204,224,65101,2,0,B|204:168|248:136,1,99.9999999999999,8|0
294,213,65906,2,0,B|336:182|336:126,1,99.9999999999999,8|0
296,44,66712,5,8
208,44,67114,1,0
128,88,67517,1,8
92,112,67718,1,8
52,88,67920,1,4
4,164,68322,6,8,B|92:212|92:212|180:165,1,200
264,128,69531,2,0,B|352:80|352:80|444:128,2,200,0|0|0
320,200,71544,5,8
360,180,71745,1,0
400,200,71947,1,0
360,280,72349,2,0,B|360:344,2,50,8|0|0
276,312,73155,1,8
192,280,73557,1,0
146,280,73759,1,0
101,280,73960,1,8
10,280,74363,6,0,B|-16:224|16:172,1,99.9999999999999,0|8
100,172,75168,2,0,B|100:116,2,50,0|0|8
168,112,75973,2,0,B|274:112,1,99.9999999999999,0|8
360,112,76779,2,0,B|416:112,1,50,0|0
500,112,77383,2,0,B|444:112,1,50
436,200,77987,6,0,B|412:248|464:248|428:308,2,99.9999999999999,8|0|8
436,200,79195,1,4
436,112,79598,1,12
484,36,80000,2,0,B|436:12|384:36,1,99.9999999999999,4|12
396,124,80806,6,0,B|332:142|284:122|268:70,2,150,4|0|8
368,208,82416,2,0,B|304:216|252:184,1,99.9999999999999,0|8
208,136,83222,2,0,B|180:108|180:64|180:64|52:64|52:64,1,200
100,144,84430,5,8
140,224,84833,1,0
212,276,85235,1,8
296,304,85638,2,0,B|408:304|476:220,2,200
224,252,87651,5,8
188,224,87853,1,0
172,180,88054,1,0
172,88,88457,2,0,B|180:32|256:32,2,99.9999999999999,8|0|8
248,140,89665,2,0,B|360:180|336:100|452:132,1,200
412,212,90873,5,8
332,252,91275,1,0
241,252,91678,1,8
150,252,92081,2,4,B|64:252|64:152,2,150
256,192,93692,12,4,95302
256,192,95705,5,8
165,192,96108,2,0,B|164:136|220:104,2,99.9999999999999,0|8|0
212,268,97316,2,8,B|212:376,2,99.9999999999999,8|0|8
260,190,98524,6,0,B|260:108|384:104|383:192,1,200
320,256,99732,1,8
388,316,100135,1,0
456,256,100537,2,0,B|520:168,2,99.9999999999999,8|0|8
388,316,101745,6,0,B|288:316,1,99.9999999999999,0|8
197,316,102551,2,0,B|200:256|264:248,1,99.9999999999999,0|8
348,240,103356,2,0,B|412:240|412:178|412:178|412:129,2,150,0|0|8
328,148,104967,6,0,B|272:172|260:232|260:232|60:232,1,300,0|8
128,160,106577,2,0,B|208:160|208:160|236:104|308:72,1,200
383,78,107786,5,8
383,78,107987,1,0
383,78,108188,2,0,B|448:164|380:272,1,200,4|0
304,300,109396,1,8
304,300,109598,2,0,B|224:300|224:300|224:308|224:308|144:308|144:308|144:316|144:316|68:316,1,250
44,232,111007,5,8
100,160,111410,2,0,B|184:152|184:56,1,150
139,56,112215,2,0,B|292:56,1,150
384,152,113423,5,8
424,172,113624,1,0
464,192,113826,1,0
460,280,114228,1,8
420,262,114430,1,0
380,242,114631,1,4
248,220,115235,5,0
248,220,115437,2,0,B|208:220|208:220|208:228|208:228|176:228|176:228|176:236|176:236|144:236|144:236|144:244|144:244|112:244,1,150
76,244,116242,2,0,B|24:224|24:148|76:120|75:120,2,150,4|0|8
136,312,117853,6,0,B|300:312,1,150,4|0
332,312,118658,2,0,B|397:280|397:180,1,150,4|0
256,192,119463,12,4,121074
256,192,121175,12,0,122685
256,192,135973,5,4
256,192,136376,1,4
256,192,136779,1,4
166,192,137182,6,0,B|176:128|232:104,2,99.9999999999999,4|8|0
212,268,138390,1,8
257,268,138591,1,0
301,268,138792,1,0
348,192,139195,2,0,B|338:128|282:104,3,99.9999999999999,8|0|8|0
205,110,140806,5,8
160,110,141007,1,0
115,110,141208,1,0
44,168,141611,2,0,B|0:224,2,50,8|0|0
120,216,142416,2,0,B|188:216,2,50,8|0|0
60,284,143222,1,8
108,360,143624,6,0,B|160:344|160:288|160:288|268:288|268:288,1,200
264,288,144833,1,8
354,288,145235,2,0,B|352:228|284:208,1,99.9999999999999,0|8
252,204,145839,2,0,B|188:204,2,50
320,144,146645,2,0,B|384:144,1,50
460,144,147249,5,8
400,76,147651,1,0
312,56,148054,1,8
220,56,148457,1,0
132,68,148859,5,8
104,152,149262,2,0,B|64:188|64:188,2,50,0|0|8
148,152,149866,2,0,B|188:188|188:188,1,50,0|4
128,256,150470,5,8
160,288,150671,1,0
204,300,150873,1,0
200,212,151275,2,8,B|264:212|288:284|288:284|372:284,1,200
456,288,152484,1,0
484,204,152886,1,8
460,116,153289,6,0,B|444:56|376:44,1,99.9999999999999,0|8
304,68,154094,1,0
364,136,154497,1,8
320,152,154698,1,0
276,168,154900,2,0,B|172:204,2,99.9999999999999,0|8|0
444,228,156510,6,0,B|448:288|392:312,1,99.9999999999999,0|8
360,228,157316,2,0,B|312:228,2,50,0|0|8
400,148,158121,1,0
492,148,158524,1,8
448,72,158926,2,0,B|448:12,1,50
372,72,159531,2,0,B|372:12,1,50
284,40,160135,5,8
240,44,160336,1,0
212,76,160537,1,0
284,128,160940,1,8
256,160,161141,1,0
212,164,161343,1,4
140,216,161745,1,4
208,276,162148,2,0,B|208:340,2,50,4|0|4
288,236,162953,5,4
336,312,163356,1,8
384,236,163759,1,0
432,312,164161,1,8
480,236,164564,1,0
428,160,164967,1,8
338,160,165369,2,0,B|232:160|232:160,2,99.9999999999999,0|8|0
360,72,166577,5,8
450,72,166980,2,0,B|508:72,2,50,0|0|8
404,148,167786,2,0,B|404:360,2,200
404,56,169799,5,8
324,100,170202,2,0,B|248:100,2,74.9999999999999
352,136,171007,2,0,B|456:136|456:136,1,99.9999999999999,0|8
488,216,171812,2,0,B|488:292,2,74.9999999999999
444,216,172618,6,0,B|330:216,1,99.9999999999999,0|8
352,304,173423,2,8,B|238:304,1,99.9999999999999,0|8
168,268,174228,5,4
104,148,174833,1,4
240,148,175437,1,4
256,192,175839,12,0,177450
256,192,196779,12,4,201611
336,148,202416,5,0
336,238,202819,1,0
256,280,203222,5,4
256,192,203624,1,8
256,101,204027,2,0,B|192:108|172:164,1,99.9999999999999,0|8
176,200,204631,2,0,B|176:252|232:296|288:272|288:272,1,150,0|8
364,232,205638,1,0
408,232,205839,1,0
452,232,206041,1,8
492,152,206443,6,0,B|440:152|440:152|440:144|440:144|388:144|388:144|388:136|388:136|304:136,1,200
217,136,207651,2,8,B|137:136|137:136|137:144|137:144|85:144|85:144|85:152|85:152|33:152,2,200
304,152,209665,6,0,B|300:220|225:220|225:220|225:320,1,200
312,280,210873,1,8
312,280,211074,2,0,B|376:240|384:152,3,150,0|8|0|0
368,64,213289,5,8
323,64,213490,2,0,B|256:64|256:64|256:68|256:68|176:68,1,150,0|8
87,84,214497,2,0,B|16:108|20:212|87:239,1,200
168,272,215705,5,8
212,272,215906,1,0
257,272,216108,2,0,B|324:244|328:140|256:116,1,200,4|0
211,116,217114,2,0,B|380:116,1,150
444,148,218121,5,8
440,236,218524,1,0
408,264,218725,1,0
364,272,218926,1,8
273,272,219329,6,0,B|224:272|224:272|224:280|224:280|168:280|168:280,1,99.9999999999999,0|8
92,280,220135,1,0
92,280,220336,2,0,B|44:312|44:380,1,99.9999999999999
136,356,221141,2,0,B|292:356,1,150
364,308,222148,5,8
392,272,222349,1,0
416,236,222551,2,0,B|456:192|456:132,1,99.9999999999999,4|8
368,168,223356,2,0,B|260:168,1,99.9999999999999,0|8
177,168,224161,2,0,B|180:48|316:60,2,200,4|0|4
112,232,226175,1,8
180,292,226577,1,0
248,232,226980,1,8
256,192,227383,12,4,228994
