osu file format v9

[General]
AudioFilename: EastNewSound - (Remilia).mp3
AudioLeadIn: 0
PreviewTime: 28440
Countdown: 0
SampleSet: Normal
StackLeniency: 0.7
Mode: 1
LetterboxInBreaks: 0
EpilepsyWarning: 1

[Editor]
Bookmarks: 163370
DistanceSpacing: 1
BeatDivisor: 4
GridSize: 4

[Metadata]
Title:Zakuro wa Chi no Aji, Koi no Aji
Artist:EastNewSound
Creator:Leorda
Version:Taiko Moon
Source:Touhou
Tags:embodiment of scarlet devil koumakyou th06 septette for dead princess remilia stage 6 boss lu-na Numbers 596108

[Difficulty]
HPDrainRate:8
CircleSize:7
OverallDifficulty:3
ApproachRate:10
SliderMultiplier:1.4
SliderTickRate:1

[Events]
//Background and Video events
0,0,"Remilia.jpg"
//Break Periods
//Storyboard Layer 0 (Background)
//Storyboard Layer 1 (Fail)
//Storyboard Layer 2 (Pass)
//Storyboard Layer 3 (Foreground)
//Storyboard Sound Samples
//Background Colour Transformations
3,100,163,162,255

[TimingPoints]
1880,402.684563758389,4,1,0,100,1,0
95302,-100,4,1,0,100,0,1
121074,-100,4,1,0,100,0,0
122685,-200,4,1,0,100,0,0
135571,-100,4,1,0,100,0,0
177450,-200,4,1,0,100,0,0
190336,-133.333333333333,4,1,0,100,0,0
200000,-100,4,1,0,100,0,0
203222,-100,4,1,0,100,0,1
228994,-100,4,1,0,100,0,0

[Colours]
Combo1 : 255,166,255
Combo2 : 255,185,220
Combo3 : 255,128,192

[HitObjects]
132,144,28054,1,4
132,144,28457,1,4
132,144,28859,1,6
212,176,29262,1,0
212,176,29564,1,0
212,176,29665,1,0
224,124,29866,1,2
224,124,30067,1,0
224,124,30369,1,0
224,124,30470,1,2
224,124,30671,1,0
196,112,30873,1,2
196,112,31175,1,2
196,112,31275,1,2
196,112,31477,1,2
196,112,31678,1,0
196,112,31880,1,2
196,112,32081,1,2
196,112,32484,1,0
196,112,32786,1,0
196,112,32886,1,2
196,112,33088,1,0
196,112,33289,1,0
196,112,33591,1,2
196,112,33692,1,0
196,112,33893,1,2
196,112,34094,1,0
264,120,34195,1,0
264,120,34396,1,0
264,120,34497,1,2
304,148,34698,1,0
344,184,34900,1,0
332,140,35000,1,2
332,140,35202,1,2
332,140,35302,1,0
296,184,35504,1,2
296,184,35705,1,0
296,184,35806,1,0
272,184,36007,1,2
272,184,36108,1,0
168,216,36309,1,2
168,216,36510,1,2
168,216,36913,1,0
168,216,37114,1,2
168,216,37316,1,0
168,216,37416,1,2
168,216,37618,1,2
168,216,37718,1,0
168,216,37920,1,0
168,216,38121,1,2
292,188,38423,1,2
292,188,38725,1,2
292,188,38926,1,0
292,188,39228,1,0
292,188,39329,1,2
292,188,39531,1,0
292,188,39732,1,0
292,188,40034,1,2
292,188,40135,1,0
292,188,40336,1,2
292,188,40537,1,0
360,120,40638,1,0
360,120,40839,1,0
360,120,40940,1,2
360,120,41041,1,0
360,120,41242,1,2
360,120,41343,1,2
292,188,41544,1,0
292,188,41745,1,2
292,188,41947,1,2
252,200,42148,1,0
228,160,42349,1,0
228,160,42450,1,2
228,160,42752,1,0
228,160,42953,1,0
228,160,43155,1,2
228,160,43255,1,0
228,160,43557,1,0
228,160,43759,1,2
228,160,43960,1,2
228,160,44061,1,2
228,160,44262,1,2
228,160,44363,1,2
228,160,44564,1,0
228,160,44765,1,2
228,160,44967,1,2
228,160,45168,1,0
228,160,45369,1,2
228,160,45671,1,2
228,160,45973,1,0
256,140,46175,1,2
256,140,46477,1,2
256,140,46779,1,0
256,140,46980,1,2
304,200,47282,1,2
304,200,47383,1,2
304,200,47584,1,2
304,200,47786,1,0
304,200,47987,1,2
304,200,48188,1,2
204,204,48390,1,2
204,204,48591,1,0
204,204,48893,1,0
204,204,48994,1,0
204,204,49195,1,0
204,204,49396,1,2
204,204,49598,1,2
204,204,49799,1,0
204,204,50000,1,2
204,204,50202,1,0
204,204,50504,1,0
204,204,50604,1,2
204,204,50806,1,0
204,204,51007,1,2
204,204,51108,1,2
204,204,51208,1,2
204,204,51410,1,0
204,204,51510,1,2
204,204,51712,1,0
204,204,51913,1,2
204,204,52014,1,0
204,204,52114,1,0
204,204,52215,1,2
240,232,52416,1,0
240,232,52618,1,2
240,232,52920,1,2
240,232,53222,1,2
256,192,53423,12,0,54631
144,280,55034,5,0
144,280,55437,1,0
252,216,55839,1,2
252,216,56242,1,2
228,228,56443,1,2
228,228,56645,1,0
228,228,56745,1,0
228,228,56947,1,0
228,228,57047,1,2
228,228,57249,1,0
228,228,57450,1,2
228,228,57551,1,2
228,228,57651,1,2
228,228,57752,1,0
228,228,57953,1,2
228,228,58054,1,0
228,228,58255,1,0
228,228,58557,1,2
228,228,58658,1,0
228,228,58859,1,0
228,228,59061,1,2
228,228,59161,1,2
228,228,59363,1,0
228,228,59463,1,2
228,228,59665,1,0
228,228,59866,1,2
228,228,59967,1,2
228,228,60168,1,0
216,212,60269,1,2
216,212,60369,1,2
216,212,60470,1,0
216,212,60671,1,0
216,212,60873,1,2
216,212,60973,1,2
216,212,61074,1,2
216,212,61275,1,2
216,212,61477,1,0
216,212,61678,1,0
216,212,61879,1,2
216,212,62282,1,0
216,212,62383,1,2
216,212,62584,1,2
216,212,62685,1,0
216,212,62886,1,0
216,212,63088,1,2
216,212,63289,1,2
216,212,63490,1,0
216,212,63893,1,2
216,212,63994,1,0
216,212,64195,1,0
216,212,64296,1,2
216,212,64497,1,0
216,212,64698,1,2
216,212,64799,1,2
252,160,65000,1,0
252,160,65101,1,2
252,160,65302,1,0
252,160,65403,1,0
252,160,65504,1,2
252,160,65604,1,2
252,160,65806,1,0
252,160,65906,1,2
252,160,66108,1,0
252,160,66309,1,2
252,160,66510,1,2
252,160,66712,1,2
252,160,66913,1,2
252,160,67014,1,2
252,160,67114,1,2
252,160,67215,1,2
252,160,67316,1,2
224,168,67517,1,2
160,276,67920,1,0
228,148,68222,1,0
228,148,68322,1,0
228,148,68624,1,2
228,148,68725,1,0
212,120,69027,1,0
212,120,69128,1,2
212,120,69329,1,0
212,120,69531,1,2
212,120,69732,1,2
212,120,69833,1,0
212,120,70034,1,0
212,120,70135,1,0
212,120,70235,1,2
212,120,70336,1,0
212,120,70537,1,2
212,120,70739,1,2
212,120,71141,1,0
212,120,71443,1,0
212,120,71544,1,2
212,120,71745,1,0
212,120,71947,1,0
212,120,72148,1,2
212,120,72349,1,2
212,120,72450,1,0
176,132,72651,1,2
176,132,72752,1,0
176,132,72953,1,0
176,132,73155,1,2
176,132,73356,1,2
176,132,73557,1,2
176,132,73658,1,2
176,132,73759,1,0
176,132,73859,1,2
176,132,73960,1,2
176,132,74161,1,0
176,132,74363,1,2
176,132,74665,1,2
176,132,74967,1,2
176,132,75571,1,0
176,132,75772,1,2
176,132,75973,1,0
176,132,76275,1,0
176,132,76577,1,2
176,132,77182,1,0
176,132,77383,1,0
236,128,77584,1,2
236,128,77685,1,2
236,128,77786,1,2
236,128,77886,1,2
236,128,77987,1,0
236,128,78088,1,0
236,128,78188,1,2
236,128,78289,1,2
236,128,78390,1,0
236,128,78490,1,0
236,128,78591,1,0
236,128,78692,1,0
236,128,78792,1,2
236,128,78893,1,2
236,128,78994,1,0
176,132,79195,1,2
176,132,79497,1,2
176,132,79799,1,2
196,136,80000,1,2
220,172,80806,1,0
220,172,81007,1,0
240,200,81208,1,2
240,200,81410,1,0
240,200,81611,1,0
240,200,81712,1,0
240,200,81913,1,0
240,200,82014,1,2
240,200,82215,1,0
220,172,82416,1,2
240,200,82618,1,2
240,200,82819,1,0
240,200,83020,1,2
240,200,83222,1,0
240,200,83322,1,2
240,200,83524,1,2
220,172,83624,1,0
240,200,83826,1,2
296,164,84027,1,0
296,164,84128,1,0
296,164,84329,1,2
296,164,84430,1,0
296,164,84531,1,2
296,164,84732,1,2
296,164,84833,1,0
296,164,85034,1,2
296,164,85135,1,2
296,164,85336,1,2
296,164,85437,1,0
296,164,85638,1,2
216,172,86041,1,2
216,172,86443,1,0
216,172,86645,1,0
216,172,86846,1,2
252,316,87249,1,0
252,316,87349,1,0
236,304,87551,1,0
236,304,87651,1,2
236,304,87752,1,2
236,304,87853,1,0
236,304,88054,1,0
236,304,88155,1,2
236,304,88356,1,0
236,304,88457,1,2
236,304,88557,1,0
236,304,88658,1,2
112,240,88859,1,0
112,240,89061,1,2
112,240,89262,1,0
112,240,89463,1,0
112,240,89665,1,2
112,240,89967,1,2
112,240,90269,1,2
112,240,90470,1,0
112,240,90772,1,0
112,240,90873,1,0
112,240,91074,1,0
92,248,91275,1,2
92,248,91577,1,0
92,248,91678,1,2
112,240,91879,1,0
268,232,92081,1,2
268,232,92148,1,2
268,232,92215,1,2
268,232,92282,1,2
248,240,92685,1,2
248,240,92752,1,2
248,240,92819,1,2
248,240,92886,1,0
256,192,93289,12,0,94497
280,192,94900,5,2
280,192,95101,1,2
280,192,95302,1,0
280,192,95604,1,0
280,192,95705,1,2
280,192,95906,1,0
280,192,96108,1,2
280,192,96309,1,0
280,192,96510,1,0
280,192,96712,1,2
280,192,96913,1,0
280,192,97014,1,0
280,192,97215,1,0
280,192,97316,1,2
280,192,97517,1,0
280,192,97718,1,2
280,192,97920,1,2
280,192,98121,1,0
280,192,98322,1,2
280,192,98524,1,0
280,192,98624,1,0
280,192,98826,1,0
280,192,98926,1,0
280,192,99027,1,0
280,192,99128,1,2
280,192,99329,1,0
280,192,99531,1,2
296,120,99631,1,0
280,192,99833,1,2
280,192,99933,1,0
248,176,100135,1,0
248,176,100437,1,2
248,176,100739,1,2
248,176,100940,1,0
240,152,101141,1,2
248,176,101343,1,2
224,232,101745,1,0
224,232,101846,1,0
224,232,102047,1,0
224,232,102148,1,2
224,232,102349,1,0
224,232,102551,1,0
224,232,102651,1,0
224,232,102853,1,0
224,232,102953,1,2
224,232,103155,1,0
224,232,103356,1,2
224,232,103457,1,2
224,232,103658,1,0
224,232,103759,1,2
224,232,103960,1,0
224,232,104161,1,0
204,220,104564,1,2
204,220,104765,1,2
204,220,104967,1,0
204,220,105269,1,2
204,220,105571,1,2
204,220,105772,1,0
204,220,105973,1,0
204,220,106074,1,0
204,220,106175,1,2
204,220,106376,1,0
204,220,106477,1,0
204,220,106678,1,2
204,220,106879,1,0
204,220,106980,1,2
192,152,107182,1,0
192,152,107383,1,2
192,152,107584,1,2
192,152,107786,1,0
168,232,108188,1,0
168,232,108490,1,0
168,232,108792,1,2
168,232,108994,1,0
168,232,109195,1,2
168,232,109296,1,2
168,232,109396,1,0
168,232,109598,1,2
168,232,109799,1,0
168,232,109900,1,2
168,232,110101,1,0
168,232,110202,1,2
168,232,110302,1,0
168,232,110403,1,0
168,232,110604,1,2
168,232,110705,1,2
168,232,110906,1,0
168,232,111007,1,2
168,232,111108,1,2
168,232,111208,1,2
184,244,111410,1,0
168,232,111712,1,0
168,232,111812,1,2
168,232,112014,1,0
168,232,112215,1,2
168,232,112517,1,2
168,232,112618,1,0
184,244,112819,1,2
256,172,113020,1,0
256,172,113121,1,2
256,172,113322,1,2
292,176,113423,1,0
292,176,113524,1,2
292,176,113725,1,2
292,176,113826,1,0
256,216,114027,1,2
256,216,114228,1,2
216,208,114631,1,0
216,208,114933,1,0
216,208,115135,1,0
216,208,115235,1,2
216,208,115336,1,2
216,208,115437,1,0
216,208,115739,1,2
216,208,115940,1,2
216,208,116041,1,0
216,208,116141,1,0
216,208,116242,1,2
304,140,116544,1,2
304,140,116846,1,0
304,140,117047,1,2
304,140,117450,1,0
304,140,117651,1,0
304,140,117853,1,2
304,140,118155,1,0
304,140,118255,1,2
304,140,118557,1,0
304,140,118658,1,0
304,140,118960,1,2
304,140,119061,1,0
304,140,119363,1,2
304,140,119463,1,0
304,140,119665,1,2
304,140,119866,1,2
304,140,120067,1,2
304,140,120168,1,2
304,140,120269,1,0
304,140,120369,1,2
304,140,120470,1,0
304,140,120571,1,0
304,140,120671,1,2
228,232,122685,1,0
228,232,122886,1,0
228,232,123088,1,2
196,228,123289,1,0
196,228,123490,1,2
160,208,123893,1,2
160,208,124296,1,2
160,208,124497,1,2
160,208,124698,1,0
160,208,124900,1,2
140,200,125101,1,0
160,208,125504,1,2
284,184,125906,1,0
248,152,126309,1,0
248,152,126510,1,0
248,152,126712,1,2
248,152,127114,1,0
200,128,127517,1,2
200,128,127718,1,2
200,128,127920,1,0
200,128,128121,1,2
200,128,128524,1,0
200,128,128725,1,2
200,128,129128,1,2
200,128,129531,1,0
200,128,129732,1,0
200,128,129933,1,2
200,128,130336,1,2
224,100,130739,1,2
224,100,130940,1,2
224,100,131141,1,0
224,100,131544,1,2
224,100,131947,1,0
216,120,132349,1,0
216,120,132752,1,0
204,96,133155,1,2
204,96,133557,1,0
204,96,133759,1,0
204,96,133960,1,4
240,224,135973,1,4
240,224,136376,1,6
240,224,136779,1,6
240,200,137182,1,0
240,200,137484,1,0
240,200,137584,1,2
240,200,137786,1,0
192,116,137987,1,0
192,116,138289,1,2
192,116,138390,1,0
192,116,138591,1,2
192,116,138792,1,0
192,116,138893,1,2
192,116,139094,1,0
180,132,139195,1,2
232,192,139396,1,0
232,192,139598,1,0
232,192,140000,1,2
232,192,140202,1,2
232,192,140403,1,0
232,192,140705,1,0
232,192,141007,1,2
232,192,141611,1,0
232,192,141812,1,0
232,192,142014,1,2
232,192,142316,1,0
232,192,142618,1,2
232,192,143222,1,0
232,192,143423,1,2
232,192,143624,1,0
232,192,143725,1,0
232,192,143926,1,0
232,192,144027,1,0
232,192,144228,1,2
232,192,144329,1,0
232,192,144531,1,0
232,192,144631,1,2
232,192,144833,1,0
232,192,145034,1,2
232,192,145235,1,0
232,192,145336,1,2
232,192,145537,1,0
232,192,145638,1,2
232,192,145839,1,0
232,192,145940,1,0
232,192,146141,1,2
232,192,146242,1,0
232,192,146443,1,2
232,192,146645,1,0
232,192,146846,1,0
232,192,147047,1,0
232,192,147148,1,2
232,192,147249,1,0
232,192,147450,1,2
232,192,147551,1,0
232,192,147752,1,0
232,192,147953,1,2
232,192,148054,1,2
232,192,148155,1,0
232,192,148255,1,2
232,192,148356,1,2
232,192,148457,1,0
204,112,148859,1,2
204,112,149061,1,2
204,112,149262,1,0
164,108,150067,1,0
164,108,150369,1,0
164,108,150470,1,2
128,112,150671,1,0
128,112,150873,1,0
128,112,151175,1,2
128,112,151275,1,0
128,112,151477,1,2
260,120,151678,1,2
260,120,151779,1,2
260,120,151980,1,0
260,120,152081,1,2
268,252,152282,1,0
268,252,152484,1,2
268,252,152584,1,2
268,252,152786,1,2
268,252,152886,1,2
268,252,152987,1,2
268,252,153088,1,0
268,252,153289,1,0
268,252,153591,1,0
268,252,153893,1,2
268,252,154094,1,0
268,252,154396,1,2
268,252,154698,1,2
268,252,154900,1,0
268,252,155000,1,2
268,252,155202,1,2
268,252,155302,1,0
268,252,155403,1,0
268,252,155504,1,2
184,164,155705,1,0
184,164,156108,1,0
184,164,156510,1,2
184,164,156712,1,2
184,164,156812,1,2
184,164,156913,1,0
184,164,157014,1,2
184,164,157114,1,2
184,164,157316,1,0
184,164,157416,1,2
184,164,157618,1,2
184,164,157718,1,0
184,164,157920,1,2
152,192,158121,1,0
152,192,158322,1,0
152,192,158423,1,0
152,192,158524,1,2
152,192,158624,1,0
152,192,158725,1,0
152,192,158926,1,0
152,192,159027,1,2
152,192,159228,1,2
152,192,159329,1,0
152,192,159531,1,2
152,192,159732,1,0
152,192,160034,1,0
152,192,160336,1,2
152,192,160537,1,0
152,192,160839,1,0
152,192,161141,1,2
152,192,161343,1,0
192,196,161745,1,2
192,196,162148,1,6
204,236,162953,1,2
204,236,163155,1,0
204,236,163255,1,2
216,204,163457,1,0
216,204,163557,1,2
216,204,163759,1,0
216,204,163859,1,2
216,204,164061,1,0
216,204,164161,1,2
216,204,164363,1,0
216,204,164564,1,2
216,204,164765,1,2
216,204,164866,1,0
216,204,165067,1,2
216,204,165168,1,0
216,204,165369,1,2
216,204,165470,1,0
180,172,165671,1,2
180,172,165772,1,0
180,172,165973,1,2
180,172,166175,1,0
180,172,166275,1,0
156,180,166477,1,2
156,180,166678,1,0
156,180,166779,1,2
156,180,166980,1,0
156,180,167081,1,2
156,180,167282,1,2
156,180,167484,1,2
156,180,167584,1,0
156,180,167786,1,2
200,160,167987,1,2
200,160,168088,1,0
200,160,168188,1,0
200,160,168390,1,2
200,160,168490,1,0
200,160,168692,1,0
200,160,168792,1,2
200,160,168893,1,2
200,160,168994,1,0
200,160,169195,1,2
200,160,169396,1,2
200,160,169598,1,0
200,160,169799,1,2
200,160,170101,1,0
200,160,170202,1,2
200,160,170403,1,0
200,160,170604,1,2
200,160,171007,1,2
200,160,171208,1,2
200,160,171309,1,2
200,160,171410,1,0
200,160,171510,1,2
200,160,171611,1,2
200,160,171712,1,0
200,160,171812,1,0
200,160,172014,1,2
200,160,172215,1,0
200,160,172416,1,2
200,160,172618,1,0
200,160,172920,1,0
200,160,173222,1,2
200,160,173423,1,0
200,160,173725,1,0
200,160,173826,1,2
200,160,174027,1,0
200,160,174228,1,6
200,160,174833,1,6
340,152,175437,1,2
340,152,175504,1,2
340,152,175571,1,2
340,152,175638,1,2
272,176,177047,1,0
272,176,177249,1,2
236,240,177450,1,0
188,204,177853,1,0
188,204,178054,1,2
188,204,178255,1,2
252,136,178457,1,2
252,136,178658,1,0
188,204,178859,1,2
244,168,179061,1,2
252,204,180269,1,2
252,204,180470,1,0
252,204,180671,1,2
308,168,181275,1,0
308,168,181477,1,0
308,168,181678,1,2
308,168,182081,1,2
308,168,183490,1,0
308,168,183692,1,0
308,168,183893,1,2
308,168,184497,1,0
308,168,184698,1,2
308,168,184900,1,2
308,168,185302,1,0
308,168,185504,1,2
284,160,186712,1,2
284,160,186913,1,0
284,160,187114,1,2
284,160,187316,1,2
284,160,187517,1,0
284,160,187718,1,2
272,136,188322,1,0
272,136,188725,1,2
272,136,189933,1,0
272,136,190135,1,2
272,136,190336,1,4
332,176,190940,1,2
332,176,191141,1,0
308,224,191343,1,2
308,224,191745,1,0
308,224,191947,1,2
288,236,193155,1,0
288,236,193356,1,2
288,236,193557,1,4
272,176,194161,1,0
188,180,194363,1,0
188,180,194564,1,2
188,180,194967,1,0
188,180,195168,1,2
304,248,195369,1,2
304,248,195571,1,2
304,248,195772,1,2
304,248,195973,1,2
308,200,196376,1,0
308,200,196577,1,2
308,200,196779,1,0
308,200,197081,1,0
308,200,197383,1,2
308,200,197987,1,0
308,200,198188,1,0
308,200,198390,1,2
264,164,198692,1,2
264,164,198994,1,2
264,164,199195,1,0
264,164,199598,1,2
264,164,199799,1,2
264,164,200000,1,0
264,164,200302,1,0
264,164,200604,1,2
264,164,200806,1,0
264,164,201108,1,2
264,164,201410,1,2
268,144,201611,1,2
268,144,201712,1,0
268,144,201812,1,0
268,144,201913,1,0
268,144,202014,1,2
268,144,202114,1,0
268,144,202215,1,0
268,144,202316,1,0
268,144,202416,1,2
268,144,202517,1,0
268,144,202618,1,0
268,144,202718,1,0
268,144,202819,1,2
268,144,202920,1,0
268,144,203020,1,2
268,144,203121,1,0
268,144,203222,1,2
200,184,203524,1,0
220,176,203725,1,0
200,184,203826,1,2
260,148,204027,1,2
260,148,204329,1,2
260,148,204531,1,2
260,148,204631,1,0
260,148,204833,1,0
296,124,204933,1,0
296,124,205135,1,2
296,124,205235,1,0
276,172,205437,1,2
276,172,205537,1,2
320,144,205638,1,0
340,108,205739,1,0
340,108,205940,1,2
340,108,206041,1,0
320,144,206242,1,2
320,144,206443,1,0
320,144,206544,1,2
308,160,206745,1,0
308,160,206947,1,0
308,160,207047,1,2
192,296,207249,1,2
192,296,207349,1,0
192,296,207551,1,2
192,296,207752,1,2
192,296,207853,1,0
208,192,208054,1,0
208,192,208356,1,2
208,192,208658,1,2
208,192,208859,1,0
200,136,209061,1,2
200,136,209262,1,2
160,248,209665,1,0
184,156,209967,1,0
184,156,210067,1,2
184,156,210269,1,0
184,156,210369,1,0
184,156,210470,1,0
184,156,210772,1,2
184,156,210873,1,0
184,156,211074,1,2
184,156,211275,1,0
324,112,211376,1,0
324,112,211577,1,0
324,112,211678,1,2
324,112,211880,1,2
324,112,212081,1,0
272,204,212282,1,2
272,204,212484,1,2
272,204,212886,1,0
272,204,212987,1,0
272,204,213188,1,0
272,204,213289,1,2
272,204,213490,1,0
272,204,213692,1,0
272,204,213792,1,0
272,204,213893,1,0
272,204,213994,1,0
272,204,214195,1,0
272,204,214296,1,2
272,204,214497,1,0
200,176,214698,1,2
200,176,214799,1,2
200,176,214900,1,0
200,176,215101,1,2
200,176,215302,1,0
200,176,215403,1,0
200,176,215604,1,2
200,176,215705,1,0
336,168,216108,1,0
336,168,216410,1,0
280,168,216611,1,0
280,168,216712,1,2
280,168,216913,1,0
280,168,217215,1,0
280,168,217416,1,2
280,168,217517,1,0
292,140,217718,1,0
292,140,217819,1,2
292,140,218020,1,2
292,140,218121,1,0
292,140,218222,1,2
292,140,218423,1,2
292,140,218524,1,0
168,208,218725,1,2
168,208,218926,1,2
168,208,219128,1,0
168,208,219329,1,2
168,208,219531,1,2
168,208,219732,1,2
168,208,220034,1,0
168,208,220135,1,2
216,176,220336,1,2
216,176,220537,1,2
164,148,220739,1,0
164,148,220940,1,2
164,148,221242,1,2
164,148,221544,1,2
164,148,221745,1,0
144,144,221947,1,0
144,144,222047,1,0
144,144,222148,1,2
144,144,222349,1,0
144,144,222551,1,2
144,144,222651,1,0
144,144,222853,1,0
144,144,223054,1,0
144,144,223155,1,2
216,184,223356,1,0
216,184,223557,1,0
216,184,223658,1,2
216,184,223859,1,2
216,184,223960,1,0
216,184,224161,1,0
216,184,224363,1,2
216,184,224463,1,2
216,184,224564,1,2
216,184,224665,1,0
216,184,224765,1,0
256,200,224967,1,2
256,200,225168,1,2
256,200,225369,1,0
256,200,225571,1,0
256,200,225772,1,2
256,200,226074,1,2
256,200,226376,1,2
256,200,226577,1,0
256,200,226880,1,0
256,200,227182,1,2
256,192,227383,12,0,228591
256,192,228994,5,4
