osu file format v12

[General]
AudioFilename: EastNewSoundTrack4.mp3
AudioLeadIn: 0
PreviewTime: -1
Countdown: 0
SampleSet: None
StackLeniency: 0.7
Mode: 3
LetterboxInBreaks: 0
SpecialStyle: 0
WidescreenStoryboard: 1

[Editor]
DistanceSpacing: 0.8
BeatDivisor: 4
GridSize: 16
TimelineZoom: 2.799999

[Metadata]
Title:Track4
TitleUnicode:Track4
Artist:EastNewSound
ArtistUnicode:EastNewSound
Creator:Entozer
Version:Test
Source:
Tags:
BeatmapID:434354
BeatmapSetID:156500

[Difficulty]
HPDrainRate:8
CircleSize:7
OverallDifficulty:8
ApproachRate:5
SliderMultiplier:1.4
SliderTickRate:1

[Events]
//Background and Video events
//Break Periods
//Storyboard Layer 0 (Background)
//Storyboard Layer 1 (Fail)
//Storyboard Layer 2 (Pass)
//Storyboard Layer 3 (Foreground)
//Storyboard Sound Samples
//Background Colour Transformations
3,100,163,162,255

[TimingPoints]
20153,379.750721336371,4,2,0,5,1,0

[HitObjects]
256,192,116989,5,0,0:0:0:0:
329,192,117369,128,0,118128:0:0:0:0:
182,192,117369,1,0,0:0:0:0:
36,192,117369,1,0,0:0:0:0:
402,192,117369,1,0,0:0:0:0:
475,192,117369,1,0,0:0:0:0:
256,192,117464,1,0,0:0:0:0:
109,192,117559,1,0,0:0:0:0:
475,192,117559,1,0,0:0:0:0:
182,192,117559,1,0,0:0:0:0:
36,192,117653,1,0,0:0:0:0:
256,192,117748,1,0,0:0:0:0:
182,192,117748,1,0,0:0:0:0:
475,192,117748,1,0,0:0:0:0:
402,192,117748,1,0,0:0:0:0:
109,192,117748,1,0,0:0:0:0:
402,192,117843,1,0,0:0:0:0:
36,192,117843,1,0,0:0:0:0:
109,192,117938,1,0,0:0:0:0:
182,192,118033,1,0,0:0:0:0:
36,192,118033,1,0,0:0:0:0:
475,192,118128,128,0,118698:0:0:0:0:
109,192,118128,1,0,0:0:0:0:
402,192,118128,1,0,0:0:0:0:
256,192,118128,1,0,0:0:0:0:
182,192,118223,1,0,0:0:0:0:
36,192,118223,1,0,0:0:0:0:
256,192,118318,1,0,0:0:0:0:
402,192,118318,1,0,0:0:0:0:
182,192,118413,1,0,0:0:0:0:
109,192,118508,1,0,0:0:0:0:
329,192,118508,1,0,0:0:0:0:
402,192,118508,1,0,0:0:0:0:
256,192,118508,1,0,0:0:0:0:
36,192,118508,1,0,0:0:0:0:
329,192,118603,1,0,0:0:0:0:
182,192,118603,1,0,0:0:0:0:
36,192,118698,128,0,119647:0:0:0:0:
109,192,118698,1,0,0:0:0:0:
256,192,118698,1,0,0:0:0:0:
402,192,118793,1,0,0:0:0:0:
182,192,118793,1,0,0:0:0:0:
109,192,118888,1,0,0:0:0:0:
329,192,118888,1,0,0:0:0:0:
475,192,118888,1,0,0:0:0:0:
256,192,118888,1,0,0:0:0:0:
182,192,118983,1,0,0:0:0:0:
256,192,119078,1,0,0:0:0:0:
402,192,119078,1,0,0:0:0:0:
475,192,119078,1,0,0:0:0:0:
329,192,119173,1,0,0:0:0:0:
182,192,119267,1,0,0:0:0:0:
402,192,119267,1,0,0:0:0:0:
475,192,119267,1,0,0:0:0:0:
109,192,119267,1,0,0:0:0:0:
256,192,119267,1,0,0:0:0:0:
109,192,119362,1,0,0:0:0:0:
329,192,119362,1,0,0:0:0:0:
256,192,119457,1,0,0:0:0:0:
475,192,119552,1,0,0:0:0:0:
329,192,119552,1,0,0:0:0:0:
182,192,119647,128,0,120217:0:0:0:0:
109,192,119647,1,0,0:0:0:0:
402,192,119647,1,0,0:0:0:0:
256,192,119647,1,0,0:0:0:0:
475,192,119742,1,0,0:0:0:0:
36,192,119742,1,0,0:0:0:0:
329,192,119837,1,0,0:0:0:0:
475,192,119837,1,0,0:0:0:0:
256,192,119837,1,0,0:0:0:0:
109,192,119932,1,0,0:0:0:0:
36,192,120027,1,0,0:0:0:0:
402,192,120027,1,0,0:0:0:0:
475,192,120027,1,0,0:0:0:0:
329,192,120027,1,0,0:0:0:0:
256,192,120027,1,0,0:0:0:0:
109,192,120122,1,0,0:0:0:0:
256,192,120217,128,0,123445:0:0:0:0:
36,192,120217,1,0,0:0:0:0:
329,192,120217,1,0,0:0:0:0:
