osu file format v12

[General]
AudioFilename: EastNewSoundTrack4.mp3
AudioLeadIn: 0
PreviewTime: -1
Countdown: 0
SampleSet: None
StackLeniency: 0.7
Mode: 3
LetterboxInBreaks: 0
SpecialStyle: 0
WidescreenStoryboard: 1

[Editor]
DistanceSpacing: 0.8
BeatDivisor: 4
GridSize: 16
TimelineZoom: 3.6

[Metadata]
Title:Track4
TitleUnicode:Track4
Artist:EastNewSound
ArtistUnicode:EastNewSound
Creator:Entozer
Version:Overdrive_backup
Source:
Tags:
BeatmapID:436689
BeatmapSetID:156500

[Difficulty]
HPDrainRate:9
CircleSize:7
OverallDifficulty:8
ApproachRate:5
SliderMultiplier:1.4
SliderTickRate:1

[Events]
//Background and Video events
//Break Periods
//Storyboard Layer 0 (Background)
//Storyboard Layer 1 (Fail)
//Storyboard Layer 2 (Pass)
//Storyboard Layer 3 (Foreground)
//Storyboard Sound Samples
//Background Colour Transformations
3,100,163,162,255

[TimingPoints]
20153,379.750721336371,4,2,0,5,1,0

[HitObjects]
109,192,20152,5,0,0:0:0:0:
402,192,20152,1,0,0:0:0:0:
256,192,20152,1,0,0:0:0:0:
182,192,20247,1,0,0:0:0:0:
475,192,20342,1,0,0:0:0:0:
36,192,20437,1,0,0:0:0:0:
475,192,20532,1,0,0:0:0:0:
256,192,20532,128,0,20722:0:0:0:0:
182,192,20532,128,0,20627:0:0:0:0:
402,192,20627,1,0,0:0:0:0:
329,192,20722,1,0,0:0:0:0:
109,192,20722,128,0,20912:0:0:0:0:
36,192,20722,128,0,20817:0:0:0:0:
182,192,20817,1,0,0:0:0:0:
402,192,20912,1,0,0:0:0:0:
36,192,21007,1,0,0:0:0:0:
475,192,21102,1,0,0:0:0:0:
329,192,21102,128,0,21292:0:0:0:0:
256,192,21102,128,0,21197:0:0:0:0:
182,192,21197,1,0,0:0:0:0:
402,192,21292,1,0,0:0:0:0:
109,192,21387,1,0,0:0:0:0:
182,192,21482,1,0,0:0:0:0:
256,192,21482,128,0,21672:0:0:0:0:
329,192,21482,128,0,21577:0:0:0:0:
475,192,21577,1,0,0:0:0:0:
36,192,21672,1,0,0:0:0:0:
402,192,21766,1,0,0:0:0:0:
256,192,21861,1,0,0:0:0:0:
329,192,21861,128,0,22051:0:0:0:0:
109,192,21861,128,0,21956:0:0:0:0:
182,192,21956,1,0,0:0:0:0:
109,192,22051,1,0,0:0:0:0:
475,192,22051,128,0,22241:0:0:0:0:
402,192,22051,128,0,22146:0:0:0:0:
36,192,22146,1,0,0:0:0:0:
256,192,22241,1,0,0:0:0:0:
182,192,22241,128,0,22336:0:0:0:0:
402,192,22336,1,0,0:0:0:0:
182,192,22431,1,0,0:0:0:0:
329,192,22431,128,0,22621:0:0:0:0:
36,192,22526,1,0,0:0:0:0:
475,192,22621,1,0,0:0:0:0:
256,192,22621,128,0,22811:0:0:0:0:
109,192,22621,128,0,22716:0:0:0:0:
402,192,22716,1,0,0:0:0:0:
182,192,22811,1,0,0:0:0:0:
36,192,22811,128,0,23001:0:0:0:0:
475,192,22906,1,0,0:0:0:0:
256,192,23001,1,0,0:0:0:0:
109,192,23001,128,0,23191:0:0:0:0:
329,192,23001,128,0,23096:0:0:0:0:
402,192,23096,1,0,0:0:0:0:
182,192,23191,1,0,0:0:0:0:
36,192,23191,128,0,23570:0:0:0:0:
329,192,23285,1,0,0:0:0:0:
256,192,23380,1,0,0:0:0:0:
475,192,23380,128,0,23475:0:0:0:0:
109,192,23475,1,0,0:0:0:0:
329,192,23570,1,0,0:0:0:0:
182,192,23570,128,0,23760:0:0:0:0:
36,192,23665,1,0,0:0:0:0:
475,192,23760,1,0,0:0:0:0:
402,192,23760,128,0,23950:0:0:0:0:
256,192,23760,128,0,23855:0:0:0:0:
109,192,23855,1,0,0:0:0:0:
329,192,23950,1,0,0:0:0:0:
475,192,24045,1,0,0:0:0:0:
36,192,24140,1,0,0:0:0:0:
256,192,24140,128,0,24330:0:0:0:0:
182,192,24140,128,0,24235:0:0:0:0:
402,192,24235,1,0,0:0:0:0:
109,192,24330,1,0,0:0:0:0:
329,192,24425,1,0,0:0:0:0:
256,192,24520,1,0,0:0:0:0:
475,192,24520,128,0,24710:0:0:0:0:
36,192,24520,128,0,24615:0:0:0:0:
182,192,24615,1,0,0:0:0:0:
402,192,24710,1,0,0:0:0:0:
36,192,24804,1,0,0:0:0:0:
475,192,24899,1,0,0:0:0:0:
182,192,24899,128,0,25089:0:0:0:0:
329,192,24899,128,0,24994:0:0:0:0:
109,192,24994,1,0,0:0:0:0:
402,192,25089,1,0,0:0:0:0:
329,192,25089,128,0,25279:0:0:0:0:
256,192,25089,128,0,25184:0:0:0:0:
36,192,25184,1,0,0:0:0:0:
402,192,25279,1,0,0:0:0:0:
182,192,25279,1,0,0:0:0:0:
475,192,25279,128,0,25374:0:0:0:0:
109,192,25374,1,0,0:0:0:0:
256,192,25469,1,0,0:0:0:0:
329,192,25469,128,0,25659:0:0:0:0:
182,192,25564,1,0,0:0:0:0:
475,192,25659,1,0,0:0:0:0:
36,192,25659,128,0,25849:0:0:0:0:
402,192,25659,128,0,25754:0:0:0:0:
256,192,25754,1,0,0:0:0:0:
329,192,25849,1,0,0:0:0:0:
109,192,25849,128,0,26039:0:0:0:0:
475,192,25944,1,0,0:0:0:0:
329,192,26039,1,0,0:0:0:0:
182,192,26039,128,0,26229:0:0:0:0:
36,192,26039,128,0,26134:0:0:0:0:
256,192,26134,1,0,0:0:0:0:
109,192,26229,1,0,0:0:0:0:
402,192,26229,1,0,0:0:0:0:
329,192,26229,1,0,0:0:0:0:
475,192,26229,1,0,0:0:0:0:
36,192,26229,128,0,26608:0:0:0:0:
182,192,26323,1,0,0:0:0:0:
329,192,26418,1,0,0:0:0:0:
475,192,26418,128,0,26513:0:0:0:0:
256,192,26513,1,0,0:0:0:0:
402,192,26608,1,0,0:0:0:0:
182,192,26608,1,0,0:0:0:0:
329,192,26608,128,0,26798:0:0:0:0:
109,192,26703,1,0,0:0:0:0:
475,192,26703,1,0,0:0:0:0:
36,192,26798,1,0,0:0:0:0:
182,192,26798,128,0,26988:0:0:0:0:
256,192,26798,128,0,26893:0:0:0:0:
402,192,26893,1,0,0:0:0:0:
329,192,26988,1,0,0:0:0:0:
475,192,27083,1,0,0:0:0:0:
36,192,27178,1,0,0:0:0:0:
402,192,27178,128,0,27368:0:0:0:0:
182,192,27178,128,0,27273:0:0:0:0:
256,192,27273,1,0,0:0:0:0:
109,192,27368,1,0,0:0:0:0:
402,192,27463,1,0,0:0:0:0:
182,192,27558,1,0,0:0:0:0:
256,192,27558,128,0,27748:0:0:0:0:
36,192,27558,128,0,27653:0:0:0:0:
475,192,27653,1,0,0:0:0:0:
36,192,27748,1,0,0:0:0:0:
182,192,27842,1,0,0:0:0:0:
329,192,27937,128,0,28127:0:0:0:0:
256,192,27937,1,0,0:0:0:0:
475,192,27937,128,0,28032:0:0:0:0:
109,192,28032,1,0,0:0:0:0:
402,192,28127,128,0,28317:0:0:0:0:
256,192,28127,128,0,28222:0:0:0:0:
182,192,28222,1,0,0:0:0:0:
109,192,28317,1,0,0:0:0:0:
329,192,28317,128,0,28412:0:0:0:0:
475,192,28412,1,0,0:0:0:0:
36,192,28507,1,0,0:0:0:0:
182,192,28507,128,0,28697:0:0:0:0:
329,192,28602,1,0,0:0:0:0:
36,192,28697,1,0,0:0:0:0:
256,192,28697,128,0,28887:0:0:0:0:
475,192,28697,128,0,28792:0:0:0:0:
402,192,28792,1,0,0:0:0:0:
182,192,28887,1,0,0:0:0:0:
109,192,28887,128,0,29077:0:0:0:0:
475,192,28982,1,0,0:0:0:0:
329,192,29077,1,0,0:0:0:0:
256,192,29077,128,0,29267:0:0:0:0:
36,192,29077,128,0,29172:0:0:0:0:
182,192,29172,1,0,0:0:0:0:
402,192,29267,1,0,0:0:0:0:
329,192,29267,1,0,0:0:0:0:
475,192,29267,1,0,0:0:0:0:
36,192,29267,1,0,0:0:0:0:
109,192,29267,128,0,29646:0:0:0:0:
256,192,29361,1,0,0:0:0:0:
475,192,29456,1,0,0:0:0:0:
402,192,29456,128,0,29551:0:0:0:0:
182,192,29551,1,0,0:0:0:0:
36,192,29646,1,0,0:0:0:0:
329,192,29646,128,0,29836:0:0:0:0:
109,192,29741,1,0,0:0:0:0:
475,192,29836,1,0,0:0:0:0:
256,192,29836,128,0,30026:0:0:0:0:
402,192,29836,128,0,29931:0:0:0:0:
329,192,29931,1,0,0:0:0:0:
475,192,30026,1,0,0:0:0:0:
402,192,30121,1,0,0:0:0:0:
256,192,30216,1,0,0:0:0:0:
36,192,30216,128,0,30406:0:0:0:0:
182,192,30216,128,0,30311:0:0:0:0:
329,192,30311,1,0,0:0:0:0:
182,192,30406,1,0,0:0:0:0:
36,192,30501,1,0,0:0:0:0:
256,192,30596,1,0,0:0:0:0:
475,192,30596,1,0,0:0:0:0:
182,192,30596,1,0,0:0:0:0:
109,192,30596,128,0,30786:0:0:0:0:
402,192,30596,128,0,30691:0:0:0:0:
329,192,30691,1,0,0:0:0:0:
182,192,30786,1,0,0:0:0:0:
256,192,30880,1,0,0:0:0:0:
402,192,30975,1,0,0:0:0:0:
475,192,30975,1,0,0:0:0:0:
36,192,30975,1,0,0:0:0:0:
329,192,30975,128,0,31165:0:0:0:0:
109,192,30975,128,0,31070:0:0:0:0:
182,192,31070,1,0,0:0:0:0:
109,192,31165,1,0,0:0:0:0:
402,192,31165,1,0,0:0:0:0:
256,192,31165,1,0,0:0:0:0:
475,192,31165,1,0,0:0:0:0:
329,192,31260,1,0,0:0:0:0:
36,192,31355,1,0,0:0:0:0:
182,192,31355,128,0,31545:0:0:0:0:
402,192,31450,1,0,0:0:0:0:
475,192,31545,1,0,0:0:0:0:
109,192,31545,1,0,0:0:0:0:
256,192,31545,128,0,31735:0:0:0:0:
329,192,31735,128,0,31925:0:0:0:0:
109,192,31925,1,0,0:0:0:0:
182,192,31925,1,0,0:0:0:0:
475,192,32115,128,0,32305:0:0:0:0:
36,192,32305,1,0,0:0:0:0:
402,192,32305,1,0,0:0:0:0:
256,192,32305,1,0,0:0:0:0:
109,192,32305,1,0,0:0:0:0:
182,192,32399,1,0,0:0:0:0:
475,192,32494,1,0,0:0:0:0:
36,192,32494,128,0,32684:0:0:0:0:
182,192,32589,1,0,0:0:0:0:
329,192,32684,1,0,0:0:0:0:
256,192,32684,1,0,0:0:0:0:
109,192,32684,1,0,0:0:0:0:
475,192,32684,1,0,0:0:0:0:
182,192,32779,1,0,0:0:0:0:
329,192,32874,1,0,0:0:0:0:
36,192,32874,1,0,0:0:0:0:
402,192,32874,128,0,33064:0:0:0:0:
182,192,32969,1,0,0:0:0:0:
329,192,33064,1,0,0:0:0:0:
36,192,33064,1,0,0:0:0:0:
109,192,33064,1,0,0:0:0:0:
475,192,33159,1,0,0:0:0:0:
329,192,33254,1,0,0:0:0:0:
182,192,33254,128,0,33444:0:0:0:0:
475,192,33349,1,0,0:0:0:0:
329,192,33444,1,0,0:0:0:0:
36,192,33444,1,0,0:0:0:0:
256,192,33444,1,0,0:0:0:0:
109,192,33444,1,0,0:0:0:0:
182,192,33539,1,0,0:0:0:0:
109,192,33634,1,0,0:0:0:0:
402,192,33634,1,0,0:0:0:0:
329,192,33634,128,0,33824:0:0:0:0:
182,192,33729,1,0,0:0:0:0:
36,192,33824,1,0,0:0:0:0:
475,192,33824,1,0,0:0:0:0:
256,192,33824,1,0,0:0:0:0:
182,192,33918,1,0,0:0:0:0:
36,192,34013,1,0,0:0:0:0:
402,192,34013,128,0,34203:0:0:0:0:
182,192,34108,1,0,0:0:0:0:
329,192,34203,1,0,0:0:0:0:
475,192,34203,1,0,0:0:0:0:
256,192,34203,1,0,0:0:0:0:
109,192,34203,1,0,0:0:0:0:
36,192,34203,1,0,0:0:0:0:
182,192,34298,1,0,0:0:0:0:
402,192,34393,1,0,0:0:0:0:
109,192,34393,1,0,0:0:0:0:
329,192,34393,128,0,34583:0:0:0:0:
182,192,34488,1,0,0:0:0:0:
109,192,34583,1,0,0:0:0:0:
256,192,34583,1,0,0:0:0:0:
36,192,34583,1,0,0:0:0:0:
402,192,34583,1,0,0:0:0:0:
475,192,34678,1,0,0:0:0:0:
329,192,34773,1,0,0:0:0:0:
182,192,34773,128,0,34963:0:0:0:0:
475,192,34868,1,0,0:0:0:0:
329,192,34963,1,0,0:0:0:0:
256,192,34963,1,0,0:0:0:0:
402,192,34963,1,0,0:0:0:0:
36,192,34963,1,0,0:0:0:0:
109,192,34963,1,0,0:0:0:0:
182,192,35058,1,0,0:0:0:0:
329,192,35153,1,0,0:0:0:0:
475,192,35153,1,0,0:0:0:0:
36,192,35153,128,0,35343:0:0:0:0:
182,192,35248,1,0,0:0:0:0:
329,192,35343,1,0,0:0:0:0:
475,192,35343,1,0,0:0:0:0:
256,192,35343,1,0,0:0:0:0:
36,192,35437,1,0,0:0:0:0:
329,192,35532,1,0,0:0:0:0:
182,192,35532,128,0,35722:0:0:0:0:
36,192,35627,1,0,0:0:0:0:
329,192,35722,1,0,0:0:0:0:
475,192,35722,1,0,0:0:0:0:
256,192,35722,1,0,0:0:0:0:
109,192,35722,1,0,0:0:0:0:
182,192,35817,1,0,0:0:0:0:
109,192,35912,1,0,0:0:0:0:
329,192,35912,1,0,0:0:0:0:
475,192,35912,128,0,36102:0:0:0:0:
182,192,36007,1,0,0:0:0:0:
36,192,36102,1,0,0:0:0:0:
402,192,36102,1,0,0:0:0:0:
256,192,36102,1,0,0:0:0:0:
182,192,36197,1,0,0:0:0:0:
36,192,36292,1,0,0:0:0:0:
329,192,36292,128,0,36482:0:0:0:0:
182,192,36387,1,0,0:0:0:0:
36,192,36482,1,0,0:0:0:0:
402,192,36482,1,0,0:0:0:0:
256,192,36482,1,0,0:0:0:0:
109,192,36482,1,0,0:0:0:0:
475,192,36577,1,0,0:0:0:0:
36,192,36672,1,0,0:0:0:0:
329,192,36672,1,0,0:0:0:0:
182,192,36672,128,0,36862:0:0:0:0:
475,192,36767,1,0,0:0:0:0:
329,192,36862,1,0,0:0:0:0:
109,192,36862,1,0,0:0:0:0:
256,192,36862,1,0,0:0:0:0:
36,192,36956,1,0,0:0:0:0:
475,192,37051,1,0,0:0:0:0:
329,192,37051,128,0,37241:0:0:0:0:
36,192,37146,1,0,0:0:0:0:
182,192,37241,1,0,0:0:0:0:
109,192,37241,1,0,0:0:0:0:
256,192,37241,1,0,0:0:0:0:
402,192,37241,1,0,0:0:0:0:
475,192,37241,1,0,0:0:0:0:
329,192,37336,1,0,0:0:0:0:
36,192,37431,1,0,0:0:0:0:
475,192,37431,1,0,0:0:0:0:
182,192,37431,128,0,37621:0:0:0:0:
329,192,37526,1,0,0:0:0:0:
36,192,37621,1,0,0:0:0:0:
256,192,37621,1,0,0:0:0:0:
109,192,37621,1,0,0:0:0:0:
402,192,37621,1,0,0:0:0:0:
182,192,37716,1,0,0:0:0:0:
36,192,37811,1,0,0:0:0:0:
475,192,37811,128,0,38001:0:0:0:0:
182,192,37906,1,0,0:0:0:0:
36,192,38001,1,0,0:0:0:0:
256,192,38001,1,0,0:0:0:0:
402,192,38001,1,0,0:0:0:0:
109,192,38001,1,0,0:0:0:0:
329,192,38001,1,0,0:0:0:0:
475,192,38096,1,0,0:0:0:0:
36,192,38191,1,0,0:0:0:0:
182,192,38191,1,0,0:0:0:0:
329,192,38191,128,0,38381:0:0:0:0:
475,192,38286,1,0,0:0:0:0:
182,192,38381,1,0,0:0:0:0:
402,192,38381,1,0,0:0:0:0:
109,192,38381,1,0,0:0:0:0:
475,192,38475,1,0,0:0:0:0:
182,192,38570,1,0,0:0:0:0:
329,192,38570,128,0,38760:0:0:0:0:
475,192,38665,1,0,0:0:0:0:
182,192,38760,1,0,0:0:0:0:
402,192,38760,1,0,0:0:0:0:
256,192,38760,1,0,0:0:0:0:
109,192,38760,1,0,0:0:0:0:
36,192,38855,1,0,0:0:0:0:
329,192,38950,1,0,0:0:0:0:
182,192,38950,1,0,0:0:0:0:
475,192,38950,128,0,39140:0:0:0:0:
36,192,39045,1,0,0:0:0:0:
329,192,39140,1,0,0:0:0:0:
109,192,39140,1,0,0:0:0:0:
402,192,39140,1,0,0:0:0:0:
36,192,39235,1,0,0:0:0:0:
329,192,39330,1,0,0:0:0:0:
182,192,39330,128,0,39520:0:0:0:0:
36,192,39425,1,0,0:0:0:0:
329,192,39520,1,0,0:0:0:0:
109,192,39520,1,0,0:0:0:0:
256,192,39520,1,0,0:0:0:0:
402,192,39520,1,0,0:0:0:0:
475,192,39615,1,0,0:0:0:0:
36,192,39710,1,0,0:0:0:0:
329,192,39710,1,0,0:0:0:0:
109,192,39710,128,0,39900:0:0:0:0:
475,192,39805,1,0,0:0:0:0:
182,192,39900,1,0,0:0:0:0:
256,192,39900,1,0,0:0:0:0:
36,192,39900,1,0,0:0:0:0:
475,192,39994,1,0,0:0:0:0:
402,192,40089,1,0,0:0:0:0:
36,192,40089,128,0,40279:0:0:0:0:
475,192,40184,1,0,0:0:0:0:
182,192,40279,1,0,0:0:0:0:
256,192,40279,1,0,0:0:0:0:
109,192,40279,1,0,0:0:0:0:
329,192,40279,1,0,0:0:0:0:
402,192,40279,1,0,0:0:0:0:
36,192,40374,1,0,0:0:0:0:
182,192,40469,1,0,0:0:0:0:
475,192,40469,1,0,0:0:0:0:
402,192,40469,128,0,40659:0:0:0:0:
36,192,40564,1,0,0:0:0:0:
329,192,40659,1,0,0:0:0:0:
256,192,40659,1,0,0:0:0:0:
109,192,40659,1,0,0:0:0:0:
182,192,40659,1,0,0:0:0:0:
36,192,40754,1,0,0:0:0:0:
329,192,40849,1,0,0:0:0:0:
475,192,40849,128,0,41039:0:0:0:0:
36,192,40944,1,0,0:0:0:0:
329,192,41039,1,0,0:0:0:0:
256,192,41039,1,0,0:0:0:0:
402,192,41039,1,0,0:0:0:0:
109,192,41039,1,0,0:0:0:0:
182,192,41039,1,0,0:0:0:0:
475,192,41134,1,0,0:0:0:0:
329,192,41229,1,0,0:0:0:0:
182,192,41229,1,0,0:0:0:0:
36,192,41229,128,0,41419:0:0:0:0:
475,192,41324,1,0,0:0:0:0:
182,192,41419,1,0,0:0:0:0:
402,192,41419,1,0,0:0:0:0:
109,192,41419,1,0,0:0:0:0:
36,192,41513,1,0,0:0:0:0:
182,192,41608,1,0,0:0:0:0:
329,192,41608,128,0,41798:0:0:0:0:
36,192,41703,1,0,0:0:0:0:
182,192,41798,1,0,0:0:0:0:
402,192,41798,1,0,0:0:0:0:
475,192,41798,1,0,0:0:0:0:
109,192,41798,1,0,0:0:0:0:
329,192,41893,1,0,0:0:0:0:
182,192,41988,1,0,0:0:0:0:
36,192,41988,1,0,0:0:0:0:
256,192,41988,128,0,42178:0:0:0:0:
329,192,42083,1,0,0:0:0:0:
475,192,42178,1,0,0:0:0:0:
109,192,42178,1,0,0:0:0:0:
402,192,42178,1,0,0:0:0:0:
329,192,42273,1,0,0:0:0:0:
182,192,42368,1,0,0:0:0:0:
475,192,42368,128,0,42558:0:0:0:0:
329,192,42463,1,0,0:0:0:0:
182,192,42558,1,0,0:0:0:0:
109,192,42558,1,0,0:0:0:0:
36,192,42558,1,0,0:0:0:0:
402,192,42558,1,0,0:0:0:0:
329,192,42653,1,0,0:0:0:0:
182,192,42748,1,0,0:0:0:0:
475,192,42748,1,0,0:0:0:0:
109,192,42748,128,0,42938:0:0:0:0:
329,192,42843,1,0,0:0:0:0:
182,192,42938,1,0,0:0:0:0:
256,192,42938,1,0,0:0:0:0:
475,192,42938,1,0,0:0:0:0:
36,192,43032,1,0,0:0:0:0:
182,192,43127,1,0,0:0:0:0:
329,192,43127,128,0,43317:0:0:0:0:
36,192,43222,1,0,0:0:0:0:
182,192,43317,1,0,0:0:0:0:
256,192,43317,1,0,0:0:0:0:
402,192,43317,1,0,0:0:0:0:
109,192,43317,1,0,0:0:0:0:
475,192,43317,1,0,0:0:0:0:
329,192,43412,1,0,0:0:0:0:
182,192,43507,1,0,0:0:0:0:
475,192,43507,1,0,0:0:0:0:
36,192,43507,128,0,43697:0:0:0:0:
329,192,43602,1,0,0:0:0:0:
475,192,43697,1,0,0:0:0:0:
256,192,43697,1,0,0:0:0:0:
109,192,43697,1,0,0:0:0:0:
182,192,43697,128,0,43887:0:0:0:0:
329,192,43792,1,0,0:0:0:0:
475,192,43887,1,0,0:0:0:0:
36,192,43887,1,0,0:0:0:0:
256,192,43887,128,0,44077:0:0:0:0:
329,192,43982,1,0,0:0:0:0:
182,192,44077,1,0,0:0:0:0:
109,192,44077,1,0,0:0:0:0:
475,192,44077,1,0,0:0:0:0:
256,192,44124,1,0,0:0:0:0:
329,192,44172,1,0,0:0:0:0:
402,192,44172,1,0,0:0:0:0:
109,192,44219,1,0,0:0:0:0:
182,192,44267,1,0,0:0:0:0:
256,192,44267,1,0,0:0:0:0:
475,192,44267,1,0,0:0:0:0:
36,192,44267,128,0,44457:0:0:0:0:
329,192,44362,1,0,0:0:0:0:
109,192,44457,1,0,0:0:0:0:
402,192,44457,1,0,0:0:0:0:
182,192,44457,1,0,0:0:0:0:
475,192,44457,1,0,0:0:0:0:
256,192,44457,1,0,0:0:0:0:
36,192,44551,1,0,0:0:0:0:
109,192,44646,1,0,0:0:0:0:
329,192,44646,128,0,44836:0:0:0:0:
182,192,44741,1,0,0:0:0:0:
36,192,44836,1,0,0:0:0:0:
402,192,44836,1,0,0:0:0:0:
475,192,44836,1,0,0:0:0:0:
109,192,44836,1,0,0:0:0:0:
329,192,44931,1,0,0:0:0:0:
256,192,45026,1,0,0:0:0:0:
475,192,45026,1,0,0:0:0:0:
182,192,45026,128,0,45216:0:0:0:0:
36,192,45121,1,0,0:0:0:0:
329,192,45216,1,0,0:0:0:0:
109,192,45216,1,0,0:0:0:0:
256,192,45216,1,0,0:0:0:0:
475,192,45311,1,0,0:0:0:0:
182,192,45406,1,0,0:0:0:0:
402,192,45406,128,0,45596:0:0:0:0:
329,192,45501,1,0,0:0:0:0:
475,192,45596,1,0,0:0:0:0:
109,192,45596,1,0,0:0:0:0:
36,192,45596,1,0,0:0:0:0:
256,192,45596,1,0,0:0:0:0:
182,192,45691,1,0,0:0:0:0:
329,192,45786,1,0,0:0:0:0:
36,192,45786,1,0,0:0:0:0:
256,192,45786,128,0,45976:0:0:0:0:
475,192,45881,1,0,0:0:0:0:
182,192,45976,1,0,0:0:0:0:
402,192,45976,1,0,0:0:0:0:
109,192,45976,1,0,0:0:0:0:
36,192,46070,1,0,0:0:0:0:
256,192,46165,1,0,0:0:0:0:
329,192,46165,128,0,46355:0:0:0:0:
182,192,46260,1,0,0:0:0:0:
36,192,46355,1,0,0:0:0:0:
402,192,46355,1,0,0:0:0:0:
256,192,46355,1,0,0:0:0:0:
109,192,46355,1,0,0:0:0:0:
475,192,46355,1,0,0:0:0:0:
329,192,46450,1,0,0:0:0:0:
182,192,46545,1,0,0:0:0:0:
256,192,46545,1,0,0:0:0:0:
475,192,46545,128,0,46735:0:0:0:0:
36,192,46640,1,0,0:0:0:0:
329,192,46735,1,0,0:0:0:0:
256,192,46735,1,0,0:0:0:0:
109,192,46735,1,0,0:0:0:0:
402,192,46735,1,0,0:0:0:0:
475,192,46830,1,0,0:0:0:0:
36,192,46925,1,0,0:0:0:0:
182,192,46925,128,0,47115:0:0:0:0:
329,192,47020,1,0,0:0:0:0:
475,192,47115,1,0,0:0:0:0:
256,192,47115,1,0,0:0:0:0:
109,192,47115,1,0,0:0:0:0:
402,192,47115,1,0,0:0:0:0:
36,192,47115,1,0,0:0:0:0:
182,192,47210,1,0,0:0:0:0:
329,192,47305,1,0,0:0:0:0:
36,192,47305,1,0,0:0:0:0:
256,192,47305,128,0,47495:0:0:0:0:
475,192,47400,1,0,0:0:0:0:
182,192,47495,1,0,0:0:0:0:
402,192,47495,1,0,0:0:0:0:
109,192,47495,1,0,0:0:0:0:
475,192,47589,1,0,0:0:0:0:
329,192,47684,1,0,0:0:0:0:
36,192,47684,128,0,47874:0:0:0:0:
182,192,47779,1,0,0:0:0:0:
475,192,47874,1,0,0:0:0:0:
402,192,47874,1,0,0:0:0:0:
109,192,47874,1,0,0:0:0:0:
329,192,47874,1,0,0:0:0:0:
36,192,47969,1,0,0:0:0:0:
256,192,48064,1,0,0:0:0:0:
402,192,48064,1,0,0:0:0:0:
182,192,48064,128,0,48254:0:0:0:0:
475,192,48159,1,0,0:0:0:0:
329,192,48254,1,0,0:0:0:0:
256,192,48254,1,0,0:0:0:0:
109,192,48254,1,0,0:0:0:0:
36,192,48349,1,0,0:0:0:0:
182,192,48444,1,0,0:0:0:0:
475,192,48444,128,0,48634:0:0:0:0:
329,192,48539,1,0,0:0:0:0:
36,192,48634,1,0,0:0:0:0:
109,192,48634,1,0,0:0:0:0:
256,192,48634,1,0,0:0:0:0:
402,192,48634,1,0,0:0:0:0:
475,192,48729,1,0,0:0:0:0:
329,192,48824,1,0,0:0:0:0:
109,192,48824,1,0,0:0:0:0:
256,192,48824,128,0,49014:0:0:0:0:
36,192,48919,1,0,0:0:0:0:
182,192,49014,1,0,0:0:0:0:
109,192,49014,1,0,0:0:0:0:
402,192,49014,1,0,0:0:0:0:
475,192,49108,1,0,0:0:0:0:
329,192,49203,1,0,0:0:0:0:
36,192,49203,128,0,49393:0:0:0:0:
182,192,49298,1,0,0:0:0:0:
475,192,49393,1,0,0:0:0:0:
109,192,49393,1,0,0:0:0:0:
402,192,49393,1,0,0:0:0:0:
256,192,49393,1,0,0:0:0:0:
329,192,49393,1,0,0:0:0:0:
36,192,49488,1,0,0:0:0:0:
329,192,49583,1,0,0:0:0:0:
109,192,49583,1,0,0:0:0:0:
182,192,49583,128,0,49773:0:0:0:0:
475,192,49678,1,0,0:0:0:0:
329,192,49773,1,0,0:0:0:0:
402,192,49773,1,0,0:0:0:0:
109,192,49773,1,0,0:0:0:0:
256,192,49773,1,0,0:0:0:0:
36,192,49868,1,0,0:0:0:0:
256,192,49963,1,0,0:0:0:0:
475,192,49963,128,0,50153:0:0:0:0:
329,192,50058,1,0,0:0:0:0:
36,192,50153,1,0,0:0:0:0:
402,192,50153,1,0,0:0:0:0:
109,192,50153,1,0,0:0:0:0:
182,192,50153,1,0,0:0:0:0:
256,192,50153,128,0,50343:0:0:0:0:
475,192,50248,1,0,0:0:0:0:
329,192,50343,1,0,0:0:0:0:
182,192,50343,1,0,0:0:0:0:
402,192,50343,1,0,0:0:0:0:
36,192,50438,1,0,0:0:0:0:
329,192,50533,1,0,0:0:0:0:
475,192,50533,1,0,0:0:0:0:
256,192,50533,1,0,0:0:0:0:
36,192,50627,1,0,0:0:0:0:
256,192,50722,1,0,0:0:0:0:
182,192,50722,128,0,50912:0:0:0:0:
329,192,50817,1,0,0:0:0:0:
36,192,50912,1,0,0:0:0:0:
475,192,50912,1,0,0:0:0:0:
402,192,50912,1,0,0:0:0:0:
256,192,50912,1,0,0:0:0:0:
182,192,51007,1,0,0:0:0:0:
109,192,51102,1,0,0:0:0:0:
475,192,51102,1,0,0:0:0:0:
329,192,51102,128,0,51292:0:0:0:0:
36,192,51197,1,0,0:0:0:0:
182,192,51292,1,0,0:0:0:0:
109,192,51292,1,0,0:0:0:0:
256,192,51292,1,0,0:0:0:0:
475,192,51387,1,0,0:0:0:0:
329,192,51482,1,0,0:0:0:0:
402,192,51482,128,0,51672:0:0:0:0:
182,192,51577,1,0,0:0:0:0:
475,192,51672,1,0,0:0:0:0:
109,192,51672,1,0,0:0:0:0:
36,192,51672,1,0,0:0:0:0:
256,192,51672,1,0,0:0:0:0:
329,192,51767,1,0,0:0:0:0:
256,192,51862,1,0,0:0:0:0:
36,192,51862,1,0,0:0:0:0:
182,192,51862,128,0,52052:0:0:0:0:
475,192,51957,1,0,0:0:0:0:
329,192,52052,1,0,0:0:0:0:
402,192,52052,1,0,0:0:0:0:
109,192,52052,1,0,0:0:0:0:
36,192,52146,1,0,0:0:0:0:
256,192,52241,1,0,0:0:0:0:
182,192,52241,128,0,52431:0:0:0:0:
329,192,52336,1,0,0:0:0:0:
36,192,52431,1,0,0:0:0:0:
402,192,52431,1,0,0:0:0:0:
475,192,52431,1,0,0:0:0:0:
109,192,52431,1,0,0:0:0:0:
256,192,52431,1,0,0:0:0:0:
182,192,52526,1,0,0:0:0:0:
402,192,52621,1,0,0:0:0:0:
109,192,52621,1,0,0:0:0:0:
329,192,52621,128,0,52811:0:0:0:0:
36,192,52716,1,0,0:0:0:0:
182,192,52811,1,0,0:0:0:0:
109,192,52811,1,0,0:0:0:0:
256,192,52811,1,0,0:0:0:0:
402,192,52811,1,0,0:0:0:0:
475,192,52906,1,0,0:0:0:0:
402,192,53001,1,0,0:0:0:0:
329,192,53001,128,0,53191:0:0:0:0:
182,192,53096,1,0,0:0:0:0:
475,192,53191,1,0,0:0:0:0:
109,192,53191,1,0,0:0:0:0:
36,192,53191,1,0,0:0:0:0:
256,192,53191,1,0,0:0:0:0:
402,192,53191,1,0,0:0:0:0:
329,192,53286,1,0,0:0:0:0:
182,192,53381,1,0,0:0:0:0:
36,192,53381,1,0,0:0:0:0:
109,192,53381,128,0,53571:0:0:0:0:
475,192,53476,1,0,0:0:0:0:
329,192,53571,1,0,0:0:0:0:
402,192,53571,1,0,0:0:0:0:
256,192,53571,1,0,0:0:0:0:
36,192,53666,1,0,0:0:0:0:
329,192,53760,1,0,0:0:0:0:
475,192,53760,128,0,53950:0:0:0:0:
182,192,53855,1,0,0:0:0:0:
329,192,53950,1,0,0:0:0:0:
256,192,53950,1,0,0:0:0:0:
402,192,53950,1,0,0:0:0:0:
109,192,53950,1,0,0:0:0:0:
36,192,54045,1,0,0:0:0:0:
475,192,54140,1,0,0:0:0:0:
402,192,54140,1,0,0:0:0:0:
256,192,54140,128,0,54330:0:0:0:0:
182,192,54235,1,0,0:0:0:0:
329,192,54330,1,0,0:0:0:0:
109,192,54330,1,0,0:0:0:0:
402,192,54330,1,0,0:0:0:0:
36,192,54425,1,0,0:0:0:0:
475,192,54520,1,0,0:0:0:0:
402,192,54520,128,0,54710:0:0:0:0:
182,192,54615,1,0,0:0:0:0:
329,192,54710,1,0,0:0:0:0:
109,192,54710,1,0,0:0:0:0:
256,192,54710,1,0,0:0:0:0:
475,192,54710,1,0,0:0:0:0:
36,192,54805,1,0,0:0:0:0:
109,192,54900,1,0,0:0:0:0:
402,192,54900,1,0,0:0:0:0:
475,192,54900,128,0,55090:0:0:0:0:
182,192,54995,1,0,0:0:0:0:
256,192,55090,1,0,0:0:0:0:
109,192,55090,1,0,0:0:0:0:
475,192,55279,1,0,0:0:0:0:
256,192,55279,128,0,55469:0:0:0:0:
36,192,55469,1,0,0:0:0:0:
329,192,55659,128,0,55849:0:0:0:0:
475,192,55849,1,0,0:0:0:0:
182,192,55849,128,0,56039:0:0:0:0:
402,192,56039,1,0,0:0:0:0:
109,192,56039,1,0,0:0:0:0:
36,192,56039,128,0,56229:0:0:0:0:
109,192,56229,1,0,0:0:0:0:
402,192,56229,1,0,0:0:0:0:
329,192,56419,128,0,56609:0:0:0:0:
475,192,56609,1,0,0:0:0:0:
182,192,56609,128,0,56704:0:0:0:0:
36,192,56704,128,0,56798:0:0:0:0:
329,192,56798,1,0,0:0:0:0:
256,192,56798,128,0,56893:0:0:0:0:
109,192,56893,128,0,56988:0:0:0:0:
475,192,56988,1,0,0:0:0:0:
402,192,56988,1,0,0:0:0:0:
256,192,56988,1,0,0:0:0:0:
182,192,56988,128,0,57083:0:0:0:0:
36,192,57083,128,0,57178:0:0:0:0:
402,192,57178,1,0,0:0:0:0:
182,192,57178,1,0,0:0:0:0:
256,192,57178,128,0,57273:0:0:0:0:
109,192,57273,128,0,57368:0:0:0:0:
329,192,57368,1,0,0:0:0:0:
475,192,57368,1,0,0:0:0:0:
36,192,57368,128,0,57463:0:0:0:0:
182,192,57463,128,0,57558:0:0:0:0:
475,192,57558,1,0,0:0:0:0:
256,192,57558,128,0,57653:0:0:0:0:
109,192,57653,128,0,57748:0:0:0:0:
329,192,57748,1,0,0:0:0:0:
475,192,57748,1,0,0:0:0:0:
256,192,57748,1,0,0:0:0:0:
36,192,57748,128,0,57843:0:0:0:0:
182,192,57843,128,0,57938:0:0:0:0:
402,192,57938,1,0,0:0:0:0:
36,192,57938,1,0,0:0:0:0:
256,192,57938,128,0,58033:0:0:0:0:
109,192,58033,128,0,58128:0:0:0:0:
475,192,58128,1,0,0:0:0:0:
329,192,58128,1,0,0:0:0:0:
182,192,58128,128,0,58223:0:0:0:0:
36,192,58223,128,0,58317:0:0:0:0:
329,192,58317,1,0,0:0:0:0:
256,192,58317,128,0,58412:0:0:0:0:
109,192,58412,128,0,58507:0:0:0:0:
475,192,58507,1,0,0:0:0:0:
402,192,58507,1,0,0:0:0:0:
329,192,58507,1,0,0:0:0:0:
182,192,58507,128,0,58602:0:0:0:0:
36,192,58602,128,0,58697:0:0:0:0:
402,192,58697,1,0,0:0:0:0:
182,192,58697,1,0,0:0:0:0:
256,192,58697,128,0,58792:0:0:0:0:
109,192,58792,128,0,58887:0:0:0:0:
329,192,58887,1,0,0:0:0:0:
475,192,58887,1,0,0:0:0:0:
36,192,58887,128,0,58982:0:0:0:0:
182,192,58982,128,0,59077:0:0:0:0:
475,192,59077,1,0,0:0:0:0:
256,192,59077,128,0,59172:0:0:0:0:
109,192,59172,128,0,59267:0:0:0:0:
329,192,59267,1,0,0:0:0:0:
475,192,59267,1,0,0:0:0:0:
256,192,59267,1,0,0:0:0:0:
36,192,59267,128,0,59362:0:0:0:0:
182,192,59362,128,0,59457:0:0:0:0:
402,192,59457,1,0,0:0:0:0:
329,192,59457,1,0,0:0:0:0:
256,192,59457,128,0,59552:0:0:0:0:
109,192,59552,128,0,59647:0:0:0:0:
36,192,59647,1,0,0:0:0:0:
182,192,59647,1,0,0:0:0:0:
329,192,59647,128,0,59742:0:0:0:0:
475,192,59742,128,0,59836:0:0:0:0:
182,192,59836,1,0,0:0:0:0:
256,192,59836,128,0,59931:0:0:0:0:
402,192,59931,128,0,60026:0:0:0:0:
36,192,60026,1,0,0:0:0:0:
109,192,60026,1,0,0:0:0:0:
182,192,60026,1,0,0:0:0:0:
329,192,60026,128,0,60121:0:0:0:0:
475,192,60121,128,0,60216:0:0:0:0:
109,192,60216,1,0,0:0:0:0:
329,192,60216,1,0,0:0:0:0:
256,192,60216,128,0,60311:0:0:0:0:
402,192,60311,128,0,60406:0:0:0:0:
182,192,60406,1,0,0:0:0:0:
36,192,60406,1,0,0:0:0:0:
475,192,60406,128,0,60501:0:0:0:0:
329,192,60501,128,0,60596:0:0:0:0:
36,192,60596,1,0,0:0:0:0:
256,192,60596,128,0,60691:0:0:0:0:
402,192,60691,128,0,60786:0:0:0:0:
182,192,60786,1,0,0:0:0:0:
36,192,60786,1,0,0:0:0:0:
256,192,60786,1,0,0:0:0:0:
475,192,60786,128,0,60881:0:0:0:0:
329,192,60881,128,0,60976:0:0:0:0:
109,192,60976,1,0,0:0:0:0:
475,192,60976,1,0,0:0:0:0:
256,192,60976,128,0,61071:0:0:0:0:
402,192,61071,128,0,61166:0:0:0:0:
36,192,61166,1,0,0:0:0:0:
182,192,61166,1,0,0:0:0:0:
329,192,61166,128,0,61261:0:0:0:0:
475,192,61261,128,0,61355:0:0:0:0:
182,192,61355,1,0,0:0:0:0:
256,192,61355,128,0,61450:0:0:0:0:
402,192,61450,128,0,61545:0:0:0:0:
109,192,61545,1,0,0:0:0:0:
36,192,61545,1,0,0:0:0:0:
256,192,61545,1,0,0:0:0:0:
329,192,61545,128,0,61640:0:0:0:0:
475,192,61640,128,0,61735:0:0:0:0:
109,192,61735,1,0,0:0:0:0:
36,192,61735,1,0,0:0:0:0:
256,192,61735,128,0,61830:0:0:0:0:
402,192,61830,128,0,61925:0:0:0:0:
182,192,61925,1,0,0:0:0:0:
109,192,61925,1,0,0:0:0:0:
475,192,61925,128,0,62020:0:0:0:0:
329,192,62020,128,0,62115:0:0:0:0:
36,192,62115,1,0,0:0:0:0:
256,192,62115,128,0,62210:0:0:0:0:
402,192,62210,128,0,62305:0:0:0:0:
182,192,62305,1,0,0:0:0:0:
36,192,62305,1,0,0:0:0:0:
256,192,62305,1,0,0:0:0:0:
475,192,62305,128,0,62400:0:0:0:0:
329,192,62400,128,0,62495:0:0:0:0:
109,192,62495,1,0,0:0:0:0:
475,192,62495,1,0,0:0:0:0:
256,192,62495,128,0,62590:0:0:0:0:
402,192,62590,128,0,62685:0:0:0:0:
36,192,62685,1,0,0:0:0:0:
182,192,62685,1,0,0:0:0:0:
256,192,62685,128,0,62780:0:0:0:0:
109,192,62780,128,0,62874:0:0:0:0:
475,192,62874,1,0,0:0:0:0:
329,192,62874,128,0,62969:0:0:0:0:
182,192,62969,128,0,63064:0:0:0:0:
36,192,63064,1,0,0:0:0:0:
402,192,63064,1,0,0:0:0:0:
475,192,63064,1,0,0:0:0:0:
256,192,63064,128,0,63159:0:0:0:0:
109,192,63159,128,0,63254:0:0:0:0:
36,192,63254,1,0,0:0:0:0:
256,192,63254,1,0,0:0:0:0:
329,192,63254,128,0,63349:0:0:0:0:
182,192,63349,128,0,63444:0:0:0:0:
402,192,63444,1,0,0:0:0:0:
475,192,63444,1,0,0:0:0:0:
109,192,63444,128,0,63539:0:0:0:0:
256,192,63539,128,0,63634:0:0:0:0:
109,192,63634,1,0,0:0:0:0:
329,192,63634,128,0,63729:0:0:0:0:
182,192,63729,128,0,63824:0:0:0:0:
402,192,63824,1,0,0:0:0:0:
475,192,63824,1,0,0:0:0:0:
36,192,63824,1,0,0:0:0:0:
109,192,63824,128,0,63919:0:0:0:0:
256,192,63919,128,0,64014:0:0:0:0:
475,192,64014,1,0,0:0:0:0:
109,192,64014,1,0,0:0:0:0:
329,192,64014,128,0,64109:0:0:0:0:
182,192,64109,128,0,64204:0:0:0:0:
402,192,64204,1,0,0:0:0:0:
475,192,64204,1,0,0:0:0:0:
256,192,64204,128,0,64299:0:0:0:0:
109,192,64299,128,0,64393:0:0:0:0:
36,192,64393,1,0,0:0:0:0:
329,192,64393,128,0,64488:0:0:0:0:
182,192,64488,128,0,64583:0:0:0:0:
402,192,64583,1,0,0:0:0:0:
475,192,64583,1,0,0:0:0:0:
36,192,64583,1,0,0:0:0:0:
256,192,64583,128,0,64678:0:0:0:0:
109,192,64678,128,0,64773:0:0:0:0:
475,192,64773,1,0,0:0:0:0:
256,192,64773,1,0,0:0:0:0:
329,192,64773,128,0,64868:0:0:0:0:
182,192,64868,128,0,64963:0:0:0:0:
402,192,64963,1,0,0:0:0:0:
36,192,64963,1,0,0:0:0:0:
109,192,64963,128,0,65058:0:0:0:0:
256,192,65058,128,0,65153:0:0:0:0:
109,192,65153,1,0,0:0:0:0:
329,192,65153,128,0,65248:0:0:0:0:
182,192,65248,128,0,65343:0:0:0:0:
402,192,65343,1,0,0:0:0:0:
36,192,65343,1,0,0:0:0:0:
475,192,65343,1,0,0:0:0:0:
329,192,65343,128,0,65438:0:0:0:0:
256,192,65438,128,0,65533:0:0:0:0:
329,192,65533,1,0,0:0:0:0:
36,192,65533,1,0,0:0:0:0:
109,192,65533,128,0,65628:0:0:0:0:
182,192,65628,128,0,65723:0:0:0:0:
475,192,65723,1,0,0:0:0:0:
109,192,65723,1,0,0:0:0:0:
256,192,65723,128,0,65818:0:0:0:0:
402,192,65818,128,0,65912:0:0:0:0:
36,192,65912,1,0,0:0:0:0:
182,192,65912,128,0,66007:0:0:0:0:
329,192,66007,128,0,66102:0:0:0:0:
475,192,66102,1,0,0:0:0:0:
109,192,66102,1,0,0:0:0:0:
36,192,66102,1,0,0:0:0:0:
256,192,66102,128,0,66197:0:0:0:0:
402,192,66197,128,0,66292:0:0:0:0:
475,192,66292,1,0,0:0:0:0:
256,192,66292,1,0,0:0:0:0:
182,192,66292,128,0,66387:0:0:0:0:
329,192,66387,128,0,66482:0:0:0:0:
109,192,66482,1,0,0:0:0:0:
36,192,66482,1,0,0:0:0:0:
402,192,66482,128,0,66577:0:0:0:0:
256,192,66577,128,0,66672:0:0:0:0:
402,192,66672,1,0,0:0:0:0:
182,192,66672,128,0,66767:0:0:0:0:
329,192,66767,128,0,66862:0:0:0:0:
109,192,66862,1,0,0:0:0:0:
36,192,66862,1,0,0:0:0:0:
475,192,66862,1,0,0:0:0:0:
402,192,66862,128,0,66957:0:0:0:0:
256,192,66957,128,0,67052:0:0:0:0:
36,192,67052,1,0,0:0:0:0:
402,192,67052,1,0,0:0:0:0:
182,192,67052,128,0,67147:0:0:0:0:
329,192,67147,128,0,67242:0:0:0:0:
109,192,67242,1,0,0:0:0:0:
36,192,67242,1,0,0:0:0:0:
256,192,67242,128,0,67337:0:0:0:0:
402,192,67337,128,0,67431:0:0:0:0:
475,192,67431,1,0,0:0:0:0:
182,192,67431,128,0,67526:0:0:0:0:
329,192,67526,128,0,67621:0:0:0:0:
109,192,67621,1,0,0:0:0:0:
36,192,67621,1,0,0:0:0:0:
475,192,67621,1,0,0:0:0:0:
256,192,67621,128,0,67716:0:0:0:0:
402,192,67716,128,0,67811:0:0:0:0:
36,192,67811,1,0,0:0:0:0:
256,192,67811,1,0,0:0:0:0:
182,192,67811,128,0,67906:0:0:0:0:
329,192,67906,128,0,68001:0:0:0:0:
475,192,68001,1,0,0:0:0:0:
36,192,68001,1,0,0:0:0:0:
109,192,68001,128,0,68096:0:0:0:0:
256,192,68096,128,0,68191:0:0:0:0:
402,192,68191,1,0,0:0:0:0:
182,192,68191,128,0,68286:0:0:0:0:
329,192,68286,128,0,68381:0:0:0:0:
475,192,68381,1,0,0:0:0:0:
36,192,68381,1,0,0:0:0:0:
109,192,68381,128,0,68476:0:0:0:0:
256,192,68476,128,0,68571:0:0:0:0:
475,192,68571,1,0,0:0:0:0:
36,192,68571,1,0,0:0:0:0:
182,192,68571,128,0,68666:0:0:0:0:
329,192,68666,128,0,68761:0:0:0:0:
109,192,68761,1,0,0:0:0:0:
256,192,68761,1,0,0:0:0:0:
475,192,68761,1,0,0:0:0:0:
182,192,68761,128,0,68856:0:0:0:0:
402,192,68761,128,0,69045:0:0:0:0:
36,192,68856,128,0,68950:0:0:0:0:
109,192,68950,1,0,0:0:0:0:
329,192,68950,128,0,69045:0:0:0:0:
475,192,69045,128,0,69140:0:0:0:0:
402,192,69140,1,0,0:0:0:0:
329,192,69140,1,0,0:0:0:0:
182,192,69140,128,0,69235:0:0:0:0:
256,192,69140,128,0,69330:0:0:0:0:
109,192,69140,1,0,0:0:0:0:
36,192,69235,128,0,69330:0:0:0:0:
402,192,69330,1,0,0:0:0:0:
329,192,69330,128,0,69520:0:0:0:0:
182,192,69330,128,0,69425:0:0:0:0:
109,192,69330,1,0,0:0:0:0:
475,192,69425,128,0,69520:0:0:0:0:
109,192,69520,1,0,0:0:0:0:
36,192,69520,128,0,69615:0:0:0:0:
256,192,69520,1,0,0:0:0:0:
182,192,69615,128,0,69710:0:0:0:0:
36,192,69710,1,0,0:0:0:0:
475,192,69710,128,0,69805:0:0:0:0:
402,192,69710,128,0,69900:0:0:0:0:
329,192,69805,128,0,69900:0:0:0:0:
256,192,69900,1,0,0:0:0:0:
109,192,69900,1,0,0:0:0:0:
36,192,69900,128,0,69995:0:0:0:0:
475,192,69900,1,0,0:0:0:0:
182,192,69995,128,0,70090:0:0:0:0:
402,192,70090,1,0,0:0:0:0:
475,192,70090,128,0,70185:0:0:0:0:
109,192,70090,128,0,70280:0:0:0:0:
256,192,70090,1,0,0:0:0:0:
329,192,70185,128,0,70280:0:0:0:0:
402,192,70280,1,0,0:0:0:0:
182,192,70280,128,0,70375:0:0:0:0:
475,192,70280,1,0,0:0:0:0:
36,192,70375,128,0,70469:0:0:0:0:
182,192,70469,1,0,0:0:0:0:
329,192,70469,128,0,70564:0:0:0:0:
109,192,70469,128,0,70659:0:0:0:0:
475,192,70564,128,0,70659:0:0:0:0:
256,192,70659,1,0,0:0:0:0:
329,192,70659,1,0,0:0:0:0:
182,192,70659,128,0,70754:0:0:0:0:
402,192,70659,128,0,70849:0:0:0:0:
36,192,70754,128,0,70849:0:0:0:0:
182,192,70849,1,0,0:0:0:0:
329,192,70849,128,0,70944:0:0:0:0:
109,192,70849,1,0,0:0:0:0:
475,192,70944,128,0,71039:0:0:0:0:
109,192,71039,1,0,0:0:0:0:
36,192,71039,128,0,71134:0:0:0:0:
402,192,71039,128,0,71229:0:0:0:0:
329,192,71039,1,0,0:0:0:0:
182,192,71134,128,0,71229:0:0:0:0:
109,192,71229,1,0,0:0:0:0:
475,192,71229,128,0,71324:0:0:0:0:
256,192,71229,128,0,71419:0:0:0:0:
329,192,71324,128,0,71419:0:0:0:0:
402,192,71419,1,0,0:0:0:0:
475,192,71419,1,0,0:0:0:0:
36,192,71419,128,0,71514:0:0:0:0:
109,192,71419,128,0,71609:0:0:0:0:
182,192,71514,128,0,71609:0:0:0:0:
36,192,71609,1,0,0:0:0:0:
475,192,71609,128,0,71704:0:0:0:0:
402,192,71609,128,0,71799:0:0:0:0:
256,192,71609,1,0,0:0:0:0:
329,192,71704,128,0,71799:0:0:0:0:
182,192,71799,128,0,71894:0:0:0:0:
109,192,71799,128,0,72083:0:0:0:0:
256,192,71799,1,0,0:0:0:0:
475,192,71799,1,0,0:0:0:0:
36,192,71894,128,0,71988:0:0:0:0:
475,192,71988,1,0,0:0:0:0:
182,192,71988,128,0,72083:0:0:0:0:
36,192,72083,128,0,72178:0:0:0:0:
109,192,72178,1,0,0:0:0:0:
402,192,72178,1,0,0:0:0:0:
329,192,72178,128,0,72273:0:0:0:0:
182,192,72178,128,0,72368:0:0:0:0:
256,192,72178,1,0,0:0:0:0:
475,192,72273,128,0,72368:0:0:0:0:
36,192,72368,1,0,0:0:0:0:
329,192,72368,128,0,72463:0:0:0:0:
256,192,72368,128,0,72558:0:0:0:0:
109,192,72368,1,0,0:0:0:0:
475,192,72463,128,0,72558:0:0:0:0:
402,192,72558,1,0,0:0:0:0:
182,192,72558,128,0,72653:0:0:0:0:
329,192,72558,1,0,0:0:0:0:
36,192,72653,128,0,72748:0:0:0:0:
329,192,72748,1,0,0:0:0:0:
182,192,72748,128,0,72843:0:0:0:0:
475,192,72748,128,0,72938:0:0:0:0:
36,192,72843,128,0,72938:0:0:0:0:
402,192,72938,1,0,0:0:0:0:
109,192,72938,1,0,0:0:0:0:
329,192,72938,128,0,73033:0:0:0:0:
256,192,72938,1,0,0:0:0:0:
475,192,73033,128,0,73128:0:0:0:0:
36,192,73128,1,0,0:0:0:0:
329,192,73128,128,0,73223:0:0:0:0:
182,192,73128,128,0,73318:0:0:0:0:
109,192,73128,1,0,0:0:0:0:
475,192,73223,128,0,73318:0:0:0:0:
109,192,73318,1,0,0:0:0:0:
36,192,73318,128,0,73413:0:0:0:0:
402,192,73318,1,0,0:0:0:0:
182,192,73413,128,0,73507:0:0:0:0:
329,192,73507,1,0,0:0:0:0:
36,192,73507,128,0,73602:0:0:0:0:
256,192,73507,128,0,73697:0:0:0:0:
182,192,73602,128,0,73697:0:0:0:0:
402,192,73697,1,0,0:0:0:0:
36,192,73697,1,0,0:0:0:0:
475,192,73697,128,0,73792:0:0:0:0:
109,192,73697,128,0,73887:0:0:0:0:
329,192,73792,128,0,73887:0:0:0:0:
182,192,73887,1,0,0:0:0:0:
475,192,73887,128,0,73982:0:0:0:0:
36,192,73887,1,0,0:0:0:0:
329,192,73982,128,0,74077:0:0:0:0:
475,192,74077,1,0,0:0:0:0:
36,192,74077,128,0,74172:0:0:0:0:
402,192,74077,128,0,74267:0:0:0:0:
256,192,74077,1,0,0:0:0:0:
182,192,74172,128,0,74267:0:0:0:0:
329,192,74267,1,0,0:0:0:0:
36,192,74267,128,0,74362:0:0:0:0:
256,192,74267,128,0,74457:0:0:0:0:
182,192,74362,128,0,74457:0:0:0:0:
402,192,74457,1,0,0:0:0:0:
36,192,74457,1,0,0:0:0:0:
475,192,74457,128,0,74552:0:0:0:0:
109,192,74457,128,0,74647:0:0:0:0:
329,192,74552,128,0,74647:0:0:0:0:
402,192,74647,1,0,0:0:0:0:
475,192,74647,128,0,74742:0:0:0:0:
182,192,74647,128,0,74837:0:0:0:0:
36,192,74647,1,0,0:0:0:0:
329,192,74742,128,0,74837:0:0:0:0:
109,192,74837,128,0,74932:0:0:0:0:
36,192,74837,128,0,75121:0:0:0:0:
475,192,74837,1,0,0:0:0:0:
402,192,74837,1,0,0:0:0:0:
256,192,74932,128,0,75026:0:0:0:0:
329,192,75026,1,0,0:0:0:0:
109,192,75026,128,0,75121:0:0:0:0:
256,192,75121,128,0,75216:0:0:0:0:
182,192,75216,1,0,0:0:0:0:
36,192,75216,1,0,0:0:0:0:
402,192,75216,128,0,75311:0:0:0:0:
475,192,75216,128,0,75406:0:0:0:0:
329,192,75216,1,0,0:0:0:0:
256,192,75311,128,0,75406:0:0:0:0:
329,192,75406,1,0,0:0:0:0:
402,192,75406,128,0,75501:0:0:0:0:
109,192,75406,128,0,75596:0:0:0:0:
182,192,75406,1,0,0:0:0:0:
256,192,75501,128,0,75596:0:0:0:0:
402,192,75596,1,0,0:0:0:0:
36,192,75596,128,0,75691:0:0:0:0:
475,192,75596,1,0,0:0:0:0:
182,192,75691,128,0,75786:0:0:0:0:
475,192,75786,1,0,0:0:0:0:
36,192,75786,128,0,75881:0:0:0:0:
256,192,75786,128,0,75976:0:0:0:0:
182,192,75881,128,0,75976:0:0:0:0:
109,192,75976,1,0,0:0:0:0:
475,192,75976,1,0,0:0:0:0:
329,192,75976,128,0,76071:0:0:0:0:
402,192,75976,1,0,0:0:0:0:
182,192,76071,128,0,76166:0:0:0:0:
36,192,76166,1,0,0:0:0:0:
329,192,76166,128,0,76261:0:0:0:0:
402,192,76166,128,0,76356:0:0:0:0:
256,192,76166,1,0,0:0:0:0:
182,192,76261,128,0,76356:0:0:0:0:
36,192,76356,1,0,0:0:0:0:
329,192,76356,128,0,76451:0:0:0:0:
475,192,76356,1,0,0:0:0:0:
109,192,76451,128,0,76545:0:0:0:0:
475,192,76545,1,0,0:0:0:0:
329,192,76545,128,0,76640:0:0:0:0:
402,192,76545,128,0,76735:0:0:0:0:
109,192,76640,128,0,76735:0:0:0:0:
36,192,76735,1,0,0:0:0:0:
475,192,76735,1,0,0:0:0:0:
256,192,76735,128,0,76830:0:0:0:0:
182,192,76735,128,0,76925:0:0:0:0:
329,192,76735,1,0,0:0:0:0:
109,192,76830,128,0,76925:0:0:0:0:
475,192,76925,1,0,0:0:0:0:
256,192,76925,128,0,77020:0:0:0:0:
402,192,76925,1,0,0:0:0:0:
109,192,77020,128,0,77115:0:0:0:0:
36,192,77115,1,0,0:0:0:0:
256,192,77115,128,0,77210:0:0:0:0:
182,192,77115,128,0,77305:0:0:0:0:
329,192,77115,1,0,0:0:0:0:
402,192,77210,128,0,77305:0:0:0:0:
475,192,77305,1,0,0:0:0:0:
256,192,77305,128,0,77400:0:0:0:0:
109,192,77305,128,0,77495:0:0:0:0:
402,192,77400,128,0,77495:0:0:0:0:
36,192,77495,1,0,0:0:0:0:
329,192,77495,1,0,0:0:0:0:
182,192,77495,128,0,77590:0:0:0:0:
475,192,77495,128,0,77685:0:0:0:0:
256,192,77495,1,0,0:0:0:0:
402,192,77590,128,0,77685:0:0:0:0:
109,192,77685,1,0,0:0:0:0:
182,192,77685,128,0,77780:0:0:0:0:
256,192,77685,128,0,77875:0:0:0:0:
329,192,77685,1,0,0:0:0:0:
402,192,77780,128,0,77875:0:0:0:0:
182,192,77875,128,0,77970:0:0:0:0:
36,192,77875,128,0,78159:0:0:0:0:
475,192,77875,1,0,0:0:0:0:
109,192,77875,1,0,0:0:0:0:
329,192,77970,128,0,78064:0:0:0:0:
475,192,78064,1,0,0:0:0:0:
402,192,78064,1,0,0:0:0:0:
182,192,78064,128,0,78159:0:0:0:0:
329,192,78159,128,0,78254:0:0:0:0:
256,192,78254,1,0,0:0:0:0:
36,192,78254,1,0,0:0:0:0:
475,192,78254,128,0,78349:0:0:0:0:
109,192,78254,128,0,78444:0:0:0:0:
402,192,78254,1,0,0:0:0:0:
329,192,78349,128,0,78444:0:0:0:0:
256,192,78444,1,0,0:0:0:0:
475,192,78444,128,0,78539:0:0:0:0:
36,192,78444,128,0,78634:0:0:0:0:
182,192,78444,1,0,0:0:0:0:
402,192,78539,128,0,78634:0:0:0:0:
109,192,78634,1,0,0:0:0:0:
182,192,78634,128,0,78729:0:0:0:0:
329,192,78634,1,0,0:0:0:0:
402,192,78729,128,0,78824:0:0:0:0:
475,192,78824,1,0,0:0:0:0:
109,192,78824,128,0,78919:0:0:0:0:
329,192,78824,128,0,79014:0:0:0:0:
402,192,78919,128,0,79014:0:0:0:0:
36,192,79014,1,0,0:0:0:0:
256,192,79014,128,0,79109:0:0:0:0:
182,192,79014,1,0,0:0:0:0:
475,192,79014,1,0,0:0:0:0:
402,192,79109,128,0,79204:0:0:0:0:
256,192,79204,1,0,0:0:0:0:
329,192,79204,1,0,0:0:0:0:
475,192,79204,1,0,0:0:0:0:
182,192,79204,1,0,0:0:0:0:
36,192,79204,128,0,79394:0:0:0:0:
256,192,79583,1,0,0:0:0:0:
182,192,79583,128,0,79773:0:0:0:0:
109,192,79773,1,0,0:0:0:0:
402,192,79773,1,0,0:0:0:0:
329,192,79773,1,0,0:0:0:0:
256,192,79773,128,0,79963:0:0:0:0:
256,192,80153,1,0,0:0:0:0:
109,192,80153,1,0,0:0:0:0:
475,192,80153,1,0,0:0:0:0:
402,192,80153,128,0,80343:0:0:0:0:
329,192,80343,128,0,80533:0:0:0:0:
256,192,80533,1,0,0:0:0:0:
36,192,80723,128,0,80913:0:0:0:0:
402,192,80913,1,0,0:0:0:0:
329,192,80913,1,0,0:0:0:0:
475,192,80913,1,0,0:0:0:0:
182,192,80913,128,0,81008:0:0:0:0:
36,192,81008,128,0,81102:0:0:0:0:
182,192,81102,128,0,81197:0:0:0:0:
402,192,81102,128,0,81292:0:0:0:0:
256,192,81102,1,0,0:0:0:0:
36,192,81197,128,0,81292:0:0:0:0:
329,192,81292,1,0,0:0:0:0:
475,192,81292,1,0,0:0:0:0:
182,192,81292,1,0,0:0:0:0:
256,192,81292,128,0,81387:0:0:0:0:
109,192,81387,128,0,81482:0:0:0:0:
402,192,81482,1,0,0:0:0:0:
256,192,81482,128,0,81577:0:0:0:0:
329,192,81482,128,0,81672:0:0:0:0:
36,192,81482,1,0,0:0:0:0:
109,192,81577,128,0,81672:0:0:0:0:
402,192,81672,1,0,0:0:0:0:
475,192,81672,1,0,0:0:0:0:
182,192,81672,128,0,81767:0:0:0:0:
36,192,81767,128,0,81862:0:0:0:0:
182,192,81862,128,0,81957:0:0:0:0:
109,192,81862,128,0,82052:0:0:0:0:
256,192,81862,1,0,0:0:0:0:
36,192,81957,128,0,82052:0:0:0:0:
329,192,82052,1,0,0:0:0:0:
475,192,82052,1,0,0:0:0:0:
402,192,82052,1,0,0:0:0:0:
256,192,82052,128,0,82147:0:0:0:0:
109,192,82147,128,0,82242:0:0:0:0:
402,192,82242,1,0,0:0:0:0:
256,192,82242,128,0,82337:0:0:0:0:
182,192,82242,128,0,82432:0:0:0:0:
36,192,82242,1,0,0:0:0:0:
109,192,82337,128,0,82432:0:0:0:0:
475,192,82432,1,0,0:0:0:0:
36,192,82432,1,0,0:0:0:0:
329,192,82432,128,0,82527:0:0:0:0:
182,192,82527,128,0,82621:0:0:0:0:
329,192,82621,128,0,82716:0:0:0:0:
256,192,82621,128,0,82811:0:0:0:0:
109,192,82621,1,0,0:0:0:0:
182,192,82716,128,0,82811:0:0:0:0:
475,192,82811,1,0,0:0:0:0:
36,192,82811,1,0,0:0:0:0:
109,192,82811,1,0,0:0:0:0:
329,192,82811,1,0,0:0:0:0:
402,192,82811,128,0,82906:0:0:0:0:
256,192,82906,128,0,83001:0:0:0:0:
109,192,83001,1,0,0:0:0:0:
402,192,83001,128,0,83096:0:0:0:0:
182,192,83001,128,0,83191:0:0:0:0:
475,192,83001,1,0,0:0:0:0:
256,192,83096,128,0,83191:0:0:0:0:
475,192,83191,1,0,0:0:0:0:
36,192,83191,1,0,0:0:0:0:
109,192,83191,1,0,0:0:0:0:
402,192,83191,1,0,0:0:0:0:
329,192,83191,128,0,83286:0:0:0:0:
182,192,83286,128,0,83381:0:0:0:0:
329,192,83381,128,0,83476:0:0:0:0:
256,192,83381,128,0,83571:0:0:0:0:
36,192,83381,1,0,0:0:0:0:
182,192,83476,128,0,83571:0:0:0:0:
475,192,83571,1,0,0:0:0:0:
36,192,83571,1,0,0:0:0:0:
329,192,83571,1,0,0:0:0:0:
109,192,83571,1,0,0:0:0:0:
402,192,83571,128,0,83666:0:0:0:0:
256,192,83666,128,0,83761:0:0:0:0:
475,192,83761,1,0,0:0:0:0:
402,192,83761,128,0,83856:0:0:0:0:
182,192,83761,128,0,83951:0:0:0:0:
109,192,83761,1,0,0:0:0:0:
256,192,83856,128,0,83951:0:0:0:0:
109,192,83951,1,0,0:0:0:0:
36,192,83951,1,0,0:0:0:0:
329,192,83951,128,0,84046:0:0:0:0:
475,192,84046,128,0,84140:0:0:0:0:
329,192,84140,128,0,84235:0:0:0:0:
109,192,84140,128,0,84330:0:0:0:0:
256,192,84140,1,0,0:0:0:0:
475,192,84235,128,0,84330:0:0:0:0:
36,192,84330,1,0,0:0:0:0:
182,192,84330,1,0,0:0:0:0:
329,192,84330,1,0,0:0:0:0:
256,192,84330,128,0,84425:0:0:0:0:
402,192,84425,128,0,84520:0:0:0:0:
109,192,84520,1,0,0:0:0:0:
256,192,84520,128,0,84615:0:0:0:0:
475,192,84520,128,0,84710:0:0:0:0:
182,192,84520,1,0,0:0:0:0:
402,192,84615,128,0,84710:0:0:0:0:
109,192,84710,1,0,0:0:0:0:
36,192,84710,1,0,0:0:0:0:
329,192,84710,128,0,84805:0:0:0:0:
475,192,84805,128,0,84900:0:0:0:0:
329,192,84900,128,0,84995:0:0:0:0:
402,192,84900,128,0,85090:0:0:0:0:
182,192,84900,1,0,0:0:0:0:
475,192,84995,128,0,85090:0:0:0:0:
36,192,85090,1,0,0:0:0:0:
182,192,85090,1,0,0:0:0:0:
329,192,85090,1,0,0:0:0:0:
256,192,85090,128,0,85185:0:0:0:0:
402,192,85185,128,0,85280:0:0:0:0:
475,192,85280,1,0,0:0:0:0:
256,192,85280,128,0,85375:0:0:0:0:
109,192,85280,128,0,85470:0:0:0:0:
329,192,85280,1,0,0:0:0:0:
402,192,85375,128,0,85470:0:0:0:0:
36,192,85470,1,0,0:0:0:0:
475,192,85470,1,0,0:0:0:0:
182,192,85470,128,0,85565:0:0:0:0:
329,192,85565,128,0,85659:0:0:0:0:
182,192,85659,128,0,85754:0:0:0:0:
256,192,85659,128,0,85849:0:0:0:0:
109,192,85659,1,0,0:0:0:0:
329,192,85754,128,0,85849:0:0:0:0:
36,192,85849,1,0,0:0:0:0:
475,192,85849,1,0,0:0:0:0:
182,192,85849,1,0,0:0:0:0:
402,192,85849,1,0,0:0:0:0:
109,192,85849,128,0,85944:0:0:0:0:
256,192,85944,128,0,86039:0:0:0:0:
475,192,86039,1,0,0:0:0:0:
109,192,86039,128,0,86134:0:0:0:0:
329,192,86039,128,0,86229:0:0:0:0:
182,192,86039,1,0,0:0:0:0:
256,192,86134,128,0,86229:0:0:0:0:
36,192,86229,1,0,0:0:0:0:
475,192,86229,1,0,0:0:0:0:
402,192,86229,1,0,0:0:0:0:
182,192,86229,128,0,86324:0:0:0:0:
329,192,86324,128,0,86419:0:0:0:0:
182,192,86419,128,0,86514:0:0:0:0:
256,192,86419,128,0,86609:0:0:0:0:
475,192,86419,1,0,0:0:0:0:
329,192,86514,128,0,86609:0:0:0:0:
36,192,86609,1,0,0:0:0:0:
475,192,86609,1,0,0:0:0:0:
182,192,86609,1,0,0:0:0:0:
402,192,86609,1,0,0:0:0:0:
109,192,86609,128,0,86704:0:0:0:0:
256,192,86704,128,0,86799:0:0:0:0:
329,192,86799,1,0,0:0:0:0:
109,192,86799,128,0,86894:0:0:0:0:
36,192,86799,128,0,86989:0:0:0:0:
475,192,86799,1,0,0:0:0:0:
256,192,86894,128,0,86989:0:0:0:0:
402,192,86989,1,0,0:0:0:0:
182,192,86989,1,0,0:0:0:0:
109,192,86989,128,0,87084:0:0:0:0:
36,192,87084,128,0,87179:0:0:0:0:
109,192,87179,128,0,87273:0:0:0:0:
402,192,87179,128,0,87368:0:0:0:0:
329,192,87179,1,0,0:0:0:0:
182,192,87273,128,0,87368:0:0:0:0:
329,192,87368,1,0,0:0:0:0:
475,192,87368,1,0,0:0:0:0:
256,192,87368,1,0,0:0:0:0:
109,192,87368,128,0,87463:0:0:0:0:
36,192,87463,128,0,87558:0:0:0:0:
402,192,87558,1,0,0:0:0:0:
109,192,87558,128,0,87653:0:0:0:0:
329,192,87558,128,0,87748:0:0:0:0:
475,192,87558,1,0,0:0:0:0:
182,192,87653,128,0,87748:0:0:0:0:
402,192,87748,1,0,0:0:0:0:
36,192,87748,1,0,0:0:0:0:
256,192,87748,128,0,87843:0:0:0:0:
182,192,87843,128,0,87938:0:0:0:0:
109,192,87938,128,0,88033:0:0:0:0:
402,192,87938,128,0,88128:0:0:0:0:
475,192,87938,1,0,0:0:0:0:
182,192,88033,128,0,88128:0:0:0:0:
329,192,88128,1,0,0:0:0:0:
475,192,88128,1,0,0:0:0:0:
36,192,88128,1,0,0:0:0:0:
256,192,88128,128,0,88223:0:0:0:0:
182,192,88223,128,0,88318:0:0:0:0:
402,192,88318,1,0,0:0:0:0:
109,192,88318,128,0,88413:0:0:0:0:
256,192,88318,128,0,88508:0:0:0:0:
36,192,88318,1,0,0:0:0:0:
182,192,88413,128,0,88508:0:0:0:0:
475,192,88508,1,0,0:0:0:0:
329,192,88508,1,0,0:0:0:0:
109,192,88508,128,0,88603:0:0:0:0:
36,192,88603,128,0,88698:0:0:0:0:
109,192,88698,128,0,88792:0:0:0:0:
402,192,88698,128,0,88887:0:0:0:0:
256,192,88698,1,0,0:0:0:0:
182,192,88792,128,0,88887:0:0:0:0:
475,192,88887,1,0,0:0:0:0:
256,192,88887,1,0,0:0:0:0:
329,192,88887,1,0,0:0:0:0:
109,192,88887,128,0,88982:0:0:0:0:
36,192,88982,128,0,89077:0:0:0:0:
475,192,89077,1,0,0:0:0:0:
109,192,89077,128,0,89172:0:0:0:0:
329,192,89077,128,0,89267:0:0:0:0:
256,192,89077,1,0,0:0:0:0:
182,192,89172,128,0,89267:0:0:0:0:
475,192,89267,1,0,0:0:0:0:
402,192,89267,1,0,0:0:0:0:
36,192,89267,1,0,0:0:0:0:
256,192,89267,128,0,89362:0:0:0:0:
182,192,89362,128,0,89457:0:0:0:0:
109,192,89457,128,0,89552:0:0:0:0:
329,192,89457,128,0,89647:0:0:0:0:
402,192,89457,1,0,0:0:0:0:
182,192,89552,128,0,89647:0:0:0:0:
475,192,89647,1,0,0:0:0:0:
402,192,89647,1,0,0:0:0:0:
36,192,89647,1,0,0:0:0:0:
109,192,89647,1,0,0:0:0:0:
256,192,89647,128,0,89742:0:0:0:0:
182,192,89742,128,0,89837:0:0:0:0:
402,192,89837,1,0,0:0:0:0:
109,192,89837,128,0,89932:0:0:0:0:
256,192,89837,128,0,90027:0:0:0:0:
475,192,89837,1,0,0:0:0:0:
182,192,89932,128,0,90027:0:0:0:0:
109,192,90027,1,0,0:0:0:0:
36,192,90027,1,0,0:0:0:0:
402,192,90027,128,0,90122:0:0:0:0:
475,192,90122,128,0,90217:0:0:0:0:
109,192,90217,1,0,0:0:0:0:
402,192,90217,128,0,90311:0:0:0:0:
256,192,90217,128,0,90406:0:0:0:0:
329,192,90311,128,0,90406:0:0:0:0:
36,192,90406,1,0,0:0:0:0:
182,192,90406,1,0,0:0:0:0:
109,192,90406,1,0,0:0:0:0:
402,192,90406,128,0,90501:0:0:0:0:
475,192,90501,128,0,90596:0:0:0:0:
36,192,90596,1,0,0:0:0:0:
256,192,90596,1,0,0:0:0:0:
402,192,90596,128,0,90691:0:0:0:0:
182,192,90596,128,0,90786:0:0:0:0:
329,192,90691,128,0,90786:0:0:0:0:
109,192,90786,1,0,0:0:0:0:
475,192,90786,1,0,0:0:0:0:
256,192,90786,128,0,90881:0:0:0:0:
329,192,90881,128,0,90976:0:0:0:0:
402,192,90976,128,0,91071:0:0:0:0:
109,192,90976,128,0,91166:0:0:0:0:
329,192,91071,128,0,91166:0:0:0:0:
36,192,91166,1,0,0:0:0:0:
182,192,91166,1,0,0:0:0:0:
475,192,91166,1,0,0:0:0:0:
256,192,91166,128,0,91261:0:0:0:0:
329,192,91261,128,0,91356:0:0:0:0:
109,192,91356,1,0,0:0:0:0:
182,192,91356,1,0,0:0:0:0:
402,192,91356,128,0,91451:0:0:0:0:
256,192,91356,128,0,91546:0:0:0:0:
329,192,91451,128,0,91546:0:0:0:0:
36,192,91546,1,0,0:0:0:0:
182,192,91546,1,0,0:0:0:0:
402,192,91546,128,0,91641:0:0:0:0:
475,192,91641,128,0,91736:0:0:0:0:
402,192,91736,128,0,91830:0:0:0:0:
256,192,91736,1,0,0:0:0:0:
36,192,91736,128,0,91925:0:0:0:0:
329,192,91830,128,0,91925:0:0:0:0:
182,192,91925,1,0,0:0:0:0:
402,192,91925,128,0,92020:0:0:0:0:
475,192,92020,128,0,92115:0:0:0:0:
402,192,92115,1,0,0:0:0:0:
109,192,92115,128,0,92305:0:0:0:0:
329,192,92305,1,0,0:0:0:0:
256,192,92305,128,0,92495:0:0:0:0:
36,192,92495,1,0,0:0:0:0:
475,192,92495,1,0,0:0:0:0:
182,192,92495,128,0,92685:0:0:0:0:
36,192,92685,1,0,0:0:0:0:
475,192,92685,1,0,0:0:0:0:
402,192,92875,128,0,93065:0:0:0:0:
329,192,93065,1,0,0:0:0:0:
475,192,93065,1,0,0:0:0:0:
256,192,93065,1,0,0:0:0:0:
36,192,93065,128,0,93160:0:0:0:0:
182,192,93160,128,0,93255:0:0:0:0:
402,192,93255,1,0,0:0:0:0:
109,192,93255,128,0,93349:0:0:0:0:
256,192,93349,128,0,93444:0:0:0:0:
475,192,93444,1,0,0:0:0:0:
402,192,93444,1,0,0:0:0:0:
329,192,93444,1,0,0:0:0:0:
36,192,93444,128,0,93539:0:0:0:0:
182,192,93539,128,0,93634:0:0:0:0:
475,192,93634,1,0,0:0:0:0:
402,192,93634,1,0,0:0:0:0:
109,192,93634,128,0,93729:0:0:0:0:
256,192,93729,128,0,93824:0:0:0:0:
329,192,93824,1,0,0:0:0:0:
109,192,93824,1,0,0:0:0:0:
36,192,93824,128,0,93919:0:0:0:0:
182,192,93919,128,0,94014:0:0:0:0:
402,192,94014,1,0,0:0:0:0:
109,192,94014,128,0,94109:0:0:0:0:
256,192,94109,128,0,94204:0:0:0:0:
329,192,94204,1,0,0:0:0:0:
402,192,94204,1,0,0:0:0:0:
475,192,94204,1,0,0:0:0:0:
36,192,94204,128,0,94299:0:0:0:0:
182,192,94299,128,0,94394:0:0:0:0:
475,192,94394,1,0,0:0:0:0:
329,192,94394,1,0,0:0:0:0:
109,192,94394,128,0,94489:0:0:0:0:
256,192,94489,128,0,94584:0:0:0:0:
475,192,94584,1,0,0:0:0:0:
402,192,94584,1,0,0:0:0:0:
36,192,94584,128,0,94679:0:0:0:0:
182,192,94679,128,0,94774:0:0:0:0:
329,192,94774,1,0,0:0:0:0:
109,192,94774,128,0,94868:0:0:0:0:
256,192,94868,128,0,94963:0:0:0:0:
475,192,94963,1,0,0:0:0:0:
402,192,94963,1,0,0:0:0:0:
329,192,94963,1,0,0:0:0:0:
36,192,94963,128,0,95058:0:0:0:0:
182,192,95058,128,0,95153:0:0:0:0:
475,192,95153,1,0,0:0:0:0:
402,192,95153,1,0,0:0:0:0:
109,192,95153,128,0,95248:0:0:0:0:
256,192,95248,128,0,95343:0:0:0:0:
329,192,95343,1,0,0:0:0:0:
109,192,95343,1,0,0:0:0:0:
36,192,95343,128,0,95438:0:0:0:0:
182,192,95438,128,0,95533:0:0:0:0:
402,192,95533,1,0,0:0:0:0:
109,192,95533,128,0,95628:0:0:0:0:
256,192,95628,128,0,95723:0:0:0:0:
329,192,95723,1,0,0:0:0:0:
402,192,95723,1,0,0:0:0:0:
109,192,95723,1,0,0:0:0:0:
36,192,95723,128,0,95818:0:0:0:0:
182,192,95818,128,0,95913:0:0:0:0:
475,192,95913,1,0,0:0:0:0:
402,192,95913,1,0,0:0:0:0:
109,192,95913,128,0,96008:0:0:0:0:
256,192,96008,128,0,96103:0:0:0:0:
36,192,96103,1,0,0:0:0:0:
182,192,96103,1,0,0:0:0:0:
475,192,96103,128,0,96198:0:0:0:0:
329,192,96198,128,0,96293:0:0:0:0:
109,192,96293,1,0,0:0:0:0:
402,192,96293,128,0,96387:0:0:0:0:
256,192,96387,128,0,96482:0:0:0:0:
36,192,96482,1,0,0:0:0:0:
109,192,96482,1,0,0:0:0:0:
182,192,96482,1,0,0:0:0:0:
475,192,96482,128,0,96577:0:0:0:0:
329,192,96577,128,0,96672:0:0:0:0:
182,192,96672,1,0,0:0:0:0:
36,192,96672,1,0,0:0:0:0:
402,192,96672,128,0,96767:0:0:0:0:
256,192,96767,128,0,96862:0:0:0:0:
182,192,96862,1,0,0:0:0:0:
109,192,96862,1,0,0:0:0:0:
475,192,96862,128,0,96957:0:0:0:0:
329,192,96957,128,0,97052:0:0:0:0:
109,192,97052,1,0,0:0:0:0:
402,192,97052,128,0,97147:0:0:0:0:
256,192,97147,128,0,97242:0:0:0:0:
182,192,97242,1,0,0:0:0:0:
109,192,97242,1,0,0:0:0:0:
36,192,97242,1,0,0:0:0:0:
475,192,97242,128,0,97337:0:0:0:0:
329,192,97337,128,0,97432:0:0:0:0:
182,192,97432,1,0,0:0:0:0:
475,192,97432,1,0,0:0:0:0:
402,192,97432,128,0,97527:0:0:0:0:
256,192,97527,128,0,97622:0:0:0:0:
36,192,97622,1,0,0:0:0:0:
109,192,97622,1,0,0:0:0:0:
475,192,97622,128,0,97717:0:0:0:0:
329,192,97717,128,0,97812:0:0:0:0:
182,192,97812,1,0,0:0:0:0:
402,192,97812,128,0,97906:0:0:0:0:
256,192,97906,128,0,98001:0:0:0:0:
36,192,98001,1,0,0:0:0:0:
109,192,98001,1,0,0:0:0:0:
182,192,98001,1,0,0:0:0:0:
475,192,98001,128,0,98096:0:0:0:0:
329,192,98096,128,0,98191:0:0:0:0:
109,192,98191,1,0,0:0:0:0:
475,192,98191,1,0,0:0:0:0:
402,192,98191,128,0,98286:0:0:0:0:
256,192,98286,128,0,98381:0:0:0:0:
182,192,98381,1,0,0:0:0:0:
36,192,98381,1,0,0:0:0:0:
475,192,98381,128,0,98476:0:0:0:0:
329,192,98476,128,0,98571:0:0:0:0:
36,192,98571,1,0,0:0:0:0:
402,192,98571,128,0,98666:0:0:0:0:
256,192,98666,128,0,98761:0:0:0:0:
182,192,98761,1,0,0:0:0:0:
109,192,98761,1,0,0:0:0:0:
402,192,98761,1,0,0:0:0:0:
475,192,98761,128,0,98856:0:0:0:0:
329,192,98856,128,0,98951:0:0:0:0:
109,192,98951,1,0,0:0:0:0:
36,192,98951,1,0,0:0:0:0:
402,192,98951,128,0,99046:0:0:0:0:
256,192,99046,128,0,99141:0:0:0:0:
475,192,99141,1,0,0:0:0:0:
182,192,99141,1,0,0:0:0:0:
36,192,99141,128,0,99236:0:0:0:0:
109,192,99236,128,0,99331:0:0:0:0:
402,192,99331,1,0,0:0:0:0:
256,192,99331,128,0,99425:0:0:0:0:
182,192,99425,128,0,99520:0:0:0:0:
475,192,99520,1,0,0:0:0:0:
402,192,99520,1,0,0:0:0:0:
329,192,99520,1,0,0:0:0:0:
36,192,99520,128,0,99615:0:0:0:0:
109,192,99615,128,0,99710:0:0:0:0:
329,192,99710,1,0,0:0:0:0:
475,192,99710,1,0,0:0:0:0:
256,192,99710,128,0,99805:0:0:0:0:
182,192,99805,128,0,99900:0:0:0:0:
329,192,99900,1,0,0:0:0:0:
256,192,99900,1,0,0:0:0:0:
36,192,99900,128,0,99995:0:0:0:0:
109,192,99995,128,0,100090:0:0:0:0:
402,192,100090,1,0,0:0:0:0:
256,192,100090,128,0,100185:0:0:0:0:
182,192,100185,128,0,100280:0:0:0:0:
329,192,100280,1,0,0:0:0:0:
402,192,100280,1,0,0:0:0:0:
475,192,100280,1,0,0:0:0:0:
36,192,100280,128,0,100375:0:0:0:0:
109,192,100375,128,0,100470:0:0:0:0:
329,192,100470,1,0,0:0:0:0:
36,192,100470,1,0,0:0:0:0:
256,192,100470,128,0,100565:0:0:0:0:
182,192,100565,128,0,100660:0:0:0:0:
475,192,100660,1,0,0:0:0:0:
402,192,100660,1,0,0:0:0:0:
36,192,100660,128,0,100755:0:0:0:0:
109,192,100755,128,0,100850:0:0:0:0:
402,192,100850,1,0,0:0:0:0:
256,192,100850,128,0,100944:0:0:0:0:
182,192,100944,128,0,101039:0:0:0:0:
475,192,101039,1,0,0:0:0:0:
402,192,101039,1,0,0:0:0:0:
329,192,101039,1,0,0:0:0:0:
36,192,101039,128,0,101134:0:0:0:0:
109,192,101134,128,0,101229:0:0:0:0:
329,192,101229,1,0,0:0:0:0:
475,192,101229,1,0,0:0:0:0:
256,192,101229,128,0,101324:0:0:0:0:
182,192,101324,128,0,101419:0:0:0:0:
329,192,101419,1,0,0:0:0:0:
402,192,101419,1,0,0:0:0:0:
36,192,101419,128,0,101514:0:0:0:0:
109,192,101514,128,0,101609:0:0:0:0:
475,192,101609,1,0,0:0:0:0:
256,192,101609,128,0,101704:0:0:0:0:
182,192,101704,128,0,101799:0:0:0:0:
329,192,101799,1,0,0:0:0:0:
402,192,101799,1,0,0:0:0:0:
475,192,101799,1,0,0:0:0:0:
36,192,101799,128,0,101894:0:0:0:0:
109,192,101894,128,0,101989:0:0:0:0:
402,192,101989,1,0,0:0:0:0:
36,192,101989,1,0,0:0:0:0:
256,192,101989,128,0,102084:0:0:0:0:
182,192,102084,128,0,102179:0:0:0:0:
36,192,102179,1,0,0:0:0:0:
329,192,102179,1,0,0:0:0:0:
475,192,102179,128,0,102274:0:0:0:0:
402,192,102274,128,0,102369:0:0:0:0:
182,192,102369,1,0,0:0:0:0:
256,192,102369,128,0,102463:0:0:0:0:
329,192,102463,128,0,102558:0:0:0:0:
36,192,102558,1,0,0:0:0:0:
109,192,102558,1,0,0:0:0:0:
182,192,102558,1,0,0:0:0:0:
475,192,102558,128,0,102653:0:0:0:0:
402,192,102653,128,0,102748:0:0:0:0:
109,192,102748,1,0,0:0:0:0:
36,192,102748,1,0,0:0:0:0:
256,192,102748,128,0,102843:0:0:0:0:
329,192,102843,128,0,102938:0:0:0:0:
182,192,102938,1,0,0:0:0:0:
109,192,102938,1,0,0:0:0:0:
475,192,102938,128,0,103033:0:0:0:0:
402,192,103033,128,0,103128:0:0:0:0:
36,192,103128,1,0,0:0:0:0:
256,192,103128,128,0,103223:0:0:0:0:
329,192,103223,128,0,103318:0:0:0:0:
182,192,103318,1,0,0:0:0:0:
109,192,103318,1,0,0:0:0:0:
256,192,103318,1,0,0:0:0:0:
475,192,103318,128,0,103413:0:0:0:0:
402,192,103413,128,0,103508:0:0:0:0:
109,192,103508,1,0,0:0:0:0:
36,192,103508,1,0,0:0:0:0:
256,192,103508,128,0,103603:0:0:0:0:
329,192,103603,128,0,103698:0:0:0:0:
36,192,103698,1,0,0:0:0:0:
182,192,103698,1,0,0:0:0:0:
475,192,103698,128,0,103793:0:0:0:0:
402,192,103793,128,0,103888:0:0:0:0:
182,192,103888,1,0,0:0:0:0:
256,192,103888,128,0,103982:0:0:0:0:
329,192,103982,128,0,104077:0:0:0:0:
36,192,104077,1,0,0:0:0:0:
109,192,104077,1,0,0:0:0:0:
182,192,104077,1,0,0:0:0:0:
475,192,104077,128,0,104172:0:0:0:0:
402,192,104172,128,0,104267:0:0:0:0:
109,192,104267,1,0,0:0:0:0:
475,192,104267,1,0,0:0:0:0:
256,192,104267,128,0,104362:0:0:0:0:
329,192,104362,128,0,104457:0:0:0:0:
182,192,104457,1,0,0:0:0:0:
256,192,104457,1,0,0:0:0:0:
475,192,104457,128,0,104552:0:0:0:0:
402,192,104552,128,0,104647:0:0:0:0:
36,192,104647,1,0,0:0:0:0:
256,192,104647,128,0,104742:0:0:0:0:
329,192,104742,128,0,104837:0:0:0:0:
182,192,104837,1,0,0:0:0:0:
109,192,104837,1,0,0:0:0:0:
475,192,104837,128,0,104932:0:0:0:0:
402,192,104932,128,0,105027:0:0:0:0:
182,192,105027,1,0,0:0:0:0:
256,192,105027,128,0,105122:0:0:0:0:
329,192,105122,128,0,105217:0:0:0:0:
256,192,105217,1,0,0:0:0:0:
402,192,105217,1,0,0:0:0:0:
109,192,105217,1,0,0:0:0:0:
36,192,105217,128,0,105312:0:0:0:0:
475,192,105217,128,0,105501:0:0:0:0:
182,192,105312,128,0,105407:0:0:0:0:
402,192,105407,1,0,0:0:0:0:
109,192,105407,128,0,105501:0:0:0:0:
256,192,105501,128,0,105596:0:0:0:0:
329,192,105596,1,0,0:0:0:0:
109,192,105596,1,0,0:0:0:0:
402,192,105596,1,0,0:0:0:0:
36,192,105596,128,0,105691:0:0:0:0:
475,192,105596,128,0,105881:0:0:0:0:
182,192,105691,128,0,105786:0:0:0:0:
329,192,105786,1,0,0:0:0:0:
36,192,105786,1,0,0:0:0:0:
109,192,105786,128,0,105881:0:0:0:0:
402,192,105786,128,0,105881:0:0:0:0:
256,192,105881,128,0,105976:0:0:0:0:
475,192,105976,1,0,0:0:0:0:
402,192,105976,1,0,0:0:0:0:
36,192,105976,128,0,106071:0:0:0:0:
182,192,106071,128,0,106166:0:0:0:0:
329,192,106166,1,0,0:0:0:0:
109,192,106166,128,0,106261:0:0:0:0:
402,192,106166,128,0,106356:0:0:0:0:
256,192,106261,128,0,106356:0:0:0:0:
329,192,106356,1,0,0:0:0:0:
475,192,106356,1,0,0:0:0:0:
109,192,106356,1,0,0:0:0:0:
36,192,106356,128,0,106451:0:0:0:0:
182,192,106451,128,0,106546:0:0:0:0:
402,192,106546,1,0,0:0:0:0:
475,192,106546,1,0,0:0:0:0:
109,192,106546,128,0,106641:0:0:0:0:
329,192,106546,128,0,106736:0:0:0:0:
256,192,106641,128,0,106736:0:0:0:0:
475,192,106736,1,0,0:0:0:0:
402,192,106736,1,0,0:0:0:0:
36,192,106736,128,0,106831:0:0:0:0:
182,192,106831,128,0,106926:0:0:0:0:
36,192,106926,1,0,0:0:0:0:
109,192,106926,128,0,107020:0:0:0:0:
402,192,106926,128,0,107210:0:0:0:0:
256,192,107020,128,0,107115:0:0:0:0:
329,192,107115,1,0,0:0:0:0:
109,192,107115,1,0,0:0:0:0:
36,192,107115,128,0,107210:0:0:0:0:
475,192,107115,128,0,107210:0:0:0:0:
182,192,107210,128,0,107305:0:0:0:0:
402,192,107305,1,0,0:0:0:0:
329,192,107305,1,0,0:0:0:0:
109,192,107305,128,0,107400:0:0:0:0:
256,192,107400,128,0,107495:0:0:0:0:
475,192,107495,1,0,0:0:0:0:
402,192,107495,1,0,0:0:0:0:
36,192,107495,128,0,107590:0:0:0:0:
329,192,107495,128,0,107685:0:0:0:0:
109,192,107495,1,0,0:0:0:0:
182,192,107590,128,0,107685:0:0:0:0:
36,192,107685,1,0,0:0:0:0:
109,192,107685,128,0,107780:0:0:0:0:
402,192,107685,128,0,107875:0:0:0:0:
256,192,107780,128,0,107875:0:0:0:0:
475,192,107875,1,0,0:0:0:0:
109,192,107875,1,0,0:0:0:0:
36,192,107875,128,0,107970:0:0:0:0:
329,192,107875,128,0,108065:0:0:0:0:
182,192,107970,128,0,108065:0:0:0:0:
475,192,108065,1,0,0:0:0:0:
109,192,108065,128,0,108160:0:0:0:0:
402,192,108065,128,0,108255:0:0:0:0:
36,192,108065,1,0,0:0:0:0:
256,192,108160,128,0,108255:0:0:0:0:
182,192,108255,1,0,0:0:0:0:
109,192,108255,1,0,0:0:0:0:
475,192,108255,128,0,108350:0:0:0:0:
36,192,108255,128,0,108539:0:0:0:0:
329,192,108350,128,0,108445:0:0:0:0:
109,192,108445,1,0,0:0:0:0:
402,192,108445,128,0,108539:0:0:0:0:
256,192,108539,128,0,108634:0:0:0:0:
36,192,108634,1,0,0:0:0:0:
402,192,108634,1,0,0:0:0:0:
109,192,108634,1,0,0:0:0:0:
475,192,108634,128,0,108729:0:0:0:0:
182,192,108634,128,0,108919:0:0:0:0:
329,192,108729,128,0,108824:0:0:0:0:
475,192,108824,1,0,0:0:0:0:
36,192,108824,1,0,0:0:0:0:
402,192,108824,128,0,108919:0:0:0:0:
109,192,108824,128,0,108919:0:0:0:0:
256,192,108919,128,0,109014:0:0:0:0:
36,192,109014,1,0,0:0:0:0:
182,192,109014,1,0,0:0:0:0:
475,192,109014,128,0,109109:0:0:0:0:
329,192,109109,128,0,109204:0:0:0:0:
182,192,109204,1,0,0:0:0:0:
402,192,109204,128,0,109299:0:0:0:0:
109,192,109204,128,0,109394:0:0:0:0:
256,192,109299,128,0,109394:0:0:0:0:
182,192,109394,1,0,0:0:0:0:
36,192,109394,1,0,0:0:0:0:
402,192,109394,1,0,0:0:0:0:
475,192,109394,128,0,109489:0:0:0:0:
329,192,109489,128,0,109584:0:0:0:0:
182,192,109584,1,0,0:0:0:0:
475,192,109584,1,0,0:0:0:0:
402,192,109584,128,0,109679:0:0:0:0:
109,192,109584,128,0,109774:0:0:0:0:
256,192,109679,128,0,109774:0:0:0:0:
36,192,109774,1,0,0:0:0:0:
182,192,109774,1,0,0:0:0:0:
475,192,109774,128,0,109869:0:0:0:0:
329,192,109869,128,0,109964:0:0:0:0:
109,192,109964,1,0,0:0:0:0:
402,192,109964,128,0,110058:0:0:0:0:
36,192,109964,128,0,110248:0:0:0:0:
256,192,110058,128,0,110153:0:0:0:0:
182,192,110153,1,0,0:0:0:0:
402,192,110153,1,0,0:0:0:0:
475,192,110153,128,0,110248:0:0:0:0:
109,192,110153,128,0,110248:0:0:0:0:
329,192,110248,128,0,110343:0:0:0:0:
109,192,110343,1,0,0:0:0:0:
182,192,110343,1,0,0:0:0:0:
402,192,110343,128,0,110438:0:0:0:0:
256,192,110438,128,0,110533:0:0:0:0:
109,192,110533,1,0,0:0:0:0:
402,192,110533,1,0,0:0:0:0:
475,192,110533,128,0,110628:0:0:0:0:
36,192,110533,128,0,110723:0:0:0:0:
329,192,110628,128,0,110723:0:0:0:0:
182,192,110723,1,0,0:0:0:0:
402,192,110723,128,0,110818:0:0:0:0:
109,192,110723,128,0,110913:0:0:0:0:
256,192,110818,128,0,110913:0:0:0:0:
36,192,110913,1,0,0:0:0:0:
402,192,110913,1,0,0:0:0:0:
475,192,110913,128,0,111008:0:0:0:0:
182,192,110913,128,0,111103:0:0:0:0:
329,192,111008,128,0,111103:0:0:0:0:
36,192,111103,1,0,0:0:0:0:
475,192,111103,1,0,0:0:0:0:
402,192,111103,128,0,111198:0:0:0:0:
109,192,111103,128,0,111293:0:0:0:0:
256,192,111198,128,0,111293:0:0:0:0:
329,192,111293,1,0,0:0:0:0:
182,192,111293,1,0,0:0:0:0:
402,192,111293,1,0,0:0:0:0:
36,192,111293,128,0,111388:0:0:0:0:
475,192,111293,128,0,111577:0:0:0:0:
109,192,111388,128,0,111483:0:0:0:0:
402,192,111483,1,0,0:0:0:0:
256,192,111483,128,0,111577:0:0:0:0:
182,192,111577,128,0,111672:0:0:0:0:
329,192,111672,1,0,0:0:0:0:
256,192,111672,1,0,0:0:0:0:
402,192,111672,1,0,0:0:0:0:
36,192,111672,128,0,111767:0:0:0:0:
475,192,111672,128,0,111957:0:0:0:0:
109,192,111767,128,0,111862:0:0:0:0:
329,192,111862,1,0,0:0:0:0:
36,192,111862,1,0,0:0:0:0:
256,192,111862,128,0,111957:0:0:0:0:
402,192,111862,128,0,111957:0:0:0:0:
182,192,111957,128,0,112052:0:0:0:0:
475,192,112052,1,0,0:0:0:0:
402,192,112052,1,0,0:0:0:0:
36,192,112052,128,0,112147:0:0:0:0:
109,192,112147,128,0,112242:0:0:0:0:
475,192,112242,1,0,0:0:0:0:
256,192,112242,128,0,112337:0:0:0:0:
402,192,112242,128,0,112432:0:0:0:0:
182,192,112337,128,0,112432:0:0:0:0:
329,192,112432,1,0,0:0:0:0:
475,192,112432,1,0,0:0:0:0:
256,192,112432,1,0,0:0:0:0:
36,192,112432,128,0,112527:0:0:0:0:
109,192,112527,128,0,112622:0:0:0:0:
36,192,112622,1,0,0:0:0:0:
329,192,112622,1,0,0:0:0:0:
256,192,112622,128,0,112717:0:0:0:0:
402,192,112622,128,0,112812:0:0:0:0:
182,192,112717,128,0,112812:0:0:0:0:
475,192,112812,1,0,0:0:0:0:
329,192,112812,1,0,0:0:0:0:
36,192,112812,128,0,112907:0:0:0:0:
109,192,112907,128,0,113002:0:0:0:0:
36,192,113002,1,0,0:0:0:0:
256,192,113002,128,0,113096:0:0:0:0:
402,192,113002,128,0,113286:0:0:0:0:
182,192,113096,128,0,113191:0:0:0:0:
475,192,113191,1,0,0:0:0:0:
256,192,113191,1,0,0:0:0:0:
36,192,113191,128,0,113286:0:0:0:0:
329,192,113191,128,0,113286:0:0:0:0:
109,192,113286,128,0,113381:0:0:0:0:
402,192,113381,1,0,0:0:0:0:
329,192,113381,1,0,0:0:0:0:
256,192,113381,128,0,113476:0:0:0:0:
182,192,113476,128,0,113571:0:0:0:0:
475,192,113571,1,0,0:0:0:0:
256,192,113571,1,0,0:0:0:0:
36,192,113571,128,0,113666:0:0:0:0:
329,192,113571,128,0,113761:0:0:0:0:
109,192,113666,128,0,113761:0:0:0:0:
36,192,113761,1,0,0:0:0:0:
256,192,113761,128,0,113856:0:0:0:0:
402,192,113761,128,0,113951:0:0:0:0:
182,192,113856,128,0,113951:0:0:0:0:
256,192,113951,1,0,0:0:0:0:
475,192,113951,1,0,0:0:0:0:
36,192,113951,128,0,114046:0:0:0:0:
329,192,113951,128,0,114141:0:0:0:0:
109,192,114046,128,0,114141:0:0:0:0:
475,192,114141,1,0,0:0:0:0:
36,192,114141,1,0,0:0:0:0:
256,192,114141,128,0,114236:0:0:0:0:
402,192,114141,128,0,114331:0:0:0:0:
182,192,114236,128,0,114331:0:0:0:0:
329,192,114331,1,0,0:0:0:0:
256,192,114331,1,0,0:0:0:0:
109,192,114331,1,0,0:0:0:0:
475,192,114331,128,0,114426:0:0:0:0:
36,192,114331,128,0,114615:0:0:0:0:
402,192,114426,128,0,114521:0:0:0:0:
109,192,114521,1,0,0:0:0:0:
256,192,114521,128,0,114615:0:0:0:0:
329,192,114615,128,0,114710:0:0:0:0:
182,192,114710,1,0,0:0:0:0:
109,192,114710,1,0,0:0:0:0:
256,192,114710,1,0,0:0:0:0:
475,192,114710,128,0,114805:0:0:0:0:
36,192,114710,128,0,114995:0:0:0:0:
402,192,114805,128,0,114900:0:0:0:0:
182,192,114900,1,0,0:0:0:0:
475,192,114900,1,0,0:0:0:0:
256,192,114900,128,0,114995:0:0:0:0:
109,192,114900,128,0,114995:0:0:0:0:
329,192,114995,128,0,115090:0:0:0:0:
36,192,115090,1,0,0:0:0:0:
182,192,115090,1,0,0:0:0:0:
475,192,115090,128,0,115185:0:0:0:0:
402,192,115185,128,0,115280:0:0:0:0:
109,192,115280,1,0,0:0:0:0:
256,192,115280,128,0,115375:0:0:0:0:
182,192,115280,128,0,115470:0:0:0:0:
329,192,115375,128,0,115470:0:0:0:0:
36,192,115470,1,0,0:0:0:0:
256,192,115470,1,0,0:0:0:0:
475,192,115470,128,0,115565:0:0:0:0:
402,192,115470,1,0,0:0:0:0:
109,192,115470,1,0,0:0:0:0:
402,192,115565,128,0,115660:0:0:0:0:
256,192,115660,1,0,0:0:0:0:
182,192,115660,1,0,0:0:0:0:
36,192,115660,1,0,0:0:0:0:
329,192,115660,1,0,0:0:0:0:
475,192,115660,1,0,0:0:0:0:
109,192,115660,1,0,0:0:0:0:
182,192,116040,5,0,0:0:0:0:
36,192,116040,1,0,0:0:0:0:
475,192,116040,1,0,0:0:0:0:
329,192,116134,1,0,0:0:0:0:
182,192,116229,1,0,0:0:0:0:
475,192,116229,1,0,0:0:0:0:
36,192,116229,1,0,0:0:0:0:
329,192,116324,1,0,0:0:0:0:
182,192,116419,1,0,0:0:0:0:
329,192,116514,1,0,0:0:0:0:
182,192,116609,1,0,0:0:0:0:
36,192,116609,1,0,0:0:0:0:
475,192,116609,1,0,0:0:0:0:
256,192,116989,5,0,0:0:0:0:
256,192,117369,1,0,0:0:0:0:
475,192,117369,1,0,0:0:0:0:
329,192,117369,128,0,117653:0:0:0:0:
36,192,117369,128,0,117464:0:0:0:0:
109,192,117464,1,0,0:0:0:0:
182,192,117464,128,0,117559:0:0:0:0:
402,192,117559,1,0,0:0:0:0:
475,192,117559,1,0,0:0:0:0:
256,192,117559,128,0,117653:0:0:0:0:
36,192,117559,128,0,117843:0:0:0:0:
182,192,117653,128,0,117748:0:0:0:0:
475,192,117748,1,0,0:0:0:0:
256,192,117748,1,0,0:0:0:0:
109,192,117748,128,0,117938:0:0:0:0:
329,192,117748,128,0,117843:0:0:0:0:
182,192,117843,1,0,0:0:0:0:
402,192,117843,128,0,117938:0:0:0:0:
36,192,117938,1,0,0:0:0:0:
329,192,117938,1,0,0:0:0:0:
256,192,117938,128,0,118033:0:0:0:0:
475,192,117938,128,0,118033:0:0:0:0:
402,192,118033,1,0,0:0:0:0:
109,192,118033,128,0,118128:0:0:0:0:
36,192,118128,1,0,0:0:0:0:
256,192,118128,1,0,0:0:0:0:
475,192,118128,128,0,118413:0:0:0:0:
329,192,118128,128,0,118223:0:0:0:0:
402,192,118223,1,0,0:0:0:0:
182,192,118223,128,0,118318:0:0:0:0:
329,192,118318,1,0,0:0:0:0:
402,192,118318,1,0,0:0:0:0:
256,192,118318,128,0,118413:0:0:0:0:
109,192,118318,128,0,118508:0:0:0:0:
182,192,118413,128,0,118508:0:0:0:0:
402,192,118508,1,0,0:0:0:0:
475,192,118508,1,0,0:0:0:0:
329,192,118508,128,0,118603:0:0:0:0:
36,192,118508,128,0,118603:0:0:0:0:
402,192,118603,1,0,0:0:0:0:
109,192,118603,128,0,118698:0:0:0:0:
329,192,118698,1,0,0:0:0:0:
475,192,118698,1,0,0:0:0:0:
36,192,118698,128,0,118793:0:0:0:0:
256,192,118698,128,0,118983:0:0:0:0:
109,192,118793,1,0,0:0:0:0:
182,192,118793,128,0,118888:0:0:0:0:
36,192,118888,1,0,0:0:0:0:
475,192,118888,1,0,0:0:0:0:
329,192,118888,128,0,119173:0:0:0:0:
402,192,118888,128,0,118983:0:0:0:0:
182,192,118983,128,0,119078:0:0:0:0:
256,192,119078,1,0,0:0:0:0:
402,192,119078,1,0,0:0:0:0:
475,192,119078,128,0,119173:0:0:0:0:
109,192,119078,128,0,119267:0:0:0:0:
182,192,119173,128,0,119267:0:0:0:0:
36,192,119267,1,0,0:0:0:0:
329,192,119267,1,0,0:0:0:0:
402,192,119267,128,0,119457:0:0:0:0:
256,192,119267,128,0,119362:0:0:0:0:
182,192,119362,1,0,0:0:0:0:
109,192,119362,128,0,119457:0:0:0:0:
475,192,119457,1,0,0:0:0:0:
256,192,119457,1,0,0:0:0:0:
329,192,119457,128,0,119552:0:0:0:0:
36,192,119457,128,0,119742:0:0:0:0:
402,192,119552,1,0,0:0:0:0:
182,192,119552,128,0,119647:0:0:0:0:
256,192,119647,1,0,0:0:0:0:
109,192,119647,128,0,119837:0:0:0:0:
475,192,119647,128,0,119742:0:0:0:0:
402,192,119742,1,0,0:0:0:0:
182,192,119742,128,0,119837:0:0:0:0:
36,192,119837,1,0,0:0:0:0:
402,192,119837,1,0,0:0:0:0:
256,192,119837,128,0,119932:0:0:0:0:
475,192,119837,128,0,120122:0:0:0:0:
109,192,119932,128,0,120027:0:0:0:0:
402,192,120027,1,0,0:0:0:0:
329,192,120027,128,0,120122:0:0:0:0:
36,192,120027,128,0,120122:0:0:0:0:
256,192,120027,1,0,0:0:0:0:
402,192,120122,1,0,0:0:0:0:
109,192,120122,1,0,0:0:0:0:
182,192,120122,128,0,120217:0:0:0:0:
36,192,120217,1,0,0:0:0:0:
475,192,120217,1,0,0:0:0:0:
256,192,120217,128,0,120312:0:0:0:0:
329,192,120217,128,0,120312:0:0:0:0:
182,192,120312,128,0,120407:0:0:0:0:
402,192,120312,1,0,0:0:0:0:
329,192,120407,1,0,0:0:0:0:
109,192,120407,1,0,0:0:0:0:
36,192,120407,1,0,0:0:0:0:
256,192,120407,128,0,120549:0:0:0:0:
475,192,120407,128,0,120454:0:0:0:0:
182,192,120502,128,0,120549:0:0:0:0:
402,192,120502,128,0,120644:0:0:0:0:
475,192,120597,1,0,0:0:0:0:
329,192,120597,1,0,0:0:0:0:
36,192,120597,128,0,120644:0:0:0:0:
109,192,120597,128,0,120739:0:0:0:0:
402,192,120692,1,0,0:0:0:0:
182,192,120692,128,0,120739:0:0:0:0:
475,192,120786,1,0,0:0:0:0:
256,192,120786,1,0,0:0:0:0:
109,192,120786,1,0,0:0:0:0:
329,192,120786,128,0,120929:0:0:0:0:
36,192,120786,128,0,120834:0:0:0:0:
475,192,120881,1,0,0:0:0:0:
182,192,120881,128,0,121024:0:0:0:0:
256,192,120976,1,0,0:0:0:0:
402,192,120976,1,0,0:0:0:0:
329,192,120976,128,0,121024:0:0:0:0:
36,192,120976,128,0,121119:0:0:0:0:
109,192,121071,1,0,0:0:0:0:
475,192,121071,128,0,121119:0:0:0:0:
36,192,121166,1,0,0:0:0:0:
329,192,121166,1,0,0:0:0:0:
256,192,121166,128,0,121309:0:0:0:0:
182,192,121166,128,0,121214:0:0:0:0:
402,192,121261,1,0,0:0:0:0:
109,192,121261,128,0,121404:0:0:0:0:
402,192,121356,1,0,0:0:0:0:
36,192,121356,1,0,0:0:0:0:
475,192,121356,128,0,121498:0:0:0:0:
256,192,121356,128,0,121404:0:0:0:0:
329,192,121451,1,0,0:0:0:0:
182,192,121451,128,0,121593:0:0:0:0:
109,192,121546,1,0,0:0:0:0:
475,192,121546,1,0,0:0:0:0:
256,192,121546,1,0,0:0:0:0:
402,192,121546,128,0,121593:0:0:0:0:
36,192,121546,128,0,121688:0:0:0:0:
182,192,121641,1,0,0:0:0:0:
475,192,121641,128,0,121783:0:0:0:0:
36,192,121736,1,0,0:0:0:0:
402,192,121736,1,0,0:0:0:0:
109,192,121736,128,0,121878:0:0:0:0:
256,192,121736,128,0,121783:0:0:0:0:
182,192,121831,1,0,0:0:0:0:
329,192,121831,128,0,121973:0:0:0:0:
402,192,121926,1,0,0:0:0:0:
475,192,121926,128,0,121973:0:0:0:0:
36,192,121926,128,0,122068:0:0:0:0:
109,192,121926,1,0,0:0:0:0:
182,192,122021,1,0,0:0:0:0:
256,192,122021,128,0,122163:0:0:0:0:
329,192,122021,1,0,0:0:0:0:
109,192,122116,1,0,0:0:0:0:
402,192,122116,128,0,122163:0:0:0:0:
36,192,122116,128,0,122258:0:0:0:0:
475,192,122116,1,0,0:0:0:0:
182,192,122211,128,0,122258:0:0:0:0:
256,192,122211,1,0,0:0:0:0:
36,192,122305,1,0,0:0:0:0:
329,192,122305,1,0,0:0:0:0:
109,192,122305,128,0,122448:0:0:0:0:
475,192,122305,128,0,122353:0:0:0:0:
36,192,122400,1,0,0:0:0:0:
402,192,122400,128,0,122543:0:0:0:0:
182,192,122400,128,0,122448:0:0:0:0:
329,192,122495,1,0,0:0:0:0:
256,192,122495,128,0,122543:0:0:0:0:
109,192,122495,128,0,122638:0:0:0:0:
402,192,122590,1,0,0:0:0:0:
36,192,122590,1,0,0:0:0:0:
475,192,122590,128,0,122638:0:0:0:0:
182,192,122590,128,0,122733:0:0:0:0:
256,192,122685,1,0,0:0:0:0:
329,192,122685,128,0,122828:0:0:0:0:
109,192,122685,128,0,122733:0:0:0:0:
402,192,122780,1,0,0:0:0:0:
475,192,122780,128,0,122828:0:0:0:0:
182,192,122780,128,0,122923:0:0:0:0:
329,192,122875,1,0,0:0:0:0:
36,192,122875,128,0,122923:0:0:0:0:
402,192,122875,1,0,0:0:0:0:
256,192,122875,128,0,123017:0:0:0:0:
182,192,122970,1,0,0:0:0:0:
109,192,122970,128,0,123112:0:0:0:0:
256,192,123065,1,0,0:0:0:0:
402,192,123065,1,0,0:0:0:0:
36,192,123065,1,0,0:0:0:0:
329,192,123065,128,0,123112:0:0:0:0:
475,192,123065,128,0,123207:0:0:0:0:
109,192,123160,1,0,0:0:0:0:
402,192,123160,1,0,0:0:0:0:
182,192,123160,128,0,123207:0:0:0:0:
475,192,123255,1,0,0:0:0:0:
329,192,123255,1,0,0:0:0:0:
256,192,123255,128,0,123397:0:0:0:0:
36,192,123255,128,0,123302:0:0:0:0:
182,192,123350,1,0,0:0:0:0:
402,192,123350,128,0,123397:0:0:0:0:
475,192,123445,1,0,0:0:0:0:
329,192,123445,1,0,0:0:0:0:
256,192,123445,128,0,123540:0:0:0:0:
109,192,123445,128,0,123730:0:0:0:0:
402,192,123540,128,0,123635:0:0:0:0:
256,192,123635,1,0,0:0:0:0:
36,192,123635,128,0,123730:0:0:0:0:
475,192,123635,128,0,123730:0:0:0:0:
329,192,123730,128,0,123824:0:0:0:0:
256,192,123824,1,0,0:0:0:0:
36,192,123824,1,0,0:0:0:0:
475,192,123824,1,0,0:0:0:0:
182,192,123824,128,0,123919:0:0:0:0:
402,192,123824,128,0,124014:0:0:0:0:
109,192,123919,1,0,0:0:0:0:
329,192,123919,128,0,124014:0:0:0:0:
256,192,124014,1,0,0:0:0:0:
475,192,124014,128,0,124109:0:0:0:0:
36,192,124014,128,0,124299:0:0:0:0:
402,192,124109,1,0,0:0:0:0:
182,192,124109,128,0,124204:0:0:0:0:
256,192,124204,1,0,0:0:0:0:
109,192,124204,128,0,124299:0:0:0:0:
475,192,124204,128,0,124489:0:0:0:0:
182,192,124299,1,0,0:0:0:0:
329,192,124299,128,0,124394:0:0:0:0:
36,192,124394,1,0,0:0:0:0:
402,192,124394,128,0,124489:0:0:0:0:
182,192,124394,128,0,124489:0:0:0:0:
329,192,124489,128,0,124584:0:0:0:0:
475,192,124584,1,0,0:0:0:0:
182,192,124584,1,0,0:0:0:0:
36,192,124584,1,0,0:0:0:0:
109,192,124584,128,0,124679:0:0:0:0:
256,192,124584,128,0,124679:0:0:0:0:
182,192,124679,1,0,0:0:0:0:
402,192,124679,128,0,124774:0:0:0:0:
475,192,124774,1,0,0:0:0:0:
36,192,124774,128,0,124869:0:0:0:0:
256,192,124774,128,0,124869:0:0:0:0:
402,192,124869,1,0,0:0:0:0:
329,192,124869,128,0,124964:0:0:0:0:
109,192,124964,1,0,0:0:0:0:
256,192,124964,1,0,0:0:0:0:
475,192,124964,128,0,125059:0:0:0:0:
36,192,124964,128,0,125249:0:0:0:0:
329,192,125059,128,0,125154:0:0:0:0:
182,192,125154,1,0,0:0:0:0:
109,192,125154,128,0,125249:0:0:0:0:
402,192,125154,128,0,125343:0:0:0:0:
329,192,125249,128,0,125343:0:0:0:0:
475,192,125343,1,0,0:0:0:0:
36,192,125343,1,0,0:0:0:0:
182,192,125343,1,0,0:0:0:0:
256,192,125343,128,0,125438:0:0:0:0:
109,192,125343,128,0,125628:0:0:0:0:
182,192,125438,1,0,0:0:0:0:
402,192,125438,128,0,125533:0:0:0:0:
256,192,125533,1,0,0:0:0:0:
36,192,125533,128,0,125628:0:0:0:0:
475,192,125533,128,0,125818:0:0:0:0:
329,192,125628,1,0,0:0:0:0:
182,192,125628,128,0,125723:0:0:0:0:
109,192,125723,1,0,0:0:0:0:
402,192,125723,128,0,125818:0:0:0:0:
36,192,125723,128,0,126008:0:0:0:0:
182,192,125818,1,0,0:0:0:0:
329,192,125818,128,0,125913:0:0:0:0:
475,192,125913,128,0,126008:0:0:0:0:
182,192,125913,1,0,0:0:0:0:
256,192,125913,128,0,126008:0:0:0:0:
329,192,126008,128,0,126103:0:0:0:0:
36,192,126103,1,0,0:0:0:0:
256,192,126103,1,0,0:0:0:0:
402,192,126103,1,0,0:0:0:0:
109,192,126103,128,0,126198:0:0:0:0:
475,192,126103,128,0,126388:0:0:0:0:
329,192,126198,1,0,0:0:0:0:
182,192,126198,128,0,126293:0:0:0:0:
36,192,126293,1,0,0:0:0:0:
402,192,126293,128,0,126388:0:0:0:0:
256,192,126293,128,0,126388:0:0:0:0:
329,192,126388,1,0,0:0:0:0:
109,192,126388,128,0,126483:0:0:0:0:
475,192,126483,1,0,0:0:0:0:
36,192,126483,1,0,0:0:0:0:
182,192,126483,1,0,0:0:0:0:
256,192,126483,128,0,126625:0:0:0:0:
402,192,126483,128,0,126530:0:0:0:0:
329,192,126578,1,0,0:0:0:0:
109,192,126578,128,0,126720:0:0:0:0:
36,192,126673,1,0,0:0:0:0:
256,192,126673,1,0,0:0:0:0:
475,192,126673,128,0,126815:0:0:0:0:
182,192,126673,128,0,126720:0:0:0:0:
402,192,126768,1,0,0:0:0:0:
329,192,126768,128,0,126910:0:0:0:0:
475,192,126862,1,0,0:0:0:0:
256,192,126862,1,0,0:0:0:0:
182,192,126862,128,0,126910:0:0:0:0:
36,192,126862,128,0,127005:0:0:0:0:
329,192,126957,1,0,0:0:0:0:
475,192,126957,128,0,127100:0:0:0:0:
109,192,126957,128,0,127005:0:0:0:0:
402,192,127052,1,0,0:0:0:0:
36,192,127052,1,0,0:0:0:0:
256,192,127052,128,0,127100:0:0:0:0:
182,192,127052,128,0,127195:0:0:0:0:
109,192,127147,1,0,0:0:0:0:
329,192,127147,128,0,127290:0:0:0:0:
256,192,127242,1,0,0:0:0:0:
402,192,127242,1,0,0:0:0:0:
475,192,127242,128,0,127290:0:0:0:0:
36,192,127242,128,0,127385:0:0:0:0:
109,192,127337,1,0,0:0:0:0:
182,192,127337,128,0,127480:0:0:0:0:
329,192,127337,128,0,127385:0:0:0:0:
36,192,127432,1,0,0:0:0:0:
329,192,127432,1,0,0:0:0:0:
256,192,127432,128,0,127574:0:0:0:0:
475,192,127432,128,0,127480:0:0:0:0:
402,192,127527,1,0,0:0:0:0:
109,192,127527,128,0,127669:0:0:0:0:
475,192,127622,1,0,0:0:0:0:
36,192,127622,1,0,0:0:0:0:
256,192,127622,128,0,127669:0:0:0:0:
182,192,127622,128,0,127764:0:0:0:0:
109,192,127717,1,0,0:0:0:0:
475,192,127717,128,0,127764:0:0:0:0:
329,192,127717,128,0,127859:0:0:0:0:
182,192,127812,1,0,0:0:0:0:
36,192,127812,1,0,0:0:0:0:
256,192,127812,128,0,127859:0:0:0:0:
402,192,127812,128,0,127954:0:0:0:0:
475,192,127907,1,0,0:0:0:0:
109,192,127907,128,0,128049:0:0:0:0:
329,192,127907,128,0,127954:0:0:0:0:
36,192,128002,1,0,0:0:0:0:
402,192,128002,1,0,0:0:0:0:
256,192,128002,128,0,128049:0:0:0:0:
182,192,128002,128,0,128144:0:0:0:0:
109,192,128097,1,0,0:0:0:0:
329,192,128097,128,0,128239:0:0:0:0:
402,192,128192,1,0,0:0:0:0:
36,192,128192,128,0,128239:0:0:0:0:
256,192,128192,128,0,128334:0:0:0:0:
329,192,128287,1,0,0:0:0:0:
182,192,128287,128,0,128429:0:0:0:0:
256,192,128381,1,0,0:0:0:0:
402,192,128381,1,0,0:0:0:0:
109,192,128381,1,0,0:0:0:0:
36,192,128381,128,0,128429:0:0:0:0:
475,192,128381,128,0,128524:0:0:0:0:
182,192,128476,1,0,0:0:0:0:
329,192,128476,128,0,128524:0:0:0:0:
402,192,128476,128,0,128619:0:0:0:0:
36,192,128571,1,0,0:0:0:0:
109,192,128571,128,0,128714:0:0:0:0:
256,192,128571,128,0,128619:0:0:0:0:
475,192,128666,1,0,0:0:0:0:
182,192,128666,1,0,0:0:0:0:
329,192,128666,128,0,128714:0:0:0:0:
402,192,128666,128,0,128809:0:0:0:0:
475,192,128761,1,0,0:0:0:0:
109,192,128761,1,0,0:0:0:0:
36,192,128761,128,0,128809:0:0:0:0:
256,192,128761,128,0,128904:0:0:0:0:
182,192,128856,1,0,0:0:0:0:
329,192,128856,128,0,128999:0:0:0:0:
402,192,128951,1,0,0:0:0:0:
182,192,128951,1,0,0:0:0:0:
36,192,128951,1,0,0:0:0:0:
109,192,128951,128,0,128999:0:0:0:0:
475,192,128951,128,0,129093:0:0:0:0:
329,192,129046,1,0,0:0:0:0:
256,192,129046,128,0,129188:0:0:0:0:
36,192,129141,1,0,0:0:0:0:
475,192,129141,1,0,0:0:0:0:
109,192,129141,1,0,0:0:0:0:
402,192,129141,128,0,129188:0:0:0:0:
182,192,129141,128,0,129283:0:0:0:0:
109,192,129236,1,0,0:0:0:0:
36,192,129236,1,0,0:0:0:0:
329,192,129236,128,0,129378:0:0:0:0:
256,192,129236,128,0,129283:0:0:0:0:
402,192,129331,1,0,0:0:0:0:
182,192,129331,128,0,129378:0:0:0:0:
475,192,129331,128,0,129473:0:0:0:0:
329,192,129426,1,0,0:0:0:0:
256,192,129426,128,0,129473:0:0:0:0:
109,192,129426,128,0,129521:0:0:0:0:
182,192,129521,1,0,0:0:0:0:
402,192,129521,1,0,0:0:0:0:
36,192,129521,128,0,129616:0:0:0:0:
475,192,129521,128,0,129806:0:0:0:0:
329,192,129521,1,0,0:0:0:0:
256,192,129521,1,0,0:0:0:0:
109,192,129616,128,0,129711:0:0:0:0:
402,192,129711,1,0,0:0:0:0:
329,192,129711,128,0,129806:0:0:0:0:
36,192,129711,128,0,129806:0:0:0:0:
182,192,129806,128,0,129900:0:0:0:0:
402,192,129900,1,0,0:0:0:0:
256,192,129900,1,0,0:0:0:0:
36,192,129900,1,0,0:0:0:0:
475,192,129900,128,0,129995:0:0:0:0:
109,192,129900,128,0,130090:0:0:0:0:
182,192,129995,1,0,0:0:0:0:
329,192,129995,128,0,130090:0:0:0:0:
256,192,130090,1,0,0:0:0:0:
36,192,130090,128,0,130185:0:0:0:0:
475,192,130090,128,0,130375:0:0:0:0:
329,192,130185,1,0,0:0:0:0:
109,192,130185,128,0,130280:0:0:0:0:
36,192,130280,1,0,0:0:0:0:
402,192,130280,128,0,130375:0:0:0:0:
256,192,130280,128,0,130565:0:0:0:0:
329,192,130375,1,0,0:0:0:0:
182,192,130375,128,0,130470:0:0:0:0:
475,192,130470,1,0,0:0:0:0:
329,192,130470,128,0,130565:0:0:0:0:
109,192,130470,128,0,130660:0:0:0:0:
182,192,130565,128,0,130660:0:0:0:0:
36,192,130660,1,0,0:0:0:0:
256,192,130660,1,0,0:0:0:0:
329,192,130660,1,0,0:0:0:0:
402,192,130660,128,0,130755:0:0:0:0:
475,192,130660,128,0,130945:0:0:0:0:
182,192,130755,1,0,0:0:0:0:
109,192,130755,128,0,130850:0:0:0:0:
36,192,130850,1,0,0:0:0:0:
329,192,130850,128,0,130945:0:0:0:0:
402,192,130850,128,0,131135:0:0:0:0:
109,192,130945,1,0,0:0:0:0:
182,192,130945,128,0,131040:0:0:0:0:
329,192,131040,1,0,0:0:0:0:
475,192,131040,128,0,131135:0:0:0:0:
256,192,131040,1,0,0:0:0:0:
36,192,131040,128,0,131325:0:0:0:0:
182,192,131135,128,0,131230:0:0:0:0:
402,192,131230,1,0,0:0:0:0:
109,192,131230,128,0,131325:0:0:0:0:
329,192,131230,128,0,131325:0:0:0:0:
182,192,131325,128,0,131419:0:0:0:0:
36,192,131419,1,0,0:0:0:0:
329,192,131419,1,0,0:0:0:0:
402,192,131419,1,0,0:0:0:0:
475,192,131419,128,0,131514:0:0:0:0:
256,192,131419,128,0,131609:0:0:0:0:
182,192,131514,1,0,0:0:0:0:
109,192,131514,128,0,131609:0:0:0:0:
402,192,131609,1,0,0:0:0:0:
329,192,131609,128,0,131704:0:0:0:0:
36,192,131609,128,0,131894:0:0:0:0:
182,192,131704,1,0,0:0:0:0:
256,192,131704,128,0,131799:0:0:0:0:
329,192,131799,1,0,0:0:0:0:
109,192,131799,128,0,131894:0:0:0:0:
475,192,131799,128,0,132084:0:0:0:0:
256,192,131894,1,0,0:0:0:0:
182,192,131894,128,0,131989:0:0:0:0:
36,192,131989,1,0,0:0:0:0:
402,192,131989,128,0,132084:0:0:0:0:
256,192,131989,128,0,132084:0:0:0:0:
109,192,132084,128,0,132179:0:0:0:0:
36,192,132179,1,0,0:0:0:0:
256,192,132179,1,0,0:0:0:0:
402,192,132179,1,0,0:0:0:0:
329,192,132179,128,0,132274:0:0:0:0:
475,192,132179,128,0,132464:0:0:0:0:
109,192,132274,1,0,0:0:0:0:
182,192,132274,128,0,132369:0:0:0:0:
256,192,132369,1,0,0:0:0:0:
402,192,132369,128,0,132464:0:0:0:0:
36,192,132369,128,0,132464:0:0:0:0:
109,192,132464,1,0,0:0:0:0:
329,192,132464,128,0,132559:0:0:0:0:
36,192,132559,1,0,0:0:0:0:
475,192,132559,1,0,0:0:0:0:
182,192,132559,1,0,0:0:0:0:
256,192,132559,128,0,132701:0:0:0:0:
402,192,132559,128,0,132606:0:0:0:0:
329,192,132654,1,0,0:0:0:0:
109,192,132654,128,0,132796:0:0:0:0:
36,192,132749,1,0,0:0:0:0:
256,192,132749,1,0,0:0:0:0:
475,192,132749,128,0,132796:0:0:0:0:
402,192,132749,128,0,132891:0:0:0:0:
109,192,132844,1,0,0:0:0:0:
182,192,132844,128,0,132986:0:0:0:0:
36,192,132938,1,0,0:0:0:0:
256,192,132938,1,0,0:0:0:0:
402,192,132938,1,0,0:0:0:0:
329,192,132938,128,0,132986:0:0:0:0:
475,192,132938,128,0,133081:0:0:0:0:
402,192,133033,1,0,0:0:0:0:
182,192,133033,128,0,133176:0:0:0:0:
109,192,133033,128,0,133081:0:0:0:0:
475,192,133128,1,0,0:0:0:0:
36,192,133128,1,0,0:0:0:0:
329,192,133128,128,0,133176:0:0:0:0:
256,192,133128,128,0,133271:0:0:0:0:
182,192,133223,1,0,0:0:0:0:
109,192,133223,128,0,133271:0:0:0:0:
402,192,133223,128,0,133366:0:0:0:0:
475,192,133318,1,0,0:0:0:0:
256,192,133318,1,0,0:0:0:0:
36,192,133318,128,0,133461:0:0:0:0:
329,192,133318,128,0,133366:0:0:0:0:
402,192,133413,1,0,0:0:0:0:
182,192,133413,128,0,133461:0:0:0:0:
109,192,133413,128,0,133556:0:0:0:0:
36,192,133508,1,0,0:0:0:0:
256,192,133508,1,0,0:0:0:0:
329,192,133508,128,0,133650:0:0:0:0:
402,192,133508,128,0,133556:0:0:0:0:
109,192,133603,1,0,0:0:0:0:
182,192,133603,128,0,133745:0:0:0:0:
36,192,133698,1,0,0:0:0:0:
329,192,133698,1,0,0:0:0:0:
256,192,133698,1,0,0:0:0:0:
402,192,133698,128,0,133745:0:0:0:0:
475,192,133698,128,0,133840:0:0:0:0:
182,192,133793,1,0,0:0:0:0:
329,192,133793,128,0,133840:0:0:0:0:
109,192,133793,128,0,133935:0:0:0:0:
475,192,133888,1,0,0:0:0:0:
36,192,133888,1,0,0:0:0:0:
402,192,133888,128,0,133935:0:0:0:0:
256,192,133888,128,0,134030:0:0:0:0:
109,192,133983,1,0,0:0:0:0:
182,192,133983,128,0,134030:0:0:0:0:
329,192,133983,128,0,134125:0:0:0:0:
256,192,134078,1,0,0:0:0:0:
402,192,134078,1,0,0:0:0:0:
475,192,134078,128,0,134125:0:0:0:0:
36,192,134078,128,0,134220:0:0:0:0:
329,192,134173,1,0,0:0:0:0:
182,192,134173,128,0,134315:0:0:0:0:
36,192,134268,1,0,0:0:0:0:
256,192,134268,1,0,0:0:0:0:
109,192,134268,128,0,134315:0:0:0:0:
475,192,134268,128,0,134410:0:0:0:0:
182,192,134363,1,0,0:0:0:0:
402,192,134363,128,0,134505:0:0:0:0:
329,192,134457,1,0,0:0:0:0:
475,192,134457,1,0,0:0:0:0:
109,192,134457,1,0,0:0:0:0:
256,192,134457,128,0,134505:0:0:0:0:
36,192,134457,128,0,134600:0:0:0:0:
109,192,134552,1,0,0:0:0:0:
182,192,134552,128,0,134600:0:0:0:0:
402,192,134552,128,0,134695:0:0:0:0:
36,192,134647,1,0,0:0:0:0:
475,192,134647,1,0,0:0:0:0:
256,192,134647,128,0,134695:0:0:0:0:
329,192,134647,128,0,134790:0:0:0:0:
402,192,134742,1,0,0:0:0:0:
182,192,134742,128,0,134790:0:0:0:0:
109,192,134742,128,0,134885:0:0:0:0:
329,192,134837,1,0,0:0:0:0:
36,192,134837,1,0,0:0:0:0:
475,192,134837,128,0,134885:0:0:0:0:
256,192,134837,128,0,134980:0:0:0:0:
109,192,134932,1,0,0:0:0:0:
182,192,134932,128,0,134980:0:0:0:0:
402,192,134932,128,0,135075:0:0:0:0:
475,192,135027,1,0,0:0:0:0:
36,192,135027,128,0,135075:0:0:0:0:
109,192,135027,1,0,0:0:0:0:
256,192,135027,128,0,135169:0:0:0:0:
402,192,135122,1,0,0:0:0:0:
182,192,135122,128,0,135264:0:0:0:0:
109,192,135217,1,0,0:0:0:0:
256,192,135217,1,0,0:0:0:0:
36,192,135217,1,0,0:0:0:0:
475,192,135217,128,0,135359:0:0:0:0:
329,192,135217,128,0,135264:0:0:0:0:
402,192,135312,1,0,0:0:0:0:
109,192,135312,128,0,135454:0:0:0:0:
182,192,135312,128,0,135359:0:0:0:0:
475,192,135407,1,0,0:0:0:0:
36,192,135407,1,0,0:0:0:0:
329,192,135407,128,0,135454:0:0:0:0:
256,192,135407,128,0,135549:0:0:0:0:
109,192,135502,1,0,0:0:0:0:
182,192,135502,128,0,135597:0:0:0:0:
402,192,135502,128,0,135549:0:0:0:0:
36,192,135597,1,0,0:0:0:0:
256,192,135597,1,0,0:0:0:0:
329,192,135597,128,0,135692:0:0:0:0:
475,192,135597,128,0,135882:0:0:0:0:
109,192,135692,128,0,135787:0:0:0:0:
256,192,135787,1,0,0:0:0:0:
402,192,135787,128,0,135882:0:0:0:0:
36,192,135787,128,0,136071:0:0:0:0:
182,192,135882,128,0,135976:0:0:0:0:
329,192,135976,1,0,0:0:0:0:
256,192,135976,1,0,0:0:0:0:
475,192,135976,128,0,136071:0:0:0:0:
109,192,135976,128,0,136166:0:0:0:0:
256,192,136071,1,0,0:0:0:0:
182,192,136071,128,0,136166:0:0:0:0:
329,192,136166,1,0,0:0:0:0:
36,192,136166,128,0,136261:0:0:0:0:
402,192,136166,128,0,136451:0:0:0:0:
182,192,136261,1,0,0:0:0:0:
109,192,136261,128,0,136356:0:0:0:0:
256,192,136356,1,0,0:0:0:0:
475,192,136356,128,0,136451:0:0:0:0:
36,192,136356,128,0,136641:0:0:0:0:
329,192,136451,1,0,0:0:0:0:
182,192,136451,128,0,136546:0:0:0:0:
402,192,136546,1,0,0:0:0:0:
109,192,136546,128,0,136641:0:0:0:0:
329,192,136546,128,0,136641:0:0:0:0:
182,192,136641,128,0,136736:0:0:0:0:
36,192,136736,1,0,0:0:0:0:
329,192,136736,1,0,0:0:0:0:
475,192,136736,1,0,0:0:0:0:
402,192,136736,128,0,136831:0:0:0:0:
256,192,136736,128,0,137021:0:0:0:0:
475,192,136831,1,0,0:0:0:0:
109,192,136831,128,0,136926:0:0:0:0:
402,192,136926,1,0,0:0:0:0:
329,192,136926,128,0,137021:0:0:0:0:
36,192,136926,128,0,137021:0:0:0:0:
182,192,137021,1,0,0:0:0:0:
475,192,137021,128,0,137116:0:0:0:0:
36,192,137116,1,0,0:0:0:0:
109,192,137116,1,0,0:0:0:0:
256,192,137116,128,0,137211:0:0:0:0:
402,192,137116,128,0,137401:0:0:0:0:
182,192,137211,128,0,137306:0:0:0:0:
256,192,137306,1,0,0:0:0:0:
329,192,137306,128,0,137401:0:0:0:0:
109,192,137306,128,0,137495:0:0:0:0:
182,192,137401,128,0,137495:0:0:0:0:
256,192,137495,1,0,0:0:0:0:
402,192,137495,1,0,0:0:0:0:
329,192,137495,1,0,0:0:0:0:
36,192,137495,128,0,137590:0:0:0:0:
475,192,137495,128,0,137685:0:0:0:0:
402,192,137590,1,0,0:0:0:0:
109,192,137590,128,0,137685:0:0:0:0:
36,192,137685,1,0,0:0:0:0:
329,192,137685,128,0,137780:0:0:0:0:
256,192,137685,128,0,137875:0:0:0:0:
475,192,137780,1,0,0:0:0:0:
182,192,137780,128,0,137875:0:0:0:0:
36,192,137875,1,0,0:0:0:0:
402,192,137875,128,0,137970:0:0:0:0:
109,192,137875,128,0,138065:0:0:0:0:
182,192,137970,1,0,0:0:0:0:
256,192,137970,128,0,138065:0:0:0:0:
182,192,138065,1,0,0:0:0:0:
329,192,138065,128,0,138160:0:0:0:0:
36,192,138065,128,0,138160:0:0:0:0:
109,192,138160,128,0,138255:0:0:0:0:
36,192,138255,1,0,0:0:0:0:
256,192,138255,1,0,0:0:0:0:
329,192,138255,1,0,0:0:0:0:
475,192,138255,128,0,138350:0:0:0:0:
402,192,138255,128,0,138445:0:0:0:0:
109,192,138350,1,0,0:0:0:0:
182,192,138350,128,0,138445:0:0:0:0:
256,192,138445,1,0,0:0:0:0:
329,192,138445,128,0,138540:0:0:0:0:
36,192,138445,1,0,0:0:0:0:
475,192,138445,128,0,138540:0:0:0:0:
182,192,138540,1,0,0:0:0:0:
402,192,138540,128,0,138635:0:0:0:0:
475,192,138635,1,0,0:0:0:0:
329,192,138635,1,0,0:0:0:0:
109,192,138635,1,0,0:0:0:0:
256,192,138635,1,0,0:0:0:0:
36,192,138635,1,0,0:0:0:0:
182,192,138730,1,0,0:0:0:0:
36,192,138825,1,0,0:0:0:0:
402,192,138825,1,0,0:0:0:0:
475,192,138825,1,0,0:0:0:0:
329,192,138825,1,0,0:0:0:0:
109,192,138920,1,0,0:0:0:0:
256,192,138920,1,0,0:0:0:0:
36,192,139014,1,0,0:0:0:0:
329,192,139014,1,0,0:0:0:0:
475,192,139014,1,0,0:0:0:0:
182,192,139014,1,0,0:0:0:0:
402,192,139014,1,0,0:0:0:0:
256,192,139109,1,0,0:0:0:0:
475,192,139109,1,0,0:0:0:0:
109,192,139109,1,0,0:0:0:0:
36,192,139204,1,0,0:0:0:0:
402,192,139204,1,0,0:0:0:0:
182,192,139204,1,0,0:0:0:0:
329,192,139204,1,0,0:0:0:0:
109,192,139299,1,0,0:0:0:0:
256,192,139299,1,0,0:0:0:0:
475,192,139299,1,0,0:0:0:0:
36,192,139394,1,0,0:0:0:0:
329,192,139394,1,0,0:0:0:0:
402,192,139394,1,0,0:0:0:0:
182,192,139394,1,0,0:0:0:0:
109,192,139489,1,0,0:0:0:0:
256,192,139489,1,0,0:0:0:0:
475,192,139489,1,0,0:0:0:0:
329,192,139584,1,0,0:0:0:0:
402,192,139584,1,0,0:0:0:0:
256,192,139584,1,0,0:0:0:0:
36,192,139584,1,0,0:0:0:0:
475,192,139679,1,0,0:0:0:0:
182,192,139679,1,0,0:0:0:0:
36,192,139774,1,0,0:0:0:0:
402,192,139774,1,0,0:0:0:0:
109,192,139774,1,0,0:0:0:0:
329,192,139774,1,0,0:0:0:0:
256,192,139774,1,0,0:0:0:0:
109,192,139869,1,0,0:0:0:0:
182,192,139869,1,0,0:0:0:0:
36,192,139964,1,0,0:0:0:0:
329,192,139964,1,0,0:0:0:0:
256,192,139964,1,0,0:0:0:0:
402,192,139964,1,0,0:0:0:0:
182,192,140059,1,0,0:0:0:0:
475,192,140059,1,0,0:0:0:0:
109,192,140059,1,0,0:0:0:0:
256,192,140154,1,0,0:0:0:0:
402,192,140154,1,0,0:0:0:0:
36,192,140154,128,0,140249:0:0:0:0:
329,192,140154,128,0,140344:0:0:0:0:
109,192,140154,1,0,0:0:0:0:
182,192,140249,128,0,140344:0:0:0:0:
475,192,140249,1,0,0:0:0:0:
402,192,140344,128,0,140439:0:0:0:0:
109,192,140344,1,0,0:0:0:0:
36,192,140439,1,0,0:0:0:0:
475,192,140439,1,0,0:0:0:0:
329,192,140439,1,0,0:0:0:0:
256,192,140439,128,0,140533:0:0:0:0:
182,192,140439,128,0,140628:0:0:0:0:
109,192,140533,128,0,140628:0:0:0:0:
402,192,140533,1,0,0:0:0:0:
329,192,140628,128,0,140723:0:0:0:0:
475,192,140628,1,0,0:0:0:0:
182,192,140723,1,0,0:0:0:0:
36,192,140723,1,0,0:0:0:0:
109,192,140723,1,0,0:0:0:0:
402,192,140723,128,0,140818:0:0:0:0:
256,192,140723,128,0,140913:0:0:0:0:
475,192,140818,128,0,140913:0:0:0:0:
109,192,140818,1,0,0:0:0:0:
329,192,140913,128,0,141008:0:0:0:0:
36,192,140913,1,0,0:0:0:0:
475,192,141008,1,0,0:0:0:0:
402,192,141008,1,0,0:0:0:0:
182,192,141008,128,0,141103:0:0:0:0:
109,192,141008,128,0,141198:0:0:0:0:
256,192,141008,1,0,0:0:0:0:
329,192,141103,1,0,0:0:0:0:
256,192,141103,128,0,141198:0:0:0:0:
36,192,141103,1,0,0:0:0:0:
182,192,141198,1,0,0:0:0:0:
402,192,141198,128,0,141293:0:0:0:0:
475,192,141198,1,0,0:0:0:0:
329,192,141293,1,0,0:0:0:0:
109,192,141293,1,0,0:0:0:0:
256,192,141293,1,0,0:0:0:0:
36,192,141483,1,0,0:0:0:0:
475,192,141483,1,0,0:0:0:0:
109,192,141530,1,0,0:0:0:0:
402,192,141530,1,0,0:0:0:0:
182,192,141578,1,0,0:0:0:0:
329,192,141578,1,0,0:0:0:0:
475,192,141673,1,0,0:0:0:0:
109,192,141673,1,0,0:0:0:0:
36,192,141673,128,0,141768:0:0:0:0:
402,192,141673,128,0,141958:0:0:0:0:
256,192,141673,1,0,0:0:0:0:
182,192,141768,128,0,141863:0:0:0:0:
36,192,141863,128,0,141958:0:0:0:0:
329,192,141863,1,0,0:0:0:0:
475,192,141863,128,0,141958:0:0:0:0:
182,192,141958,128,0,142052:0:0:0:0:
475,192,142052,1,0,0:0:0:0:
109,192,142052,1,0,0:0:0:0:
36,192,142052,128,0,142147:0:0:0:0:
329,192,142052,128,0,142242:0:0:0:0:
256,192,142052,1,0,0:0:0:0:
182,192,142147,128,0,142242:0:0:0:0:
256,192,142147,1,0,0:0:0:0:
109,192,142242,1,0,0:0:0:0:
475,192,142242,1,0,0:0:0:0:
36,192,142242,128,0,142337:0:0:0:0:
402,192,142242,128,0,142432:0:0:0:0:
329,192,142337,1,0,0:0:0:0:
182,192,142337,128,0,142432:0:0:0:0:
475,192,142432,1,0,0:0:0:0:
36,192,142432,128,0,142527:0:0:0:0:
109,192,142432,128,0,142717:0:0:0:0:
329,192,142527,1,0,0:0:0:0:
182,192,142527,128,0,142622:0:0:0:0:
475,192,142622,1,0,0:0:0:0:
36,192,142622,128,0,142717:0:0:0:0:
329,192,142622,128,0,142717:0:0:0:0:
182,192,142717,128,0,142812:0:0:0:0:
329,192,142812,1,0,0:0:0:0:
256,192,142812,1,0,0:0:0:0:
402,192,142812,1,0,0:0:0:0:
36,192,142812,128,0,142907:0:0:0:0:
475,192,142812,128,0,143097:0:0:0:0:
256,192,142907,1,0,0:0:0:0:
182,192,142907,128,0,143002:0:0:0:0:
402,192,143002,1,0,0:0:0:0:
36,192,143002,128,0,143097:0:0:0:0:
329,192,143002,128,0,143287:0:0:0:0:
256,192,143097,1,0,0:0:0:0:
182,192,143097,128,0,143192:0:0:0:0:
475,192,143192,1,0,0:0:0:0:
36,192,143192,1,0,0:0:0:0:
109,192,143192,128,0,143287:0:0:0:0:
402,192,143192,128,0,143477:0:0:0:0:
256,192,143287,128,0,143382:0:0:0:0:
475,192,143382,1,0,0:0:0:0:
109,192,143382,128,0,143477:0:0:0:0:
36,192,143382,128,0,143666:0:0:0:0:
256,192,143477,128,0,143571:0:0:0:0:
475,192,143571,1,0,0:0:0:0:
402,192,143571,1,0,0:0:0:0:
182,192,143571,1,0,0:0:0:0:
109,192,143571,128,0,143666:0:0:0:0:
329,192,143571,128,0,143761:0:0:0:0:
182,192,143666,1,0,0:0:0:0:
256,192,143666,128,0,143761:0:0:0:0:
109,192,143761,128,0,143856:0:0:0:0:
36,192,143761,1,0,0:0:0:0:
475,192,143761,1,0,0:0:0:0:
402,192,143761,128,0,144046:0:0:0:0:
329,192,143856,1,0,0:0:0:0:
256,192,143856,128,0,143951:0:0:0:0:
475,192,143951,1,0,0:0:0:0:
109,192,143951,128,0,144046:0:0:0:0:
182,192,143951,128,0,144236:0:0:0:0:
329,192,144046,1,0,0:0:0:0:
256,192,144046,128,0,144141:0:0:0:0:
329,192,144141,1,0,0:0:0:0:
109,192,144141,128,0,144236:0:0:0:0:
475,192,144141,128,0,144236:0:0:0:0:
256,192,144236,128,0,144331:0:0:0:0:
329,192,144331,1,0,0:0:0:0:
182,192,144331,1,0,0:0:0:0:
36,192,144331,1,0,0:0:0:0:
109,192,144331,128,0,144426:0:0:0:0:
475,192,144331,128,0,144616:0:0:0:0:
36,192,144426,1,0,0:0:0:0:
256,192,144426,128,0,144521:0:0:0:0:
182,192,144521,1,0,0:0:0:0:
329,192,144521,1,0,0:0:0:0:
109,192,144521,128,0,144616:0:0:0:0:
402,192,144521,128,0,144616:0:0:0:0:
256,192,144616,128,0,144711:0:0:0:0:
475,192,144711,1,0,0:0:0:0:
36,192,144711,1,0,0:0:0:0:
402,192,144711,1,0,0:0:0:0:
182,192,144711,128,0,144853:0:0:0:0:
329,192,144711,128,0,144758:0:0:0:0:
109,192,144806,128,0,144853:0:0:0:0:
475,192,144901,1,0,0:0:0:0:
402,192,144901,1,0,0:0:0:0:
329,192,144901,128,0,145043:0:0:0:0:
182,192,144901,128,0,144948:0:0:0:0:
109,192,144996,128,0,145138:0:0:0:0:
475,192,145090,1,0,0:0:0:0:
329,192,145090,1,0,0:0:0:0:
36,192,145090,1,0,0:0:0:0:
402,192,145090,1,0,0:0:0:0:
256,192,145090,128,0,145233:0:0:0:0:
182,192,145090,128,0,145138:0:0:0:0:
475,192,145185,128,0,145328:0:0:0:0:
109,192,145185,128,0,145233:0:0:0:0:
329,192,145280,1,0,0:0:0:0:
36,192,145280,1,0,0:0:0:0:
402,192,145280,128,0,145328:0:0:0:0:
182,192,145280,128,0,145423:0:0:0:0:
256,192,145375,1,0,0:0:0:0:
109,192,145375,128,0,145518:0:0:0:0:
475,192,145375,128,0,145423:0:0:0:0:
182,192,145470,1,0,0:0:0:0:
36,192,145470,1,0,0:0:0:0:
329,192,145470,128,0,145518:0:0:0:0:
402,192,145470,128,0,145613:0:0:0:0:
475,192,145565,1,0,0:0:0:0:
256,192,145565,128,0,145708:0:0:0:0:
109,192,145565,128,0,145613:0:0:0:0:
402,192,145660,1,0,0:0:0:0:
475,192,145660,1,0,0:0:0:0:
329,192,145660,128,0,145708:0:0:0:0:
182,192,145660,128,0,145803:0:0:0:0:
36,192,145755,1,0,0:0:0:0:
109,192,145755,128,0,145897:0:0:0:0:
182,192,145850,1,0,0:0:0:0:
475,192,145850,1,0,0:0:0:0:
329,192,145850,128,0,145992:0:0:0:0:
402,192,145850,1,0,0:0:0:0:
256,192,145850,128,0,145897:0:0:0:0:
36,192,145945,1,0,0:0:0:0:
475,192,145945,128,0,146087:0:0:0:0:
109,192,145945,128,0,145992:0:0:0:0:
402,192,146040,1,0,0:0:0:0:
329,192,146040,1,0,0:0:0:0:
182,192,146040,128,0,146182:0:0:0:0:
256,192,146040,128,0,146087:0:0:0:0:
109,192,146135,1,0,0:0:0:0:
36,192,146135,128,0,146182:0:0:0:0:
475,192,146135,128,0,146277:0:0:0:0:
182,192,146230,1,0,0:0:0:0:
402,192,146230,1,0,0:0:0:0:
329,192,146230,128,0,146277:0:0:0:0:
256,192,146230,128,0,146372:0:0:0:0:
475,192,146325,1,0,0:0:0:0:
109,192,146325,128,0,146467:0:0:0:0:
182,192,146420,1,0,0:0:0:0:
36,192,146420,1,0,0:0:0:0:
329,192,146420,128,0,146467:0:0:0:0:
402,192,146420,128,0,146562:0:0:0:0:
109,192,146515,1,0,0:0:0:0:
256,192,146515,128,0,146657:0:0:0:0:
402,192,146609,1,0,0:0:0:0:
36,192,146609,1,0,0:0:0:0:
475,192,146609,128,0,146657:0:0:0:0:
182,192,146609,1,0,0:0:0:0:
329,192,146609,128,0,146752:0:0:0:0:
256,192,146704,128,0,146752:0:0:0:0:
402,192,146704,1,0,0:0:0:0:
109,192,146704,128,0,146847:0:0:0:0:
182,192,146799,1,0,0:0:0:0:
36,192,146799,1,0,0:0:0:0:
329,192,146799,128,0,146847:0:0:0:0:
475,192,146799,128,0,146942:0:0:0:0:
109,192,146894,1,0,0:0:0:0:
256,192,146894,128,0,146942:0:0:0:0:
402,192,146894,128,0,147037:0:0:0:0:
475,192,146989,1,0,0:0:0:0:
329,192,146989,1,0,0:0:0:0:
182,192,146989,128,0,147037:0:0:0:0:
36,192,146989,128,0,147132:0:0:0:0:
402,192,147084,128,0,147227:0:0:0:0:
109,192,147084,1,0,0:0:0:0:
256,192,147179,1,0,0:0:0:0:
109,192,147179,1,0,0:0:0:0:
182,192,147179,128,0,147322:0:0:0:0:
475,192,147179,128,0,147227:0:0:0:0:
402,192,147274,1,0,0:0:0:0:
329,192,147274,128,0,147416:0:0:0:0:
182,192,147369,1,0,0:0:0:0:
475,192,147369,1,0,0:0:0:0:
109,192,147369,1,0,0:0:0:0:
256,192,147369,128,0,147416:0:0:0:0:
36,192,147369,128,0,147511:0:0:0:0:
329,192,147464,1,0,0:0:0:0:
402,192,147464,128,0,147606:0:0:0:0:
109,192,147464,128,0,147511:0:0:0:0:
256,192,147559,1,0,0:0:0:0:
36,192,147559,1,0,0:0:0:0:
475,192,147559,128,0,147606:0:0:0:0:
182,192,147559,128,0,147701:0:0:0:0:
109,192,147654,1,0,0:0:0:0:
329,192,147654,128,0,147701:0:0:0:0:
402,192,147654,128,0,147749:0:0:0:0:
475,192,147749,1,0,0:0:0:0:
182,192,147749,1,0,0:0:0:0:
36,192,147749,128,0,147844:0:0:0:0:
256,192,147749,128,0,148034:0:0:0:0:
109,192,147844,128,0,147939:0:0:0:0:
475,192,147939,1,0,0:0:0:0:
36,192,147939,128,0,148034:0:0:0:0:
402,192,147939,128,0,148223:0:0:0:0:
182,192,148034,128,0,148128:0:0:0:0:
329,192,148128,1,0,0:0:0:0:
109,192,148128,1,0,0:0:0:0:
256,192,148128,1,0,0:0:0:0:
36,192,148128,128,0,148223:0:0:0:0:
475,192,148128,128,0,148413:0:0:0:0:
256,192,148223,1,0,0:0:0:0:
182,192,148223,128,0,148318:0:0:0:0:
109,192,148318,1,0,0:0:0:0:
36,192,148318,128,0,148413:0:0:0:0:
402,192,148318,128,0,148508:0:0:0:0:
329,192,148413,1,0,0:0:0:0:
182,192,148413,128,0,148508:0:0:0:0:
475,192,148508,1,0,0:0:0:0:
256,192,148508,1,0,0:0:0:0:
36,192,148508,128,0,148603:0:0:0:0:
109,192,148508,128,0,148793:0:0:0:0:
402,192,148603,1,0,0:0:0:0:
182,192,148603,128,0,148698:0:0:0:0:
402,192,148698,1,0,0:0:0:0:
36,192,148698,128,0,148793:0:0:0:0:
475,192,148698,128,0,148793:0:0:0:0:
182,192,148793,128,0,148888:0:0:0:0:
475,192,148888,1,0,0:0:0:0:
256,192,148888,1,0,0:0:0:0:
402,192,148888,1,0,0:0:0:0:
36,192,148888,128,0,148983:0:0:0:0:
329,192,148888,128,0,149173:0:0:0:0:
475,192,148983,1,0,0:0:0:0:
182,192,148983,128,0,149078:0:0:0:0:
402,192,149078,1,0,0:0:0:0:
109,192,149078,1,0,0:0:0:0:
36,192,149078,128,0,149173:0:0:0:0:
256,192,149078,128,0,149268:0:0:0:0:
182,192,149173,128,0,149268:0:0:0:0:
475,192,149268,1,0,0:0:0:0:
329,192,149268,1,0,0:0:0:0:
109,192,149268,128,0,149363:0:0:0:0:
36,192,149268,128,0,149553:0:0:0:0:
256,192,149363,128,0,149458:0:0:0:0:
475,192,149458,1,0,0:0:0:0:
109,192,149458,128,0,149553:0:0:0:0:
402,192,149458,128,0,149742:0:0:0:0:
256,192,149553,128,0,149647:0:0:0:0:
329,192,149647,1,0,0:0:0:0:
36,192,149647,1,0,0:0:0:0:
182,192,149647,1,0,0:0:0:0:
109,192,149647,128,0,149742:0:0:0:0:
475,192,149647,128,0,149932:0:0:0:0:
182,192,149742,1,0,0:0:0:0:
256,192,149742,128,0,149837:0:0:0:0:
36,192,149837,1,0,0:0:0:0:
109,192,149837,128,0,149932:0:0:0:0:
402,192,149837,128,0,150122:0:0:0:0:
329,192,149932,1,0,0:0:0:0:
256,192,149932,128,0,150027:0:0:0:0:
475,192,150027,1,0,0:0:0:0:
109,192,150027,128,0,150122:0:0:0:0:
36,192,150027,128,0,150312:0:0:0:0:
329,192,150122,1,0,0:0:0:0:
256,192,150122,128,0,150217:0:0:0:0:
329,192,150217,1,0,0:0:0:0:
109,192,150217,128,0,150312:0:0:0:0:
475,192,150217,128,0,150312:0:0:0:0:
256,192,150312,128,0,150407:0:0:0:0:
475,192,150407,1,0,0:0:0:0:
402,192,150407,1,0,0:0:0:0:
182,192,150407,1,0,0:0:0:0:
109,192,150407,128,0,150502:0:0:0:0:
329,192,150407,128,0,150692:0:0:0:0:
36,192,150502,1,0,0:0:0:0:
256,192,150502,128,0,150597:0:0:0:0:
402,192,150597,1,0,0:0:0:0:
475,192,150597,1,0,0:0:0:0:
109,192,150597,128,0,150692:0:0:0:0:
182,192,150597,128,0,150692:0:0:0:0:
36,192,150692,1,0,0:0:0:0:
256,192,150692,128,0,150787:0:0:0:0:
475,192,150787,1,0,0:0:0:0:
402,192,150787,1,0,0:0:0:0:
182,192,150787,128,0,150882:0:0:0:0:
329,192,150787,128,0,151072:0:0:0:0:
109,192,150882,128,0,150977:0:0:0:0:
475,192,150977,1,0,0:0:0:0:
182,192,150977,128,0,151072:0:0:0:0:
36,192,150977,128,0,151261:0:0:0:0:
109,192,151072,128,0,151166:0:0:0:0:
329,192,151166,1,0,0:0:0:0:
256,192,151166,1,0,0:0:0:0:
402,192,151166,1,0,0:0:0:0:
182,192,151166,128,0,151261:0:0:0:0:
475,192,151166,128,0,151451:0:0:0:0:
329,192,151261,1,0,0:0:0:0:
109,192,151261,128,0,151356:0:0:0:0:
36,192,151356,1,0,0:0:0:0:
182,192,151356,128,0,151451:0:0:0:0:
402,192,151356,128,0,151641:0:0:0:0:
256,192,151451,1,0,0:0:0:0:
109,192,151451,128,0,151546:0:0:0:0:
475,192,151546,1,0,0:0:0:0:
182,192,151546,128,0,151641:0:0:0:0:
36,192,151546,128,0,151831:0:0:0:0:
256,192,151641,1,0,0:0:0:0:
109,192,151641,128,0,151736:0:0:0:0:
256,192,151736,1,0,0:0:0:0:
182,192,151736,128,0,151831:0:0:0:0:
475,192,151736,128,0,151831:0:0:0:0:
109,192,151831,128,0,151926:0:0:0:0:
329,192,151926,1,0,0:0:0:0:
256,192,151926,1,0,0:0:0:0:
402,192,151926,1,0,0:0:0:0:
182,192,151926,128,0,152021:0:0:0:0:
475,192,151926,128,0,152211:0:0:0:0:
36,192,152021,1,0,0:0:0:0:
109,192,152021,128,0,152116:0:0:0:0:
402,192,152116,1,0,0:0:0:0:
329,192,152116,1,0,0:0:0:0:
256,192,152116,1,0,0:0:0:0:
182,192,152116,128,0,152211:0:0:0:0:
109,192,152211,128,0,152306:0:0:0:0:
182,192,152306,1,0,0:0:0:0:
475,192,152306,1,0,0:0:0:0:
329,192,152306,1,0,0:0:0:0:
256,192,152306,128,0,152448:0:0:0:0:
402,192,152306,128,0,152353:0:0:0:0:
109,192,152401,1,0,0:0:0:0:
36,192,152401,128,0,152543:0:0:0:0:
475,192,152496,1,0,0:0:0:0:
402,192,152496,1,0,0:0:0:0:
182,192,152496,128,0,152638:0:0:0:0:
329,192,152496,128,0,152543:0:0:0:0:
256,192,152591,128,0,152638:0:0:0:0:
109,192,152591,128,0,152733:0:0:0:0:
182,192,152686,1,0,0:0:0:0:
475,192,152686,1,0,0:0:0:0:
36,192,152686,1,0,0:0:0:0:
402,192,152686,128,0,152733:0:0:0:0:
329,192,152686,128,0,152828:0:0:0:0:
109,192,152780,1,0,0:0:0:0:
256,192,152780,128,0,152923:0:0:0:0:
475,192,152780,128,0,152828:0:0:0:0:
182,192,152875,1,0,0:0:0:0:
329,192,152875,1,0,0:0:0:0:
36,192,152875,128,0,153018:0:0:0:0:
402,192,152875,128,0,152923:0:0:0:0:
256,192,152970,1,0,0:0:0:0:
109,192,152970,128,0,153113:0:0:0:0:
475,192,152970,128,0,153018:0:0:0:0:
36,192,153065,1,0,0:0:0:0:
329,192,153065,128,0,153208:0:0:0:0:
182,192,153065,1,0,0:0:0:0:
402,192,153065,128,0,153113:0:0:0:0:
475,192,153160,1,0,0:0:0:0:
256,192,153160,128,0,153303:0:0:0:0:
109,192,153160,128,0,153208:0:0:0:0:
182,192,153255,1,0,0:0:0:0:
475,192,153255,1,0,0:0:0:0:
329,192,153255,1,0,0:0:0:0:
402,192,153255,128,0,153398:0:0:0:0:
36,192,153255,128,0,153303:0:0:0:0:
256,192,153350,128,0,153398:0:0:0:0:
109,192,153350,128,0,153492:0:0:0:0:
329,192,153445,1,0,0:0:0:0:
36,192,153445,1,0,0:0:0:0:
402,192,153445,1,0,0:0:0:0:
182,192,153445,128,0,153540:0:0:0:0:
475,192,153445,128,0,153492:0:0:0:0:
109,192,153540,1,0,0:0:0:0:
256,192,153540,1,0,0:0:0:0:
36,192,153587,1,0,0:0:0:0:
402,192,153587,1,0,0:0:0:0:
329,192,153635,128,0,153825:0:0:0:0:
475,192,153635,128,0,153777:0:0:0:0:
256,192,153635,1,0,0:0:0:0:
182,192,153635,128,0,153682:0:0:0:0:
36,192,153730,128,0,153825:0:0:0:0:
109,192,153730,1,0,0:0:0:0:
182,192,153825,1,0,0:0:0:0:
402,192,153825,1,0,0:0:0:0:
475,192,153825,128,0,153920:0:0:0:0:
256,192,153825,128,0,154110:0:0:0:0:
329,192,153920,128,0,154015:0:0:0:0:
182,192,154015,1,0,0:0:0:0:
475,192,154015,128,0,154110:0:0:0:0:
109,192,154015,128,0,154110:0:0:0:0:
329,192,154110,128,0,154205:0:0:0:0:
182,192,154205,1,0,0:0:0:0:
402,192,154205,1,0,0:0:0:0:
109,192,154205,1,0,0:0:0:0:
475,192,154205,128,0,154299:0:0:0:0:
36,192,154205,128,0,154489:0:0:0:0:
256,192,154205,1,0,0:0:0:0:
182,192,154299,1,0,0:0:0:0:
329,192,154299,128,0,154394:0:0:0:0:
402,192,154394,1,0,0:0:0:0:
475,192,154394,128,0,154489:0:0:0:0:
109,192,154394,128,0,154679:0:0:0:0:
256,192,154489,1,0,0:0:0:0:
329,192,154489,128,0,154584:0:0:0:0:
36,192,154584,1,0,0:0:0:0:
475,192,154584,128,0,154679:0:0:0:0:
402,192,154584,128,0,154869:0:0:0:0:
256,192,154679,1,0,0:0:0:0:
329,192,154679,128,0,154774:0:0:0:0:
256,192,154774,1,0,0:0:0:0:
475,192,154774,128,0,154869:0:0:0:0:
109,192,154774,128,0,154869:0:0:0:0:
329,192,154869,128,0,154964:0:0:0:0:
182,192,154964,1,0,0:0:0:0:
256,192,154964,1,0,0:0:0:0:
109,192,154964,1,0,0:0:0:0:
475,192,154964,128,0,155059:0:0:0:0:
36,192,154964,128,0,155249:0:0:0:0:
402,192,155059,1,0,0:0:0:0:
329,192,155059,128,0,155154:0:0:0:0:
109,192,155154,1,0,0:0:0:0:
475,192,155154,128,0,155249:0:0:0:0:
256,192,155154,128,0,155344:0:0:0:0:
182,192,155249,1,0,0:0:0:0:
329,192,155249,128,0,155344:0:0:0:0:
109,192,155344,1,0,0:0:0:0:
402,192,155344,128,0,155439:0:0:0:0:
36,192,155344,128,0,155629:0:0:0:0:
256,192,155439,128,0,155534:0:0:0:0:
182,192,155534,1,0,0:0:0:0:
402,192,155534,128,0,155629:0:0:0:0:
109,192,155534,128,0,155818:0:0:0:0:
256,192,155629,128,0,155724:0:0:0:0:
36,192,155724,1,0,0:0:0:0:
475,192,155724,1,0,0:0:0:0:
329,192,155724,1,0,0:0:0:0:
402,192,155724,128,0,155818:0:0:0:0:
182,192,155724,128,0,155913:0:0:0:0:
329,192,155818,1,0,0:0:0:0:
256,192,155818,128,0,155913:0:0:0:0:
475,192,155913,1,0,0:0:0:0:
402,192,155913,128,0,156008:0:0:0:0:
109,192,155913,128,0,156198:0:0:0:0:
182,192,156008,1,0,0:0:0:0:
256,192,156008,128,0,156103:0:0:0:0:
36,192,156103,1,0,0:0:0:0:
402,192,156103,128,0,156198:0:0:0:0:
475,192,156103,128,0,156388:0:0:0:0:
182,192,156198,1,0,0:0:0:0:
256,192,156198,128,0,156293:0:0:0:0:
182,192,156293,1,0,0:0:0:0:
402,192,156293,128,0,156388:0:0:0:0:
109,192,156293,128,0,156578:0:0:0:0:
256,192,156388,128,0,156483:0:0:0:0:
36,192,156483,1,0,0:0:0:0:
329,192,156483,1,0,0:0:0:0:
475,192,156483,1,0,0:0:0:0:
402,192,156483,128,0,156578:0:0:0:0:
182,192,156483,128,0,156768:0:0:0:0:
475,192,156578,1,0,0:0:0:0:
256,192,156578,128,0,156673:0:0:0:0:
329,192,156673,1,0,0:0:0:0:
402,192,156673,128,0,156768:0:0:0:0:
109,192,156673,128,0,156768:0:0:0:0:
475,192,156768,1,0,0:0:0:0:
256,192,156768,128,0,156863:0:0:0:0:
329,192,156863,1,0,0:0:0:0:
36,192,156863,1,0,0:0:0:0:
109,192,156863,1,0,0:0:0:0:
182,192,156863,128,0,157005:0:0:0:0:
402,192,156863,128,0,156910:0:0:0:0:
475,192,156958,1,0,0:0:0:0:
256,192,156958,128,0,157005:0:0:0:0:
329,192,157053,1,0,0:0:0:0:
182,192,157053,1,0,0:0:0:0:
402,192,157053,128,0,157195:0:0:0:0:
36,192,157053,128,0,157100:0:0:0:0:
475,192,157148,128,0,157195:0:0:0:0:
109,192,157148,128,0,157290:0:0:0:0:
36,192,157243,1,0,0:0:0:0:
256,192,157243,1,0,0:0:0:0:
402,192,157243,1,0,0:0:0:0:
182,192,157243,128,0,157290:0:0:0:0:
329,192,157243,128,0,157385:0:0:0:0:
109,192,157337,1,0,0:0:0:0:
475,192,157337,128,0,157480:0:0:0:0:
256,192,157337,128,0,157385:0:0:0:0:
329,192,157432,1,0,0:0:0:0:
182,192,157432,128,0,157575:0:0:0:0:
36,192,157432,128,0,157480:0:0:0:0:
256,192,157527,1,0,0:0:0:0:
402,192,157527,128,0,157670:0:0:0:0:
109,192,157527,128,0,157575:0:0:0:0:
475,192,157622,1,0,0:0:0:0:
182,192,157622,1,0,0:0:0:0:
36,192,157622,128,0,157765:0:0:0:0:
329,192,157622,128,0,157670:0:0:0:0:
256,192,157717,1,0,0:0:0:0:
109,192,157717,128,0,157860:0:0:0:0:
402,192,157717,128,0,157765:0:0:0:0:
36,192,157812,1,0,0:0:0:0:
475,192,157812,1,0,0:0:0:0:
256,192,157812,128,0,157955:0:0:0:0:
329,192,157812,128,0,157860:0:0:0:0:
109,192,157907,1,0,0:0:0:0:
402,192,157907,128,0,158049:0:0:0:0:
329,192,158002,1,0,0:0:0:0:
256,192,158002,1,0,0:0:0:0:
475,192,158002,1,0,0:0:0:0:
36,192,158002,128,0,158144:0:0:0:0:
182,192,158002,128,0,158049:0:0:0:0:
109,192,158097,128,0,158144:0:0:0:0:
475,192,158097,1,0,0:0:0:0:
402,192,158097,128,0,158239:0:0:0:0:
256,192,158192,1,0,0:0:0:0:
36,192,158192,1,0,0:0:0:0:
329,192,158192,128,0,158334:0:0:0:0:
182,192,158192,128,0,158239:0:0:0:0:
402,192,158287,1,0,0:0:0:0:
475,192,158287,128,0,158429:0:0:0:0:
109,192,158287,128,0,158334:0:0:0:0:
329,192,158382,1,0,0:0:0:0:
36,192,158382,1,0,0:0:0:0:
256,192,158382,128,0,158429:0:0:0:0:
182,192,158382,128,0,158524:0:0:0:0:
475,192,158477,1,0,0:0:0:0:
402,192,158477,128,0,158619:0:0:0:0:
36,192,158572,1,0,0:0:0:0:
182,192,158572,1,0,0:0:0:0:
109,192,158572,128,0,158714:0:0:0:0:
329,192,158572,128,0,158619:0:0:0:0:
402,192,158667,1,0,0:0:0:0:
256,192,158667,128,0,158809:0:0:0:0:
182,192,158762,1,0,0:0:0:0:
109,192,158762,1,0,0:0:0:0:
475,192,158762,1,0,0:0:0:0:
329,192,158762,128,0,158904:0:0:0:0:
36,192,158762,128,0,158809:0:0:0:0:
182,192,158856,1,0,0:0:0:0:
256,192,158856,128,0,158904:0:0:0:0:
402,192,158856,128,0,158999:0:0:0:0:
329,192,158951,1,0,0:0:0:0:
475,192,158951,1,0,0:0:0:0:
109,192,158951,128,0,159094:0:0:0:0:
36,192,158951,128,0,158999:0:0:0:0:
256,192,159046,128,0,159189:0:0:0:0:
182,192,159046,1,0,0:0:0:0:
402,192,159046,128,0,159094:0:0:0:0:
329,192,159141,1,0,0:0:0:0:
475,192,159141,128,0,159284:0:0:0:0:
109,192,159141,128,0,159189:0:0:0:0:
256,192,159236,1,0,0:0:0:0:
36,192,159236,128,0,159284:0:0:0:0:
402,192,159236,128,0,159379:0:0:0:0:
109,192,159331,1,0,0:0:0:0:
36,192,159331,1,0,0:0:0:0:
182,192,159331,128,0,159474:0:0:0:0:
329,192,159331,128,0,159379:0:0:0:0:
402,192,159426,1,0,0:0:0:0:
475,192,159426,128,0,159568:0:0:0:0:
182,192,159521,1,0,0:0:0:0:
36,192,159521,1,0,0:0:0:0:
256,192,159521,128,0,159568:0:0:0:0:
329,192,159521,1,0,0:0:0:0:
109,192,159521,128,0,159663:0:0:0:0:
475,192,159616,1,0,0:0:0:0:
182,192,159616,128,0,159758:0:0:0:0:
402,192,159616,128,0,159663:0:0:0:0:
329,192,159711,1,0,0:0:0:0:
109,192,159711,128,0,159758:0:0:0:0:
36,192,159711,128,0,159853:0:0:0:0:
402,192,159806,128,0,159901:0:0:0:0:
256,192,159806,128,0,159853:0:0:0:0:
182,192,159901,1,0,0:0:0:0:
329,192,159901,1,0,0:0:0:0:
109,192,159901,1,0,0:0:0:0:
475,192,159901,128,0,159996:0:0:0:0:
36,192,159901,128,0,160186:0:0:0:0:
402,192,159996,128,0,160091:0:0:0:0:
109,192,160091,1,0,0:0:0:0:
475,192,160091,128,0,160186:0:0:0:0:
182,192,160091,128,0,160186:0:0:0:0:
329,192,160186,128,0,160281:0:0:0:0:
182,192,160281,1,0,0:0:0:0:
36,192,160281,1,0,0:0:0:0:
402,192,160281,1,0,0:0:0:0:
109,192,160281,1,0,0:0:0:0:
475,192,160281,128,0,160375:0:0:0:0:
256,192,160281,128,0,160470:0:0:0:0:
182,192,160375,1,0,0:0:0:0:
329,192,160375,128,0,160470:0:0:0:0:
402,192,160470,1,0,0:0:0:0:
475,192,160470,128,0,160565:0:0:0:0:
109,192,160470,128,0,160755:0:0:0:0:
256,192,160565,1,0,0:0:0:0:
329,192,160565,128,0,160660:0:0:0:0:
36,192,160660,1,0,0:0:0:0:
475,192,160660,128,0,160755:0:0:0:0:
182,192,160660,128,0,160945:0:0:0:0:
256,192,160755,1,0,0:0:0:0:
329,192,160755,128,0,160850:0:0:0:0:
256,192,160850,1,0,0:0:0:0:
475,192,160850,128,0,160945:0:0:0:0:
109,192,160850,128,0,161135:0:0:0:0:
329,192,160945,128,0,161040:0:0:0:0:
182,192,161040,1,0,0:0:0:0:
36,192,161040,1,0,0:0:0:0:
256,192,161040,1,0,0:0:0:0:
475,192,161040,128,0,161135:0:0:0:0:
402,192,161040,128,0,161325:0:0:0:0:
36,192,161135,1,0,0:0:0:0:
329,192,161135,128,0,161230:0:0:0:0:
109,192,161230,1,0,0:0:0:0:
475,192,161230,128,0,161325:0:0:0:0:
256,192,161230,128,0,161325:0:0:0:0:
182,192,161325,1,0,0:0:0:0:
329,192,161325,128,0,161420:0:0:0:0:
256,192,161420,1,0,0:0:0:0:
109,192,161420,1,0,0:0:0:0:
475,192,161420,1,0,0:0:0:0:
402,192,161420,128,0,161515:0:0:0:0:
36,192,161420,128,0,161705:0:0:0:0:
329,192,161515,128,0,161610:0:0:0:0:
109,192,161610,1,0,0:0:0:0:
402,192,161610,128,0,161705:0:0:0:0:
182,192,161610,128,0,161705:0:0:0:0:
256,192,161705,128,0,161800:0:0:0:0:
182,192,161800,1,0,0:0:0:0:
329,192,161800,1,0,0:0:0:0:
109,192,161800,1,0,0:0:0:0:
402,192,161800,128,0,161894:0:0:0:0:
36,192,161800,128,0,162084:0:0:0:0:
109,192,161894,1,0,0:0:0:0:
256,192,161894,128,0,161989:0:0:0:0:
182,192,161989,1,0,0:0:0:0:
402,192,161989,128,0,162084:0:0:0:0:
475,192,161989,128,0,162274:0:0:0:0:
109,192,162084,1,0,0:0:0:0:
256,192,162084,128,0,162179:0:0:0:0:
36,192,162179,1,0,0:0:0:0:
402,192,162179,128,0,162274:0:0:0:0:
329,192,162179,128,0,162464:0:0:0:0:
182,192,162274,1,0,0:0:0:0:
256,192,162274,128,0,162369:0:0:0:0:
182,192,162369,1,0,0:0:0:0:
402,192,162369,128,0,162464:0:0:0:0:
109,192,162369,128,0,162654:0:0:0:0:
256,192,162464,128,0,162559:0:0:0:0:
182,192,162559,1,0,0:0:0:0:
475,192,162559,1,0,0:0:0:0:
329,192,162559,1,0,0:0:0:0:
402,192,162559,128,0,162654:0:0:0:0:
36,192,162559,128,0,162844:0:0:0:0:
329,192,162654,1,0,0:0:0:0:
256,192,162654,128,0,162749:0:0:0:0:
109,192,162749,1,0,0:0:0:0:
475,192,162749,1,0,0:0:0:0:
402,192,162749,128,0,162844:0:0:0:0:
182,192,162749,128,0,162844:0:0:0:0:
256,192,162844,128,0,162939:0:0:0:0:
329,192,162939,1,0,0:0:0:0:
182,192,162939,1,0,0:0:0:0:
36,192,162939,1,0,0:0:0:0:
475,192,162939,128,0,163081:0:0:0:0:
109,192,162939,128,0,162986:0:0:0:0:
256,192,163034,1,0,0:0:0:0:
402,192,163034,128,0,163176:0:0:0:0:
109,192,163129,1,0,0:0:0:0:
182,192,163129,128,0,163271:0:0:0:0:
329,192,163129,128,0,163176:0:0:0:0:
402,192,163224,1,0,0:0:0:0:
475,192,163224,128,0,163366:0:0:0:0:
329,192,163319,1,0,0:0:0:0:
182,192,163319,1,0,0:0:0:0:
36,192,163319,1,0,0:0:0:0:
256,192,163319,128,0,163366:0:0:0:0:
109,192,163319,128,0,163461:0:0:0:0:
475,192,163413,1,0,0:0:0:0:
36,192,163413,128,0,163556:0:0:0:0:
402,192,163413,128,0,163461:0:0:0:0:
109,192,163508,1,0,0:0:0:0:
256,192,163508,1,0,0:0:0:0:
329,192,163508,128,0,163651:0:0:0:0:
182,192,163508,128,0,163556:0:0:0:0:
402,192,163603,128,0,163746:0:0:0:0:
36,192,163603,128,0,163651:0:0:0:0:
329,192,163698,1,0,0:0:0:0:
256,192,163698,1,0,0:0:0:0:
109,192,163698,128,0,163841:0:0:0:0:
475,192,163698,128,0,163746:0:0:0:0:
182,192,163793,1,0,0:0:0:0:
402,192,163793,128,0,163936:0:0:0:0:
329,192,163888,1,0,0:0:0:0:
109,192,163888,1,0,0:0:0:0:
182,192,163888,128,0,164031:0:0:0:0:
36,192,163888,128,0,163936:0:0:0:0:
256,192,163983,1,0,0:0:0:0:
402,192,163983,128,0,164125:0:0:0:0:
475,192,164078,1,0,0:0:0:0:
36,192,164078,1,0,0:0:0:0:
182,192,164078,1,0,0:0:0:0:
109,192,164078,128,0,164220:0:0:0:0:
329,192,164078,128,0,164125:0:0:0:0:
36,192,164173,1,0,0:0:0:0:
402,192,164173,128,0,164315:0:0:0:0:
256,192,164173,128,0,164220:0:0:0:0:
329,192,164268,1,0,0:0:0:0:
109,192,164268,1,0,0:0:0:0:
182,192,164268,128,0,164315:0:0:0:0:
475,192,164268,128,0,164410:0:0:0:0:
402,192,164363,1,0,0:0:0:0:
256,192,164363,128,0,164458:0:0:0:0:
36,192,164363,128,0,164410:0:0:0:0:
329,192,164458,1,0,0:0:0:0:
109,192,164458,1,0,0:0:0:0:
475,192,164458,1,0,0:0:0:0:
182,192,164458,128,0,164553:0:0:0:0:
36,192,164553,1,0,0:0:0:0:
402,192,164553,128,0,164648:0:0:0:0:
256,192,164648,1,0,0:0:0:0:
475,192,164648,1,0,0:0:0:0:
329,192,164648,128,0,164743:0:0:0:0:
402,192,164743,1,0,0:0:0:0:
182,192,164743,128,0,164838:0:0:0:0:
36,192,164838,1,0,0:0:0:0:
109,192,164838,1,0,0:0:0:0:
329,192,164838,128,0,164932:0:0:0:0:
182,192,164885,1,0,0:0:0:0:
475,192,164885,1,0,0:0:0:0:
402,192,164932,1,0,0:0:0:0:
256,192,164932,1,0,0:0:0:0:
36,192,164932,128,0,165027:0:0:0:0:
109,192,164980,1,0,0:0:0:0:
475,192,164980,1,0,0:0:0:0:
182,192,165027,1,0,0:0:0:0:
256,192,165027,1,0,0:0:0:0:
329,192,165027,128,0,165122:0:0:0:0:
402,192,165122,1,0,0:0:0:0:
475,192,165122,1,0,0:0:0:0:
256,192,165122,1,0,0:0:0:0:
36,192,165122,1,0,0:0:0:0:
182,192,165122,128,0,165217:0:0:0:0:
109,192,165217,128,0,165312:0:0:0:0:
329,192,165312,1,0,0:0:0:0:
402,192,165312,1,0,0:0:0:0:
475,192,165312,1,0,0:0:0:0:
36,192,165312,1,0,0:0:0:0:
256,192,165312,128,0,165407:0:0:0:0:
109,192,165407,1,0,0:0:0:0:
329,192,165407,1,0,0:0:0:0:
36,192,165407,1,0,0:0:0:0:
402,192,165407,1,0,0:0:0:0:
475,192,165407,128,0,165502:0:0:0:0:
182,192,165502,128,0,165597:0:0:0:0:
256,192,165597,1,0,0:0:0:0:
402,192,165597,1,0,0:0:0:0:
109,192,165597,1,0,0:0:0:0:
329,192,165597,128,0,165692:0:0:0:0:
36,192,165692,128,0,165787:0:0:0:0:
182,192,165787,128,0,165882:0:0:0:0:
109,192,165882,128,0,165977:0:0:0:0:
182,192,165977,1,0,0:0:0:0:
475,192,165977,1,0,0:0:0:0:
36,192,165977,1,0,0:0:0:0:
329,192,165977,128,0,166072:0:0:0:0:
256,192,165977,128,0,166357:0:0:0:0:
109,192,166072,128,0,166167:0:0:0:0:
329,192,166167,1,0,0:0:0:0:
402,192,166167,128,0,166262:0:0:0:0:
475,192,166262,128,0,166357:0:0:0:0:
182,192,166357,128,0,166451:0:0:0:0:
36,192,166357,128,0,166546:0:0:0:0:
402,192,166451,128,0,166546:0:0:0:0:
109,192,166546,1,0,0:0:0:0:
256,192,166546,128,0,166641:0:0:0:0:
329,192,166546,128,0,166736:0:0:0:0:
475,192,166641,128,0,166736:0:0:0:0:
182,192,166736,128,0,166831:0:0:0:0:
36,192,166831,128,0,166926:0:0:0:0:
475,192,166926,1,0,0:0:0:0:
329,192,166926,128,0,167021:0:0:0:0:
256,192,166926,128,0,167116:0:0:0:0:
109,192,167021,128,0,167116:0:0:0:0:
329,192,167116,128,0,167211:0:0:0:0:
36,192,167211,128,0,167306:0:0:0:0:
256,192,167306,1,0,0:0:0:0:
402,192,167306,128,0,167401:0:0:0:0:
182,192,167306,128,0,167496:0:0:0:0:
329,192,167401,128,0,167496:0:0:0:0:
36,192,167496,128,0,167591:0:0:0:0:
182,192,167591,128,0,167686:0:0:0:0:
329,192,167686,1,0,0:0:0:0:
475,192,167686,128,0,167781:0:0:0:0:
109,192,167686,128,0,167876:0:0:0:0:
256,192,167781,128,0,167876:0:0:0:0:
182,192,167876,1,0,0:0:0:0:
402,192,167876,128,0,167970:0:0:0:0:
36,192,167876,128,0,168065:0:0:0:0:
329,192,167970,128,0,168065:0:0:0:0:
475,192,168065,1,0,0:0:0:0:
182,192,168065,128,0,168160:0:0:0:0:
256,192,168160,128,0,168255:0:0:0:0:
36,192,168255,128,0,168350:0:0:0:0:
475,192,168255,128,0,168445:0:0:0:0:
109,192,168350,128,0,168445:0:0:0:0:
329,192,168445,128,0,168540:0:0:0:0:
402,192,168445,1,0,0:0:0:0:
256,192,168445,128,0,168635:0:0:0:0:
36,192,168540,128,0,168635:0:0:0:0:
182,192,168635,128,0,168730:0:0:0:0:
402,192,168635,128,0,168825:0:0:0:0:
109,192,168730,128,0,168825:0:0:0:0:
475,192,168825,1,0,0:0:0:0:
329,192,168825,128,0,168920:0:0:0:0:
256,192,168825,128,0,169015:0:0:0:0:
36,192,168920,128,0,169015:0:0:0:0:
329,192,169015,128,0,169110:0:0:0:0:
109,192,169015,128,0,169395:0:0:0:0:
182,192,169110,128,0,169205:0:0:0:0:
402,192,169205,1,0,0:0:0:0:
475,192,169205,128,0,169300:0:0:0:0:
36,192,169300,128,0,169395:0:0:0:0:
329,192,169395,128,0,169489:0:0:0:0:
182,192,169395,128,0,169584:0:0:0:0:
256,192,169489,128,0,169584:0:0:0:0:
109,192,169584,1,0,0:0:0:0:
475,192,169584,128,0,169679:0:0:0:0:
329,192,169584,128,0,169774:0:0:0:0:
182,192,169679,128,0,169774:0:0:0:0:
402,192,169774,128,0,169869:0:0:0:0:
109,192,169869,128,0,169964:0:0:0:0:
36,192,169964,1,0,0:0:0:0:
256,192,169964,128,0,170059:0:0:0:0:
475,192,169964,128,0,170154:0:0:0:0:
329,192,170059,128,0,170154:0:0:0:0:
109,192,170154,128,0,170249:0:0:0:0:
256,192,170249,128,0,170344:0:0:0:0:
182,192,170344,1,0,0:0:0:0:
36,192,170344,128,0,170439:0:0:0:0:
329,192,170344,128,0,170534:0:0:0:0:
109,192,170439,128,0,170534:0:0:0:0:
402,192,170534,128,0,170629:0:0:0:0:
182,192,170629,128,0,170724:0:0:0:0:
256,192,170724,1,0,0:0:0:0:
475,192,170724,128,0,170819:0:0:0:0:
109,192,170724,128,0,170914:0:0:0:0:
402,192,170819,128,0,170914:0:0:0:0:
36,192,170914,1,0,0:0:0:0:
182,192,170914,128,0,171008:0:0:0:0:
329,192,170914,128,0,171103:0:0:0:0:
256,192,171008,128,0,171103:0:0:0:0:
182,192,171103,1,0,0:0:0:0:
475,192,171103,128,0,171198:0:0:0:0:
36,192,171198,128,0,171293:0:0:0:0:
329,192,171293,128,0,171388:0:0:0:0:
109,192,171293,128,0,171483:0:0:0:0:
402,192,171388,128,0,171483:0:0:0:0:
256,192,171483,1,0,0:0:0:0:
182,192,171483,128,0,171578:0:0:0:0:
475,192,171483,128,0,171673:0:0:0:0:
36,192,171578,128,0,171673:0:0:0:0:
329,192,171673,128,0,171768:0:0:0:0:
402,192,171673,128,0,171863:0:0:0:0:
256,192,171768,128,0,171863:0:0:0:0:
36,192,171863,1,0,0:0:0:0:
182,192,171863,128,0,171958:0:0:0:0:
329,192,171863,128,0,172053:0:0:0:0:
402,192,171958,128,0,172053:0:0:0:0:
256,192,172053,1,0,0:0:0:0:
475,192,172053,1,0,0:0:0:0:
109,192,172053,128,0,172148:0:0:0:0:
36,192,172053,128,0,172433:0:0:0:0:
182,192,172148,128,0,172243:0:0:0:0:
329,192,172243,1,0,0:0:0:0:
402,192,172243,128,0,172338:0:0:0:0:
475,192,172338,128,0,172433:0:0:0:0:
256,192,172433,128,0,172527:0:0:0:0:
109,192,172433,128,0,172622:0:0:0:0:
402,192,172527,128,0,172622:0:0:0:0:
182,192,172622,1,0,0:0:0:0:
36,192,172622,128,0,172717:0:0:0:0:
329,192,172622,128,0,172812:0:0:0:0:
256,192,172717,128,0,172812:0:0:0:0:
109,192,172812,128,0,172907:0:0:0:0:
475,192,172907,128,0,173002:0:0:0:0:
256,192,173002,1,0,0:0:0:0:
402,192,173002,128,0,173097:0:0:0:0:
182,192,173002,128,0,173192:0:0:0:0:
329,192,173097,128,0,173192:0:0:0:0:
109,192,173192,128,0,173287:0:0:0:0:
256,192,173287,128,0,173382:0:0:0:0:
182,192,173382,1,0,0:0:0:0:
475,192,173382,128,0,173477:0:0:0:0:
329,192,173382,128,0,173572:0:0:0:0:
36,192,173477,128,0,173572:0:0:0:0:
256,192,173572,128,0,173667:0:0:0:0:
182,192,173667,128,0,173762:0:0:0:0:
256,192,173762,1,0,0:0:0:0:
402,192,173762,128,0,173857:0:0:0:0:
109,192,173762,128,0,173952:0:0:0:0:
475,192,173857,128,0,173952:0:0:0:0:
182,192,173952,1,0,0:0:0:0:
36,192,173952,128,0,174046:0:0:0:0:
329,192,173952,128,0,174141:0:0:0:0:
256,192,174046,128,0,174141:0:0:0:0:
109,192,174141,1,0,0:0:0:0:
402,192,174141,128,0,174236:0:0:0:0:
36,192,174236,128,0,174331:0:0:0:0:
182,192,174331,128,0,174426:0:0:0:0:
402,192,174331,128,0,174521:0:0:0:0:
329,192,174426,128,0,174521:0:0:0:0:
256,192,174521,1,0,0:0:0:0:
109,192,174521,128,0,174616:0:0:0:0:
36,192,174521,128,0,174711:0:0:0:0:
402,192,174616,128,0,174711:0:0:0:0:
256,192,174711,128,0,174806:0:0:0:0:
475,192,174711,128,0,174901:0:0:0:0:
109,192,174806,128,0,174901:0:0:0:0:
402,192,174901,1,0,0:0:0:0:
329,192,174901,128,0,174996:0:0:0:0:
182,192,174901,128,0,175091:0:0:0:0:
109,192,174996,128,0,175091:0:0:0:0:
256,192,175091,1,0,0:0:0:0:
36,192,175091,1,0,0:0:0:0:
475,192,175091,128,0,175186:0:0:0:0:
329,192,175091,128,0,175471:0:0:0:0:
402,192,175091,1,0,0:0:0:0:
182,192,175186,128,0,175281:0:0:0:0:
36,192,175281,1,0,0:0:0:0:
402,192,175281,128,0,175376:0:0:0:0:
256,192,175376,128,0,175471:0:0:0:0:
109,192,175471,128,0,175565:0:0:0:0:
475,192,175471,128,0,175660:0:0:0:0:
182,192,175565,128,0,175660:0:0:0:0:
36,192,175660,1,0,0:0:0:0:
402,192,175660,128,0,175755:0:0:0:0:
329,192,175660,128,0,175850:0:0:0:0:
256,192,175755,128,0,175850:0:0:0:0:
36,192,175850,128,0,175945:0:0:0:0:
402,192,175945,128,0,176040:0:0:0:0:
329,192,176040,1,0,0:0:0:0:
109,192,176040,128,0,176135:0:0:0:0:
256,192,176040,128,0,176230:0:0:0:0:
182,192,176135,128,0,176230:0:0:0:0:
402,192,176230,128,0,176325:0:0:0:0:
109,192,176325,128,0,176420:0:0:0:0:
182,192,176420,1,0,0:0:0:0:
256,192,176420,1,0,0:0:0:0:
36,192,176420,1,0,0:0:0:0:
329,192,176420,1,0,0:0:0:0:
475,192,176420,128,0,176515:0:0:0:0:
402,192,176420,128,0,176610:0:0:0:0:
109,192,176515,128,0,176610:0:0:0:0:
329,192,176610,128,0,176705:0:0:0:0:
182,192,176705,128,0,176800:0:0:0:0:
109,192,176800,1,0,0:0:0:0:
36,192,176800,1,0,0:0:0:0:
256,192,176800,1,0,0:0:0:0:
475,192,176800,128,0,176895:0:0:0:0:
402,192,176800,128,0,176990:0:0:0:0:
182,192,176895,128,0,176990:0:0:0:0:
329,192,176990,1,0,0:0:0:0:
36,192,176990,1,0,0:0:0:0:
256,192,176990,1,0,0:0:0:0:
475,192,176990,1,0,0:0:0:0:
109,192,176990,128,0,177084:0:0:0:0:
402,192,177084,128,0,177179:0:0:0:0:
256,192,177179,128,0,177274:0:0:0:0:
36,192,177179,128,0,177369:0:0:0:0:
402,192,177274,128,0,177369:0:0:0:0:
256,192,177369,1,0,0:0:0:0:
109,192,177369,1,0,0:0:0:0:
475,192,177369,1,0,0:0:0:0:
329,192,177369,1,0,0:0:0:0:
182,192,177369,128,0,177559:0:0:0:0:
329,192,177559,128,0,177749:0:0:0:0:
256,192,177749,1,0,0:0:0:0:
109,192,177749,1,0,0:0:0:0:
402,192,177939,128,0,178129:0:0:0:0:
182,192,178129,1,0,0:0:0:0:
329,192,178129,1,0,0:0:0:0:
475,192,178129,1,0,0:0:0:0:
36,192,178129,128,0,178319:0:0:0:0:
256,192,178224,128,0,178414:0:0:0:0:
182,192,178319,1,0,0:0:0:0:
109,192,178319,128,0,178509:0:0:0:0:
402,192,178319,128,0,178414:0:0:0:0:
329,192,178414,128,0,178603:0:0:0:0:
475,192,178509,1,0,0:0:0:0:
36,192,178509,1,0,0:0:0:0:
256,192,178509,1,0,0:0:0:0:
182,192,178509,128,0,178698:0:0:0:0:
402,192,178603,128,0,178793:0:0:0:0:
256,192,178698,1,0,0:0:0:0:
36,192,178698,1,0,0:0:0:0:
329,192,178698,128,0,178888:0:0:0:0:
109,192,178698,128,0,178793:0:0:0:0:
475,192,178793,128,0,178983:0:0:0:0:
36,192,178888,1,0,0:0:0:0:
182,192,178888,1,0,0:0:0:0:
256,192,178888,128,0,179078:0:0:0:0:
402,192,178983,128,0,179173:0:0:0:0:
182,192,179078,1,0,0:0:0:0:
329,192,179078,128,0,179268:0:0:0:0:
36,192,179078,128,0,179173:0:0:0:0:
475,192,179173,128,0,179363:0:0:0:0:
109,192,179268,1,0,0:0:0:0:
256,192,179268,1,0,0:0:0:0:
402,192,179268,1,0,0:0:0:0:
182,192,179268,128,0,179458:0:0:0:0:
329,192,179363,128,0,179553:0:0:0:0:
36,192,179458,1,0,0:0:0:0:
402,192,179458,1,0,0:0:0:0:
109,192,179458,128,0,179648:0:0:0:0:
475,192,179458,128,0,179553:0:0:0:0:
256,192,179553,128,0,179743:0:0:0:0:
36,192,179648,1,0,0:0:0:0:
402,192,179648,1,0,0:0:0:0:
182,192,179648,128,0,179838:0:0:0:0:
329,192,179743,128,0,179933:0:0:0:0:
475,192,179838,1,0,0:0:0:0:
402,192,179838,128,0,180028:0:0:0:0:
109,192,179838,128,0,179933:0:0:0:0:
256,192,179933,128,0,180122:0:0:0:0:
182,192,180028,1,0,0:0:0:0:
475,192,180028,1,0,0:0:0:0:
109,192,180028,1,0,0:0:0:0:
36,192,180028,128,0,180217:0:0:0:0:
329,192,180028,128,0,180122:0:0:0:0:
402,192,180122,128,0,180312:0:0:0:0:
256,192,180217,1,0,0:0:0:0:
329,192,180217,1,0,0:0:0:0:
109,192,180217,128,0,180407:0:0:0:0:
182,192,180217,128,0,180312:0:0:0:0:
475,192,180312,128,0,180502:0:0:0:0:
36,192,180407,1,0,0:0:0:0:
182,192,180407,1,0,0:0:0:0:
256,192,180407,128,0,180597:0:0:0:0:
402,192,180407,128,0,180502:0:0:0:0:
329,192,180502,128,0,180692:0:0:0:0:
475,192,180597,1,0,0:0:0:0:
182,192,180597,128,0,180787:0:0:0:0:
109,192,180597,128,0,180692:0:0:0:0:
402,192,180692,128,0,180882:0:0:0:0:
256,192,180787,1,0,0:0:0:0:
36,192,180787,1,0,0:0:0:0:
329,192,180787,1,0,0:0:0:0:
109,192,180787,128,0,180977:0:0:0:0:
475,192,180787,128,0,180882:0:0:0:0:
182,192,180882,128,0,181072:0:0:0:0:
329,192,180977,1,0,0:0:0:0:
475,192,180977,1,0,0:0:0:0:
402,192,180977,128,0,181167:0:0:0:0:
36,192,180977,128,0,181072:0:0:0:0:
256,192,181072,128,0,181262:0:0:0:0:
475,192,181167,1,0,0:0:0:0:
329,192,181167,1,0,0:0:0:0:
109,192,181167,128,0,181357:0:0:0:0:
182,192,181262,128,0,181452:0:0:0:0:
329,192,181357,1,0,0:0:0:0:
402,192,181357,128,0,181547:0:0:0:0:
36,192,181357,128,0,181452:0:0:0:0:
256,192,181452,128,0,181641:0:0:0:0:
182,192,181547,1,0,0:0:0:0:
475,192,181547,1,0,0:0:0:0:
36,192,181547,1,0,0:0:0:0:
329,192,181547,128,0,181736:0:0:0:0:
109,192,181641,128,0,181831:0:0:0:0:
402,192,181736,1,0,0:0:0:0:
182,192,181736,1,0,0:0:0:0:
256,192,181736,128,0,181926:0:0:0:0:
475,192,181736,128,0,181831:0:0:0:0:
36,192,181831,128,0,182021:0:0:0:0:
182,192,181926,1,0,0:0:0:0:
109,192,181926,1,0,0:0:0:0:
402,192,181926,128,0,182116:0:0:0:0:
256,192,182021,128,0,182211:0:0:0:0:
329,192,182116,1,0,0:0:0:0:
475,192,182116,128,0,182306:0:0:0:0:
182,192,182116,128,0,182211:0:0:0:0:
109,192,182211,128,0,182401:0:0:0:0:
402,192,182306,1,0,0:0:0:0:
36,192,182306,1,0,0:0:0:0:
329,192,182306,1,0,0:0:0:0:
256,192,182306,128,0,182496:0:0:0:0:
182,192,182401,128,0,182591:0:0:0:0:
475,192,182496,1,0,0:0:0:0:
109,192,182496,1,0,0:0:0:0:
402,192,182496,128,0,182686:0:0:0:0:
329,192,182496,128,0,182591:0:0:0:0:
256,192,182591,128,0,182781:0:0:0:0:
475,192,182686,1,0,0:0:0:0:
329,192,182686,1,0,0:0:0:0:
109,192,182686,128,0,182876:0:0:0:0:
182,192,182781,128,0,182971:0:0:0:0:
475,192,182876,1,0,0:0:0:0:
36,192,182876,128,0,183066:0:0:0:0:
402,192,182876,128,0,182971:0:0:0:0:
256,192,182971,128,0,183160:0:0:0:0:
329,192,183066,1,0,0:0:0:0:
182,192,183066,1,0,0:0:0:0:
402,192,183066,1,0,0:0:0:0:
475,192,183066,128,0,183255:0:0:0:0:
109,192,183066,128,0,183160:0:0:0:0:
36,192,183160,128,0,183350:0:0:0:0:
402,192,183255,1,0,0:0:0:0:
182,192,183255,1,0,0:0:0:0:
329,192,183255,128,0,183445:0:0:0:0:
256,192,183255,128,0,183350:0:0:0:0:
109,192,183350,128,0,183540:0:0:0:0:
402,192,183445,1,0,0:0:0:0:
182,192,183445,1,0,0:0:0:0:
256,192,183445,128,0,183635:0:0:0:0:
475,192,183445,128,0,183540:0:0:0:0:
36,192,183540,128,0,183730:0:0:0:0:
475,192,183635,1,0,0:0:0:0:
329,192,183635,128,0,183825:0:0:0:0:
182,192,183635,128,0,183730:0:0:0:0:
109,192,183730,128,0,183920:0:0:0:0:
256,192,183825,1,0,0:0:0:0:
36,192,183825,1,0,0:0:0:0:
475,192,183825,1,0,0:0:0:0:
182,192,183825,128,0,184015:0:0:0:0:
402,192,183825,128,0,183920:0:0:0:0:
329,192,183920,128,0,184110:0:0:0:0:
402,192,184015,1,0,0:0:0:0:
36,192,184015,1,0,0:0:0:0:
475,192,184015,128,0,184205:0:0:0:0:
109,192,184015,128,0,184110:0:0:0:0:
256,192,184110,128,0,184300:0:0:0:0:
329,192,184205,1,0,0:0:0:0:
36,192,184205,1,0,0:0:0:0:
182,192,184205,128,0,184395:0:0:0:0:
475,192,184300,128,0,184490:0:0:0:0:
109,192,184395,1,0,0:0:0:0:
36,192,184395,128,0,184585:0:0:0:0:
256,192,184395,128,0,184490:0:0:0:0:
402,192,184490,128,0,184680:0:0:0:0:
329,192,184585,1,0,0:0:0:0:
475,192,184585,1,0,0:0:0:0:
109,192,184585,1,0,0:0:0:0:
182,192,184585,128,0,184774:0:0:0:0:
36,192,184680,128,0,184869:0:0:0:0:
402,192,184774,1,0,0:0:0:0:
329,192,184774,1,0,0:0:0:0:
256,192,184774,128,0,184964:0:0:0:0:
475,192,184774,128,0,184869:0:0:0:0:
109,192,184869,128,0,185059:0:0:0:0:
329,192,184964,1,0,0:0:0:0:
182,192,184964,1,0,0:0:0:0:
402,192,184964,128,0,185154:0:0:0:0:
475,192,185059,128,0,185249:0:0:0:0:
109,192,185154,1,0,0:0:0:0:
256,192,185154,128,0,185344:0:0:0:0:
36,192,185154,128,0,185249:0:0:0:0:
402,192,185249,128,0,185439:0:0:0:0:
182,192,185344,1,0,0:0:0:0:
329,192,185344,1,0,0:0:0:0:
475,192,185344,1,0,0:0:0:0:
109,192,185344,128,0,185534:0:0:0:0:
36,192,185439,128,0,185629:0:0:0:0:
329,192,185534,1,0,0:0:0:0:
182,192,185534,1,0,0:0:0:0:
402,192,185534,128,0,185724:0:0:0:0:
256,192,185534,128,0,185629:0:0:0:0:
109,192,185629,128,0,185819:0:0:0:0:
182,192,185724,1,0,0:0:0:0:
256,192,185724,1,0,0:0:0:0:
329,192,185724,128,0,185914:0:0:0:0:
475,192,185819,128,0,186009:0:0:0:0:
256,192,185914,1,0,0:0:0:0:
36,192,185914,128,0,186104:0:0:0:0:
109,192,185914,128,0,186009:0:0:0:0:
402,192,186009,128,0,186199:0:0:0:0:
475,192,186104,1,0,0:0:0:0:
109,192,186104,1,0,0:0:0:0:
256,192,186104,1,0,0:0:0:0:
182,192,186104,128,0,186293:0:0:0:0:
329,192,186104,128,0,186199:0:0:0:0:
36,192,186199,128,0,186388:0:0:0:0:
402,192,186293,1,0,0:0:0:0:
329,192,186293,1,0,0:0:0:0:
475,192,186293,128,0,186483:0:0:0:0:
256,192,186293,128,0,186388:0:0:0:0:
109,192,186388,128,0,186578:0:0:0:0:
329,192,186483,1,0,0:0:0:0:
36,192,186483,1,0,0:0:0:0:
182,192,186483,128,0,186673:0:0:0:0:
402,192,186483,128,0,186578:0:0:0:0:
475,192,186578,128,0,186768:0:0:0:0:
256,192,186673,1,0,0:0:0:0:
36,192,186673,128,0,186863:0:0:0:0:
329,192,186673,128,0,186768:0:0:0:0:
402,192,186768,128,0,186958:0:0:0:0:
182,192,186863,1,0,0:0:0:0:
475,192,186863,1,0,0:0:0:0:
329,192,186863,1,0,0:0:0:0:
109,192,186863,128,0,187053:0:0:0:0:
256,192,186863,128,0,186958:0:0:0:0:
36,192,186958,128,0,187148:0:0:0:0:
256,192,187053,1,0,0:0:0:0:
182,192,187053,1,0,0:0:0:0:
329,192,187053,128,0,187243:0:0:0:0:
402,192,187053,128,0,187148:0:0:0:0:
109,192,187148,128,0,187338:0:0:0:0:
182,192,187243,1,0,0:0:0:0:
36,192,187243,1,0,0:0:0:0:
475,192,187243,128,0,187433:0:0:0:0:
329,192,187338,128,0,187528:0:0:0:0:
36,192,187433,1,0,0:0:0:0:
402,192,187433,128,0,187623:0:0:0:0:
109,192,187433,128,0,187528:0:0:0:0:
256,192,187528,128,0,187718:0:0:0:0:
329,192,187623,1,0,0:0:0:0:
475,192,187623,1,0,0:0:0:0:
109,192,187623,1,0,0:0:0:0:
36,192,187623,128,0,187812:0:0:0:0:
182,192,187718,128,0,187907:0:0:0:0:
109,192,187812,1,0,0:0:0:0:
475,192,187812,1,0,0:0:0:0:
402,192,187812,128,0,188002:0:0:0:0:
329,192,187812,128,0,187907:0:0:0:0:
256,192,187907,128,0,188097:0:0:0:0:
475,192,188002,1,0,0:0:0:0:
182,192,188002,1,0,0:0:0:0:
36,192,188002,128,0,188192:0:0:0:0:
329,192,188097,128,0,188287:0:0:0:0:
182,192,188192,1,0,0:0:0:0:
402,192,188192,128,0,188382:0:0:0:0:
109,192,188192,128,0,188287:0:0:0:0:
256,192,188287,128,0,188477:0:0:0:0:
329,192,188382,1,0,0:0:0:0:
475,192,188382,1,0,0:0:0:0:
109,192,188382,1,0,0:0:0:0:
36,192,188382,128,0,188572:0:0:0:0:
182,192,188477,128,0,188667:0:0:0:0:
109,192,188572,1,0,0:0:0:0:
329,192,188572,1,0,0:0:0:0:
402,192,188572,128,0,188762:0:0:0:0:
475,192,188572,128,0,188667:0:0:0:0:
256,192,188667,128,0,188857:0:0:0:0:
475,192,188762,1,0,0:0:0:0:
182,192,188762,1,0,0:0:0:0:
36,192,188762,128,0,188952:0:0:0:0:
329,192,188857,128,0,189047:0:0:0:0:
109,192,188952,1,0,0:0:0:0:
475,192,188952,1,0,0:0:0:0:
402,192,188952,128,0,189142:0:0:0:0:
182,192,188952,128,0,189047:0:0:0:0:
256,192,189047,128,0,189142:0:0:0:0:
36,192,189142,1,0,0:0:0:0:
329,192,189142,1,0,0:0:0:0:
475,192,189142,1,0,0:0:0:0:
182,192,189237,1,0,0:0:0:0:
36,192,189331,1,0,0:0:0:0:
402,192,189331,128,0,189521:0:0:0:0:
109,192,189521,1,0,0:0:0:0:
256,192,189521,128,0,189711:0:0:0:0:
182,192,189711,1,0,0:0:0:0:
36,192,189711,1,0,0:0:0:0:
402,192,189711,128,0,189901:0:0:0:0:
36,192,189901,1,0,0:0:0:0:
182,192,189901,1,0,0:0:0:0:
475,192,190091,128,0,190281:0:0:0:0:
329,192,190281,1,0,0:0:0:0:
256,192,190281,1,0,0:0:0:0:
109,192,190281,1,0,0:0:0:0:
402,192,190281,1,0,0:0:0:0:
182,192,190281,128,0,190471:0:0:0:0:
475,192,190376,1,0,0:0:0:0:
36,192,190376,128,0,190566:0:0:0:0:
402,192,190471,1,0,0:0:0:0:
329,192,190471,1,0,0:0:0:0:
256,192,190471,128,0,190661:0:0:0:0:
109,192,190566,128,0,190756:0:0:0:0:
329,192,190661,1,0,0:0:0:0:
36,192,190661,1,0,0:0:0:0:
402,192,190661,1,0,0:0:0:0:
475,192,190661,128,0,190850:0:0:0:0:
182,192,190756,128,0,190945:0:0:0:0:
109,192,190850,1,0,0:0:0:0:
36,192,190850,1,0,0:0:0:0:
329,192,190850,1,0,0:0:0:0:
402,192,190850,128,0,191040:0:0:0:0:
256,192,190945,128,0,191135:0:0:0:0:
182,192,191040,1,0,0:0:0:0:
109,192,191040,1,0,0:0:0:0:
329,192,191040,128,0,191230:0:0:0:0:
475,192,191135,1,0,0:0:0:0:
36,192,191135,128,0,191325:0:0:0:0:
256,192,191230,1,0,0:0:0:0:
182,192,191230,1,0,0:0:0:0:
109,192,191230,128,0,191420:0:0:0:0:
402,192,191325,128,0,191515:0:0:0:0:
36,192,191420,1,0,0:0:0:0:
475,192,191420,1,0,0:0:0:0:
256,192,191420,1,0,0:0:0:0:
182,192,191420,128,0,191610:0:0:0:0:
329,192,191515,128,0,191705:0:0:0:0:
109,192,191610,1,0,0:0:0:0:
402,192,191610,1,0,0:0:0:0:
475,192,191610,1,0,0:0:0:0:
36,192,191610,128,0,191800:0:0:0:0:
256,192,191705,128,0,191895:0:0:0:0:
329,192,191800,1,0,0:0:0:0:
402,192,191800,1,0,0:0:0:0:
182,192,191800,128,0,191990:0:0:0:0:
36,192,191895,1,0,0:0:0:0:
475,192,191895,128,0,192085:0:0:0:0:
256,192,191990,1,0,0:0:0:0:
329,192,191990,1,0,0:0:0:0:
402,192,191990,128,0,192180:0:0:0:0:
109,192,192085,128,0,192275:0:0:0:0:
475,192,192180,1,0,0:0:0:0:
36,192,192180,1,0,0:0:0:0:
329,192,192180,1,0,0:0:0:0:
256,192,192180,128,0,192369:0:0:0:0:
402,192,192275,1,0,0:0:0:0:
182,192,192275,128,0,192464:0:0:0:0:
329,192,192369,1,0,0:0:0:0:
109,192,192369,1,0,0:0:0:0:
36,192,192369,1,0,0:0:0:0:
475,192,192369,128,0,192559:0:0:0:0:
256,192,192464,128,0,192654:0:0:0:0:
182,192,192559,1,0,0:0:0:0:
109,192,192559,1,0,0:0:0:0:
329,192,192559,128,0,192749:0:0:0:0:
475,192,192654,1,0,0:0:0:0:
36,192,192654,128,0,192844:0:0:0:0:
256,192,192749,1,0,0:0:0:0:
182,192,192749,1,0,0:0:0:0:
109,192,192749,128,0,192939:0:0:0:0:
402,192,192844,128,0,193034:0:0:0:0:
182,192,192939,1,0,0:0:0:0:
36,192,192939,1,0,0:0:0:0:
475,192,192939,1,0,0:0:0:0:
256,192,192939,128,0,193129:0:0:0:0:
109,192,193034,1,0,0:0:0:0:
329,192,193034,128,0,193224:0:0:0:0:
182,192,193129,1,0,0:0:0:0:
402,192,193129,1,0,0:0:0:0:
475,192,193129,1,0,0:0:0:0:
36,192,193129,128,0,193319:0:0:0:0:
256,192,193224,128,0,193414:0:0:0:0:
182,192,193319,1,0,0:0:0:0:
475,192,193319,1,0,0:0:0:0:
329,192,193319,128,0,193509:0:0:0:0:
109,192,193414,1,0,0:0:0:0:
36,192,193414,128,0,193604:0:0:0:0:
256,192,193509,1,0,0:0:0:0:
402,192,193509,1,0,0:0:0:0:
182,192,193509,128,0,193699:0:0:0:0:
109,192,193604,128,0,193794:0:0:0:0:
329,192,193699,1,0,0:0:0:0:
475,192,193699,1,0,0:0:0:0:
36,192,193699,1,0,0:0:0:0:
256,192,193699,128,0,193888:0:0:0:0:
182,192,193794,1,0,0:0:0:0:
402,192,193794,128,0,193983:0:0:0:0:
329,192,193888,1,0,0:0:0:0:
109,192,193888,1,0,0:0:0:0:
36,192,193888,1,0,0:0:0:0:
475,192,193888,128,0,194078:0:0:0:0:
256,192,193983,128,0,194173:0:0:0:0:
329,192,194078,1,0,0:0:0:0:
182,192,194078,1,0,0:0:0:0:
36,192,194078,128,0,194268:0:0:0:0:
402,192,194173,1,0,0:0:0:0:
475,192,194173,128,0,194363:0:0:0:0:
256,192,194268,1,0,0:0:0:0:
329,192,194268,1,0,0:0:0:0:
109,192,194268,128,0,194458:0:0:0:0:
402,192,194363,128,0,194553:0:0:0:0:
182,192,194458,1,0,0:0:0:0:
36,192,194458,1,0,0:0:0:0:
475,192,194458,1,0,0:0:0:0:
256,192,194458,128,0,194648:0:0:0:0:
329,192,194553,128,0,194743:0:0:0:0:
402,192,194648,1,0,0:0:0:0:
36,192,194648,1,0,0:0:0:0:
182,192,194648,1,0,0:0:0:0:
109,192,194648,128,0,194838:0:0:0:0:
256,192,194743,128,0,194933:0:0:0:0:
182,192,194838,1,0,0:0:0:0:
329,192,194838,1,0,0:0:0:0:
475,192,194838,128,0,195028:0:0:0:0:
109,192,194933,1,0,0:0:0:0:
36,192,194933,128,0,195123:0:0:0:0:
256,192,195028,1,0,0:0:0:0:
329,192,195028,1,0,0:0:0:0:
402,192,195028,128,0,195218:0:0:0:0:
109,192,195123,128,0,195313:0:0:0:0:
329,192,195218,1,0,0:0:0:0:
475,192,195218,1,0,0:0:0:0:
36,192,195218,1,0,0:0:0:0:
256,192,195218,128,0,195407:0:0:0:0:
402,192,195313,1,0,0:0:0:0:
182,192,195313,128,0,195502:0:0:0:0:
329,192,195407,1,0,0:0:0:0:
109,192,195407,1,0,0:0:0:0:
36,192,195407,1,0,0:0:0:0:
475,192,195407,128,0,195597:0:0:0:0:
256,192,195502,128,0,195692:0:0:0:0:
329,192,195597,1,0,0:0:0:0:
182,192,195597,1,0,0:0:0:0:
36,192,195597,128,0,195787:0:0:0:0:
402,192,195692,1,0,0:0:0:0:
475,192,195692,128,0,195882:0:0:0:0:
256,192,195787,1,0,0:0:0:0:
182,192,195787,1,0,0:0:0:0:
109,192,195787,128,0,195977:0:0:0:0:
402,192,195882,128,0,196072:0:0:0:0:
182,192,195977,1,0,0:0:0:0:
36,192,195977,1,0,0:0:0:0:
475,192,195977,1,0,0:0:0:0:
256,192,195977,128,0,196167:0:0:0:0:
109,192,196072,1,0,0:0:0:0:
329,192,196072,128,0,196262:0:0:0:0:
36,192,196167,1,0,0:0:0:0:
402,192,196167,1,0,0:0:0:0:
475,192,196167,1,0,0:0:0:0:
182,192,196167,128,0,196357:0:0:0:0:
256,192,196262,128,0,196452:0:0:0:0:
329,192,196357,1,0,0:0:0:0:
402,192,196357,1,0,0:0:0:0:
36,192,196357,128,0,196547:0:0:0:0:
182,192,196452,1,0,0:0:0:0:
475,192,196452,128,0,196642:0:0:0:0:
109,192,196547,1,0,0:0:0:0:
402,192,196547,1,0,0:0:0:0:
329,192,196547,128,0,196737:0:0:0:0:
256,192,196642,128,0,196832:0:0:0:0:
402,192,196737,1,0,0:0:0:0:
36,192,196737,1,0,0:0:0:0:
109,192,196737,1,0,0:0:0:0:
182,192,196737,128,0,196926:0:0:0:0:
329,192,196832,1,0,0:0:0:0:
475,192,196832,128,0,197021:0:0:0:0:
256,192,196926,1,0,0:0:0:0:
402,192,196926,1,0,0:0:0:0:
109,192,196926,1,0,0:0:0:0:
36,192,196926,128,0,197116:0:0:0:0:
329,192,197021,128,0,197211:0:0:0:0:
475,192,197116,1,0,0:0:0:0:
182,192,197116,1,0,0:0:0:0:
109,192,197116,128,0,197306:0:0:0:0:
256,192,197211,1,0,0:0:0:0:
402,192,197211,128,0,197401:0:0:0:0:
329,192,197306,1,0,0:0:0:0:
36,192,197306,1,0,0:0:0:0:
182,192,197306,128,0,197496:0:0:0:0:
256,192,197401,128,0,197591:0:0:0:0:
329,192,197496,1,0,0:0:0:0:
36,192,197496,1,0,0:0:0:0:
475,192,197496,1,0,0:0:0:0:
402,192,197496,128,0,197686:0:0:0:0:
109,192,197591,1,0,0:0:0:0:
182,192,197591,128,0,197781:0:0:0:0:
256,192,197686,1,0,0:0:0:0:
36,192,197686,1,0,0:0:0:0:
329,192,197686,1,0,0:0:0:0:
475,192,197686,128,0,197876:0:0:0:0:
109,192,197781,128,0,197971:0:0:0:0:
36,192,197876,1,0,0:0:0:0:
402,192,197876,1,0,0:0:0:0:
329,192,197876,128,0,198066:0:0:0:0:
256,192,197971,1,0,0:0:0:0:
182,192,197971,128,0,198161:0:0:0:0:
475,192,198066,1,0,0:0:0:0:
402,192,198066,1,0,0:0:0:0:
109,192,198066,128,0,198256:0:0:0:0:
256,192,198161,128,0,198351:0:0:0:0:
182,192,198256,1,0,0:0:0:0:
36,192,198256,1,0,0:0:0:0:
475,192,198256,1,0,0:0:0:0:
402,192,198256,128,0,198445:0:0:0:0:
109,192,198351,1,0,0:0:0:0:
329,192,198351,128,0,198540:0:0:0:0:
475,192,198445,1,0,0:0:0:0:
36,192,198445,1,0,0:0:0:0:
182,192,198445,1,0,0:0:0:0:
256,192,198445,128,0,198635:0:0:0:0:
402,192,198540,128,0,198730:0:0:0:0:
475,192,198635,1,0,0:0:0:0:
36,192,198635,1,0,0:0:0:0:
182,192,198635,128,0,198825:0:0:0:0:
256,192,198730,1,0,0:0:0:0:
329,192,198730,128,0,198920:0:0:0:0:
36,192,198825,1,0,0:0:0:0:
109,192,198825,1,0,0:0:0:0:
402,192,198825,128,0,199015:0:0:0:0:
256,192,198920,128,0,199110:0:0:0:0:
329,192,199015,1,0,0:0:0:0:
475,192,199015,1,0,0:0:0:0:
36,192,199015,1,0,0:0:0:0:
109,192,199015,128,0,199205:0:0:0:0:
182,192,199110,1,0,0:0:0:0:
402,192,199110,128,0,199300:0:0:0:0:
36,192,199205,1,0,0:0:0:0:
329,192,199205,1,0,0:0:0:0:
475,192,199205,1,0,0:0:0:0:
256,192,199205,128,0,199395:0:0:0:0:
109,192,199300,128,0,199490:0:0:0:0:
402,192,199395,1,0,0:0:0:0:
475,192,199395,1,0,0:0:0:0:
36,192,199395,128,0,199585:0:0:0:0:
256,192,199490,1,0,0:0:0:0:
182,192,199490,128,0,199680:0:0:0:0:
109,192,199585,1,0,0:0:0:0:
475,192,199585,1,0,0:0:0:0:
329,192,199585,128,0,199775:0:0:0:0:
256,192,199680,128,0,199870:0:0:0:0:
109,192,199775,1,0,0:0:0:0:
36,192,199775,1,0,0:0:0:0:
475,192,199775,1,0,0:0:0:0:
402,192,199775,128,0,199964:0:0:0:0:
329,192,199870,1,0,0:0:0:0:
182,192,199870,128,0,200059:0:0:0:0:
256,192,199964,1,0,0:0:0:0:
109,192,199964,1,0,0:0:0:0:
475,192,199964,1,0,0:0:0:0:
36,192,199964,128,0,200154:0:0:0:0:
402,192,200059,128,0,200249:0:0:0:0:
475,192,200154,1,0,0:0:0:0:
182,192,200154,1,0,0:0:0:0:
109,192,200154,128,0,200344:0:0:0:0:
256,192,200249,1,0,0:0:0:0:
329,192,200249,128,0,200439:0:0:0:0:
402,192,200344,1,0,0:0:0:0:
36,192,200344,1,0,0:0:0:0:
182,192,200344,128,0,200534:0:0:0:0:
256,192,200439,128,0,200629:0:0:0:0:
329,192,200534,1,0,0:0:0:0:
475,192,200534,1,0,0:0:0:0:
36,192,200534,1,0,0:0:0:0:
109,192,200534,128,0,200724:0:0:0:0:
182,192,200629,1,0,0:0:0:0:
402,192,200629,128,0,200819:0:0:0:0:
329,192,200724,1,0,0:0:0:0:
475,192,200724,1,0,0:0:0:0:
36,192,200724,1,0,0:0:0:0:
256,192,200724,128,0,200914:0:0:0:0:
109,192,200819,128,0,201009:0:0:0:0:
36,192,200914,1,0,0:0:0:0:
402,192,200914,1,0,0:0:0:0:
329,192,200914,128,0,201104:0:0:0:0:
256,192,201009,1,0,0:0:0:0:
182,192,201009,128,0,201199:0:0:0:0:
475,192,201104,1,0,0:0:0:0:
36,192,201104,1,0,0:0:0:0:
109,192,201104,128,0,201294:0:0:0:0:
256,192,201199,128,0,201389:0:0:0:0:
182,192,201294,1,0,0:0:0:0:
36,192,201294,1,0,0:0:0:0:
475,192,201294,1,0,0:0:0:0:
402,192,201294,128,0,201483:0:0:0:0:
109,192,201389,1,0,0:0:0:0:
329,192,201389,128,0,201578:0:0:0:0:
256,192,201483,1,0,0:0:0:0:
475,192,201483,1,0,0:0:0:0:
182,192,201483,1,0,0:0:0:0:
36,192,201483,128,0,201673:0:0:0:0:
402,192,201578,128,0,201768:0:0:0:0:
475,192,201673,1,0,0:0:0:0:
182,192,201673,1,0,0:0:0:0:
256,192,201673,128,0,201863:0:0:0:0:
329,192,201768,1,0,0:0:0:0:
109,192,201768,128,0,201958:0:0:0:0:
36,192,201863,1,0,0:0:0:0:
182,192,201863,1,0,0:0:0:0:
402,192,201863,128,0,202053:0:0:0:0:
256,192,201958,128,0,202148:0:0:0:0:
329,192,202053,1,0,0:0:0:0:
475,192,202053,1,0,0:0:0:0:
36,192,202053,1,0,0:0:0:0:
109,192,202053,128,0,202148:0:0:0:0:
182,192,202148,1,0,0:0:0:0:
402,192,202148,128,0,202338:0:0:0:0:
256,192,202243,1,0,0:0:0:0:
475,192,202243,1,0,0:0:0:0:
36,192,202243,1,0,0:0:0:0:
109,192,202243,1,0,0:0:0:0:
329,192,202243,128,0,202338:0:0:0:0:
182,192,202338,1,0,0:0:0:0:
329,192,202433,1,0,0:0:0:0:
475,192,202433,1,0,0:0:0:0:
109,192,202433,1,0,0:0:0:0:
36,192,202433,128,0,202623:0:0:0:0:
256,192,202433,128,0,202623:0:0:0:0:
402,192,202528,1,0,0:0:0:0:
182,192,202528,128,0,202718:0:0:0:0:
109,192,202623,1,0,0:0:0:0:
475,192,202623,1,0,0:0:0:0:
329,192,202623,128,0,202813:0:0:0:0:
256,192,202718,128,0,202908:0:0:0:0:
475,192,202813,1,0,0:0:0:0:
109,192,202813,1,0,0:0:0:0:
182,192,202813,128,0,203002:0:0:0:0:
36,192,202813,128,0,202908:0:0:0:0:
402,192,202908,1,0,0:0:0:0:
329,192,202908,128,0,203097:0:0:0:0:
256,192,203002,1,0,0:0:0:0:
475,192,203002,1,0,0:0:0:0:
109,192,203002,128,0,203192:0:0:0:0:
36,192,203002,128,0,203097:0:0:0:0:
402,192,203097,128,0,203287:0:0:0:0:
475,192,203192,1,0,0:0:0:0:
256,192,203192,128,0,203382:0:0:0:0:
329,192,203287,1,0,0:0:0:0:
109,192,203287,128,0,203477:0:0:0:0:
36,192,203382,1,0,0:0:0:0:
475,192,203382,1,0,0:0:0:0:
182,192,203382,128,0,203572:0:0:0:0:
402,192,203382,128,0,203477:0:0:0:0:
256,192,203477,128,0,203667:0:0:0:0:
109,192,203572,1,0,0:0:0:0:
475,192,203572,1,0,0:0:0:0:
329,192,203572,128,0,203762:0:0:0:0:
182,192,203667,128,0,203857:0:0:0:0:
256,192,203762,1,0,0:0:0:0:
36,192,203762,1,0,0:0:0:0:
475,192,203762,128,0,203952:0:0:0:0:
402,192,203762,128,0,203857:0:0:0:0:
109,192,203857,128,0,204047:0:0:0:0:
36,192,203952,1,0,0:0:0:0:
256,192,203952,128,0,204142:0:0:0:0:
182,192,204047,1,0,0:0:0:0:
402,192,204047,128,0,204237:0:0:0:0:
475,192,204142,1,0,0:0:0:0:
36,192,204142,1,0,0:0:0:0:
329,192,204142,128,0,204332:0:0:0:0:
109,192,204142,128,0,204237:0:0:0:0:
256,192,204237,128,0,204427:0:0:0:0:
182,192,204332,1,0,0:0:0:0:
36,192,204332,1,0,0:0:0:0:
402,192,204332,128,0,204521:0:0:0:0:
475,192,204332,128,0,204427:0:0:0:0:
329,192,204427,1,0,0:0:0:0:
109,192,204427,128,0,204616:0:0:0:0:
256,192,204521,1,0,0:0:0:0:
475,192,204521,1,0,0:0:0:0:
36,192,204521,128,0,204711:0:0:0:0:
402,192,204616,128,0,204806:0:0:0:0:
475,192,204711,1,0,0:0:0:0:
256,192,204711,128,0,204901:0:0:0:0:
182,192,204711,128,0,204806:0:0:0:0:
109,192,204806,1,0,0:0:0:0:
329,192,204806,128,0,204996:0:0:0:0:
402,192,204901,1,0,0:0:0:0:
36,192,204901,1,0,0:0:0:0:
182,192,204901,128,0,205091:0:0:0:0:
475,192,204901,128,0,204996:0:0:0:0:
256,192,204996,128,0,205186:0:0:0:0:
475,192,205091,1,0,0:0:0:0:
402,192,205091,1,0,0:0:0:0:
329,192,205091,128,0,205281:0:0:0:0:
109,192,205091,128,0,205186:0:0:0:0:
36,192,205186,1,0,0:0:0:0:
182,192,205186,128,0,205376:0:0:0:0:
256,192,205281,1,0,0:0:0:0:
109,192,205281,1,0,0:0:0:0:
475,192,205281,128,0,205471:0:0:0:0:
402,192,205281,128,0,205376:0:0:0:0:
36,192,205376,128,0,205566:0:0:0:0:
256,192,205471,1,0,0:0:0:0:
182,192,205471,128,0,205661:0:0:0:0:
329,192,205471,128,0,205566:0:0:0:0:
109,192,205566,1,0,0:0:0:0:
402,192,205566,128,0,205756:0:0:0:0:
475,192,205661,1,0,0:0:0:0:
329,192,205661,1,0,0:0:0:0:
256,192,205661,128,0,205851:0:0:0:0:
109,192,205756,128,0,205946:0:0:0:0:
36,192,205851,1,0,0:0:0:0:
475,192,205851,1,0,0:0:0:0:
329,192,205851,128,0,206040:0:0:0:0:
402,192,205851,128,0,205946:0:0:0:0:
256,192,205946,1,0,0:0:0:0:
182,192,205946,128,0,206135:0:0:0:0:
402,192,206040,1,0,0:0:0:0:
36,192,206040,1,0,0:0:0:0:
475,192,206040,128,0,206230:0:0:0:0:
109,192,206040,128,0,206135:0:0:0:0:
256,192,206135,128,0,206325:0:0:0:0:
36,192,206230,1,0,0:0:0:0:
329,192,206230,128,0,206420:0:0:0:0:
475,192,206325,1,0,0:0:0:0:
182,192,206325,128,0,206515:0:0:0:0:
256,192,206420,1,0,0:0:0:0:
36,192,206420,1,0,0:0:0:0:
109,192,206420,128,0,206610:0:0:0:0:
402,192,206420,128,0,206515:0:0:0:0:
329,192,206515,128,0,206705:0:0:0:0:
182,192,206610,1,0,0:0:0:0:
36,192,206610,1,0,0:0:0:0:
475,192,206610,128,0,206800:0:0:0:0:
256,192,206705,128,0,206895:0:0:0:0:
402,192,206800,1,0,0:0:0:0:
182,192,206800,1,0,0:0:0:0:
109,192,206800,128,0,206990:0:0:0:0:
36,192,206800,128,0,206895:0:0:0:0:
329,192,206895,128,0,207085:0:0:0:0:
475,192,206990,1,0,0:0:0:0:
182,192,206990,128,0,207180:0:0:0:0:
256,192,207085,1,0,0:0:0:0:
36,192,207085,128,0,207275:0:0:0:0:
109,192,207180,1,0,0:0:0:0:
475,192,207180,1,0,0:0:0:0:
402,192,207180,128,0,207370:0:0:0:0:
329,192,207180,128,0,207275:0:0:0:0:
182,192,207275,128,0,207465:0:0:0:0:
329,192,207370,1,0,0:0:0:0:
36,192,207370,1,0,0:0:0:0:
475,192,207370,128,0,207559:0:0:0:0:
256,192,207370,128,0,207465:0:0:0:0:
109,192,207465,128,0,207654:0:0:0:0:
402,192,207559,1,0,0:0:0:0:
329,192,207559,1,0,0:0:0:0:
36,192,207559,1,0,0:0:0:0:
182,192,207559,128,0,207749:0:0:0:0:
256,192,207654,128,0,207844:0:0:0:0:
329,192,207749,1,0,0:0:0:0:
402,192,207749,128,0,207939:0:0:0:0:
36,192,207749,128,0,207844:0:0:0:0:
475,192,207844,1,0,0:0:0:0:
182,192,207844,128,0,208034:0:0:0:0:
256,192,207939,1,0,0:0:0:0:
36,192,207939,1,0,0:0:0:0:
329,192,207939,128,0,208129:0:0:0:0:
109,192,207939,128,0,208034:0:0:0:0:
402,192,208034,128,0,208224:0:0:0:0:
475,192,208129,1,0,0:0:0:0:
109,192,208129,1,0,0:0:0:0:
36,192,208129,128,0,208319:0:0:0:0:
182,192,208129,128,0,208224:0:0:0:0:
256,192,208224,1,0,0:0:0:0:
329,192,208224,128,0,208414:0:0:0:0:
402,192,208319,1,0,0:0:0:0:
182,192,208319,1,0,0:0:0:0:
109,192,208319,128,0,208509:0:0:0:0:
475,192,208319,128,0,208414:0:0:0:0:
256,192,208414,128,0,208604:0:0:0:0:
329,192,208509,1,0,0:0:0:0:
36,192,208509,128,0,208699:0:0:0:0:
402,192,208509,128,0,208604:0:0:0:0:
182,192,208604,1,0,0:0:0:0:
475,192,208604,128,0,208794:0:0:0:0:
109,192,208699,1,0,0:0:0:0:
402,192,208699,1,0,0:0:0:0:
329,192,208699,128,0,208889:0:0:0:0:
256,192,208794,128,0,208984:0:0:0:0:
475,192,208889,1,0,0:0:0:0:
109,192,208889,1,0,0:0:0:0:
36,192,208889,128,0,209078:0:0:0:0:
182,192,208889,128,0,208984:0:0:0:0:
402,192,208984,1,0,0:0:0:0:
329,192,208984,128,0,209173:0:0:0:0:
256,192,209078,1,0,0:0:0:0:
182,192,209078,1,0,0:0:0:0:
109,192,209078,128,0,209268:0:0:0:0:
475,192,209078,128,0,209173:0:0:0:0:
402,192,209173,128,0,209363:0:0:0:0:
475,192,209268,1,0,0:0:0:0:
182,192,209268,128,0,209458:0:0:0:0:
329,192,209363,1,0,0:0:0:0:
36,192,209363,128,0,209553:0:0:0:0:
109,192,209458,1,0,0:0:0:0:
475,192,209458,1,0,0:0:0:0:
256,192,209458,128,0,209648:0:0:0:0:
402,192,209458,128,0,209553:0:0:0:0:
182,192,209553,128,0,209743:0:0:0:0:
36,192,209648,1,0,0:0:0:0:
475,192,209648,1,0,0:0:0:0:
329,192,209648,128,0,209838:0:0:0:0:
109,192,209743,128,0,209933:0:0:0:0:
36,192,209838,1,0,0:0:0:0:
475,192,209838,1,0,0:0:0:0:
402,192,209838,128,0,210028:0:0:0:0:
256,192,209838,128,0,209933:0:0:0:0:
182,192,209933,128,0,210123:0:0:0:0:
329,192,210028,1,0,0:0:0:0:
109,192,210028,128,0,210218:0:0:0:0:
36,192,210123,1,0,0:0:0:0:
402,192,210123,128,0,210313:0:0:0:0:
475,192,210218,1,0,0:0:0:0:
329,192,210218,1,0,0:0:0:0:
256,192,210218,128,0,210408:0:0:0:0:
182,192,210218,128,0,210313:0:0:0:0:
109,192,210313,128,0,210503:0:0:0:0:
402,192,210408,1,0,0:0:0:0:
36,192,210408,1,0,0:0:0:0:
329,192,210408,128,0,210597:0:0:0:0:
475,192,210408,128,0,210503:0:0:0:0:
256,192,210503,1,0,0:0:0:0:
182,192,210503,128,0,210692:0:0:0:0:
402,192,210597,1,0,0:0:0:0:
109,192,210597,1,0,0:0:0:0:
36,192,210597,128,0,210787:0:0:0:0:
256,192,210692,128,0,210882:0:0:0:0:
329,192,210787,1,0,0:0:0:0:
402,192,210787,128,0,210977:0:0:0:0:
182,192,210787,128,0,210882:0:0:0:0:
475,192,210882,1,0,0:0:0:0:
109,192,210882,128,0,211072:0:0:0:0:
256,192,210977,1,0,0:0:0:0:
182,192,210977,1,0,0:0:0:0:
329,192,210977,128,0,211167:0:0:0:0:
36,192,210977,128,0,211072:0:0:0:0:
402,192,211072,128,0,211262:0:0:0:0:
109,192,211167,1,0,0:0:0:0:
475,192,211167,1,0,0:0:0:0:
36,192,211167,128,0,211357:0:0:0:0:
182,192,211167,128,0,211262:0:0:0:0:
256,192,211262,1,0,0:0:0:0:
329,192,211262,128,0,211452:0:0:0:0:
109,192,211357,1,0,0:0:0:0:
402,192,211357,1,0,0:0:0:0:
182,192,211357,128,0,211547:0:0:0:0:
475,192,211357,128,0,211452:0:0:0:0:
256,192,211452,128,0,211642:0:0:0:0:
36,192,211547,1,0,0:0:0:0:
109,192,211547,128,0,211737:0:0:0:0:
329,192,211547,128,0,211832:0:0:0:0:
182,192,211642,1,0,0:0:0:0:
402,192,211642,128,0,211832:0:0:0:0:
475,192,211737,1,0,0:0:0:0:
36,192,211737,1,0,0:0:0:0:
256,192,211737,128,0,211927:0:0:0:0:
109,192,211832,128,0,212022:0:0:0:0:
402,192,211927,1,0,0:0:0:0:
36,192,211927,1,0,0:0:0:0:
475,192,211927,128,0,212116:0:0:0:0:
182,192,211927,128,0,212022:0:0:0:0:
256,192,212022,1,0,0:0:0:0:
329,192,212022,128,0,212211:0:0:0:0:
109,192,212116,1,0,0:0:0:0:
182,192,212116,1,0,0:0:0:0:
36,192,212116,128,0,212306:0:0:0:0:
402,192,212116,128,0,212211:0:0:0:0:
256,192,212211,128,0,212401:0:0:0:0:
475,192,212306,1,0,0:0:0:0:
182,192,212306,128,0,212496:0:0:0:0:
109,192,212401,1,0,0:0:0:0:
329,192,212401,128,0,212591:0:0:0:0:
475,192,212496,1,0,0:0:0:0:
402,192,212496,1,0,0:0:0:0:
36,192,212496,128,0,212686:0:0:0:0:
256,192,212496,128,0,212591:0:0:0:0:
182,192,212591,128,0,212781:0:0:0:0:
109,192,212686,1,0,0:0:0:0:
475,192,212686,1,0,0:0:0:0:
329,192,212686,128,0,212781:0:0:0:0:
256,192,212781,1,0,0:0:0:0:
402,192,212781,128,0,212876:0:0:0:0:
109,192,212876,1,0,0:0:0:0:
329,192,212876,1,0,0:0:0:0:
36,192,212876,1,0,0:0:0:0:
475,192,212876,1,0,0:0:0:0:
182,192,212876,1,0,0:0:0:0:
329,192,213161,128,0,213256:0:0:0:0:
402,192,213256,1,0,0:0:0:0:
36,192,213256,1,0,0:0:0:0:
475,192,213256,1,0,0:0:0:0:
182,192,213256,128,0,213351:0:0:0:0:
109,192,213256,128,0,213351:0:0:0:0:
329,192,213351,128,0,213446:0:0:0:0:
36,192,213446,1,0,0:0:0:0:
256,192,213446,1,0,0:0:0:0:
475,192,213446,1,0,0:0:0:0:
182,192,213446,128,0,213541:0:0:0:0:
402,192,213446,128,0,213541:0:0:0:0:
329,192,213541,128,0,213635:0:0:0:0:
109,192,213635,1,0,0:0:0:0:
182,192,213635,128,0,213730:0:0:0:0:
329,192,213730,128,0,213825:0:0:0:0:
182,192,213825,1,0,0:0:0:0:
256,192,213825,1,0,0:0:0:0:
36,192,213825,1,0,0:0:0:0:
109,192,213825,1,0,0:0:0:0:
475,192,213825,128,0,213920:0:0:0:0:
402,192,214015,1,0,0:0:0:0:
329,192,214015,128,0,214110:0:0:0:0:
256,192,214205,1,0,0:0:0:0:
36,192,214205,1,0,0:0:0:0:
475,192,214205,1,0,0:0:0:0:
402,192,214395,1,0,0:0:0:0:
109,192,214395,128,0,214490:0:0:0:0:
256,192,214585,1,0,0:0:0:0:
475,192,214585,1,0,0:0:0:0:
402,192,214585,1,0,0:0:0:0:
329,192,214585,1,0,0:0:0:0:
182,192,214585,128,0,214775:0:0:0:0:
36,192,214680,128,0,214870:0:0:0:0:
402,192,214775,1,0,0:0:0:0:
329,192,214775,128,0,214965:0:0:0:0:
475,192,214775,128,0,214870:0:0:0:0:
109,192,214870,128,0,215060:0:0:0:0:
182,192,214965,1,0,0:0:0:0:
475,192,214965,1,0,0:0:0:0:
36,192,214965,1,0,0:0:0:0:
256,192,214965,1,0,0:0:0:0:
402,192,214965,128,0,215154:0:0:0:0:
329,192,215060,128,0,215249:0:0:0:0:
109,192,215154,1,0,0:0:0:0:
475,192,215154,1,0,0:0:0:0:
182,192,215154,1,0,0:0:0:0:
36,192,215154,128,0,215344:0:0:0:0:
256,192,215154,128,0,215249:0:0:0:0:
402,192,215249,128,0,215439:0:0:0:0:
182,192,215344,1,0,0:0:0:0:
109,192,215344,1,0,0:0:0:0:
475,192,215344,128,0,215534:0:0:0:0:
329,192,215439,128,0,215629:0:0:0:0:
182,192,215534,1,0,0:0:0:0:
36,192,215534,1,0,0:0:0:0:
109,192,215534,128,0,215724:0:0:0:0:
402,192,215534,128,0,215629:0:0:0:0:
256,192,215629,128,0,215819:0:0:0:0:
36,192,215724,1,0,0:0:0:0:
475,192,215724,1,0,0:0:0:0:
402,192,215724,1,0,0:0:0:0:
182,192,215724,128,0,215914:0:0:0:0:
329,192,215819,128,0,216009:0:0:0:0:
256,192,215914,1,0,0:0:0:0:
36,192,215914,1,0,0:0:0:0:
475,192,215914,1,0,0:0:0:0:
109,192,215914,128,0,216104:0:0:0:0:
402,192,215914,128,0,216104:0:0:0:0:
182,192,216009,128,0,216199:0:0:0:0:
329,192,216104,1,0,0:0:0:0:
475,192,216104,1,0,0:0:0:0:
36,192,216104,128,0,216294:0:0:0:0:
256,192,216199,128,0,216389:0:0:0:0:
402,192,216294,1,0,0:0:0:0:
475,192,216294,1,0,0:0:0:0:
329,192,216294,128,0,216484:0:0:0:0:
109,192,216294,128,0,216389:0:0:0:0:
182,192,216389,128,0,216579:0:0:0:0:
256,192,216484,1,0,0:0:0:0:
36,192,216484,1,0,0:0:0:0:
109,192,216484,1,0,0:0:0:0:
475,192,216484,128,0,216673:0:0:0:0:
402,192,216484,128,0,216579:0:0:0:0:
329,192,216579,128,0,216768:0:0:0:0:
402,192,216673,1,0,0:0:0:0:
36,192,216673,1,0,0:0:0:0:
256,192,216673,1,0,0:0:0:0:
109,192,216673,128,0,216863:0:0:0:0:
182,192,216673,128,0,216768:0:0:0:0:
475,192,216768,128,0,216958:0:0:0:0:
402,192,216863,1,0,0:0:0:0:
182,192,216863,1,0,0:0:0:0:
256,192,216863,128,0,217053:0:0:0:0:
36,192,216863,128,0,216958:0:0:0:0:
329,192,216958,128,0,217148:0:0:0:0:
402,192,217053,1,0,0:0:0:0:
109,192,217053,1,0,0:0:0:0:
182,192,217053,128,0,217243:0:0:0:0:
475,192,217053,128,0,217148:0:0:0:0:
256,192,217148,128,0,217338:0:0:0:0:
36,192,217243,1,0,0:0:0:0:
475,192,217243,1,0,0:0:0:0:
402,192,217243,1,0,0:0:0:0:
329,192,217243,128,0,217433:0:0:0:0:
109,192,217243,128,0,217338:0:0:0:0:
182,192,217338,128,0,217528:0:0:0:0:
402,192,217433,1,0,0:0:0:0:
256,192,217433,1,0,0:0:0:0:
36,192,217433,1,0,0:0:0:0:
109,192,217433,128,0,217623:0:0:0:0:
475,192,217433,128,0,217528:0:0:0:0:
329,192,217528,128,0,217718:0:0:0:0:
36,192,217623,1,0,0:0:0:0:
475,192,217623,1,0,0:0:0:0:
256,192,217623,1,0,0:0:0:0:
402,192,217623,128,0,217813:0:0:0:0:
182,192,217718,128,0,217908:0:0:0:0:
36,192,217813,1,0,0:0:0:0:
109,192,217813,128,0,218003:0:0:0:0:
475,192,217813,128,0,217908:0:0:0:0:
256,192,217908,128,0,218098:0:0:0:0:
182,192,218003,1,0,0:0:0:0:
36,192,218003,1,0,0:0:0:0:
475,192,218003,1,0,0:0:0:0:
402,192,218003,128,0,218193:0:0:0:0:
329,192,218098,128,0,218287:0:0:0:0:
256,192,218193,1,0,0:0:0:0:
475,192,218193,1,0,0:0:0:0:
109,192,218193,128,0,218382:0:0:0:0:
36,192,218193,1,0,0:0:0:0:
182,192,218193,128,0,218287:0:0:0:0:
402,192,218287,128,0,218477:0:0:0:0:
475,192,218382,1,0,0:0:0:0:
182,192,218382,1,0,0:0:0:0:
256,192,218382,128,0,218572:0:0:0:0:
329,192,218477,128,0,218667:0:0:0:0:
109,192,218572,1,0,0:0:0:0:
36,192,218572,1,0,0:0:0:0:
182,192,218572,128,0,218762:0:0:0:0:
402,192,218572,128,0,218762:0:0:0:0:
256,192,218667,128,0,218857:0:0:0:0:
329,192,218762,1,0,0:0:0:0:
36,192,218762,1,0,0:0:0:0:
475,192,218762,1,0,0:0:0:0:
109,192,218762,128,0,218952:0:0:0:0:
182,192,218857,128,0,219047:0:0:0:0:
402,192,218952,1,0,0:0:0:0:
329,192,218952,1,0,0:0:0:0:
36,192,218952,1,0,0:0:0:0:
475,192,218952,128,0,219142:0:0:0:0:
256,192,218952,128,0,219142:0:0:0:0:
109,192,219047,128,0,219237:0:0:0:0:
402,192,219142,1,0,0:0:0:0:
329,192,219142,1,0,0:0:0:0:
36,192,219142,128,0,219332:0:0:0:0:
182,192,219237,128,0,219427:0:0:0:0:
109,192,219332,1,0,0:0:0:0:
475,192,219332,1,0,0:0:0:0:
329,192,219332,128,0,219522:0:0:0:0:
402,192,219332,128,0,219427:0:0:0:0:
256,192,219427,128,0,219617:0:0:0:0:
182,192,219522,1,0,0:0:0:0:
475,192,219522,1,0,0:0:0:0:
36,192,219522,1,0,0:0:0:0:
402,192,219522,128,0,219712:0:0:0:0:
109,192,219522,128,0,219617:0:0:0:0:
329,192,219617,128,0,219806:0:0:0:0:
36,192,219712,1,0,0:0:0:0:
475,192,219712,1,0,0:0:0:0:
109,192,219712,128,0,219901:0:0:0:0:
256,192,219712,128,0,219806:0:0:0:0:
182,192,219806,128,0,219996:0:0:0:0:
402,192,219901,1,0,0:0:0:0:
256,192,219901,1,0,0:0:0:0:
36,192,219901,128,0,220091:0:0:0:0:
475,192,219901,128,0,219996:0:0:0:0:
329,192,219996,128,0,220186:0:0:0:0:
402,192,220091,1,0,0:0:0:0:
475,192,220091,1,0,0:0:0:0:
182,192,220091,128,0,220281:0:0:0:0:
109,192,220091,128,0,220186:0:0:0:0:
256,192,220186,128,0,220376:0:0:0:0:
329,192,220281,1,0,0:0:0:0:
475,192,220281,1,0,0:0:0:0:
402,192,220281,1,0,0:0:0:0:
109,192,220281,128,0,220471:0:0:0:0:
36,192,220281,128,0,220376:0:0:0:0:
182,192,220376,1,0,0:0:0:0:
256,192,220471,1,0,0:0:0:0:
36,192,220471,1,0,0:0:0:0:
475,192,220471,1,0,0:0:0:0:
402,192,220471,128,0,220661:0:0:0:0:
329,192,220471,128,0,220566:0:0:0:0:
109,192,220566,128,0,220756:0:0:0:0:
182,192,220661,1,0,0:0:0:0:
329,192,220661,1,0,0:0:0:0:
475,192,220661,1,0,0:0:0:0:
256,192,220661,128,0,220851:0:0:0:0:
36,192,220756,128,0,220946:0:0:0:0:
402,192,220851,1,0,0:0:0:0:
475,192,220851,128,0,221041:0:0:0:0:
182,192,220851,128,0,221041:0:0:0:0:
109,192,220946,128,0,221136:0:0:0:0:
329,192,221041,1,0,0:0:0:0:
402,192,221041,1,0,0:0:0:0:
36,192,221041,1,0,0:0:0:0:
256,192,221041,128,0,221231:0:0:0:0:
182,192,221136,128,0,221325:0:0:0:0:
109,192,221231,1,0,0:0:0:0:
329,192,221231,1,0,0:0:0:0:
36,192,221231,1,0,0:0:0:0:
402,192,221231,128,0,221420:0:0:0:0:
475,192,221231,128,0,221420:0:0:0:0:
256,192,221325,128,0,221515:0:0:0:0:
329,192,221420,1,0,0:0:0:0:
36,192,221420,1,0,0:0:0:0:
182,192,221420,128,0,221610:0:0:0:0:
475,192,221515,128,0,221705:0:0:0:0:
256,192,221610,1,0,0:0:0:0:
109,192,221610,1,0,0:0:0:0:
36,192,221610,128,0,221800:0:0:0:0:
329,192,221610,128,0,221800:0:0:0:0:
402,192,221705,128,0,221895:0:0:0:0:
182,192,221800,1,0,0:0:0:0:
109,192,221800,1,0,0:0:0:0:
475,192,221800,1,0,0:0:0:0:
256,192,221800,128,0,221990:0:0:0:0:
329,192,221895,128,0,222085:0:0:0:0:
402,192,221990,1,0,0:0:0:0:
182,192,221990,1,0,0:0:0:0:
475,192,221990,1,0,0:0:0:0:
109,192,221990,128,0,222180:0:0:0:0:
36,192,221990,128,0,222180:0:0:0:0:
256,192,222085,128,0,222275:0:0:0:0:
182,192,222180,1,0,0:0:0:0:
329,192,222180,1,0,0:0:0:0:
402,192,222180,128,0,222370:0:0:0:0:
36,192,222275,128,0,222465:0:0:0:0:
256,192,222370,1,0,0:0:0:0:
475,192,222370,1,0,0:0:0:0:
182,192,222370,128,0,222560:0:0:0:0:
329,192,222370,128,0,222465:0:0:0:0:
109,192,222465,128,0,222655:0:0:0:0:
329,192,222560,1,0,0:0:0:0:
36,192,222560,1,0,0:0:0:0:
475,192,222560,1,0,0:0:0:0:
402,192,222560,128,0,222750:0:0:0:0:
256,192,222560,128,0,222655:0:0:0:0:
182,192,222655,128,0,222844:0:0:0:0:
109,192,222750,1,0,0:0:0:0:
329,192,222750,1,0,0:0:0:0:
475,192,222750,128,0,222939:0:0:0:0:
36,192,222750,128,0,222844:0:0:0:0:
256,192,222844,128,0,223034:0:0:0:0:
182,192,222939,1,0,0:0:0:0:
109,192,222939,1,0,0:0:0:0:
36,192,222939,128,0,223129:0:0:0:0:
329,192,222939,128,0,223034:0:0:0:0:
475,192,223034,128,0,223224:0:0:0:0:
256,192,223129,1,0,0:0:0:0:
109,192,223129,1,0,0:0:0:0:
329,192,223129,128,0,223319:0:0:0:0:
182,192,223129,128,0,223224:0:0:0:0:
402,192,223224,128,0,223414:0:0:0:0:
182,192,223319,1,0,0:0:0:0:
36,192,223319,1,0,0:0:0:0:
475,192,223319,1,0,0:0:0:0:
256,192,223319,128,0,223509:0:0:0:0:
109,192,223319,128,0,223414:0:0:0:0:
329,192,223414,128,0,223604:0:0:0:0:
109,192,223509,1,0,0:0:0:0:
402,192,223509,1,0,0:0:0:0:
36,192,223509,1,0,0:0:0:0:
182,192,223509,128,0,223699:0:0:0:0:
475,192,223509,128,0,223604:0:0:0:0:
256,192,223604,128,0,223794:0:0:0:0:
36,192,223699,1,0,0:0:0:0:
329,192,223699,1,0,0:0:0:0:
475,192,223699,1,0,0:0:0:0:
402,192,223699,128,0,223889:0:0:0:0:
182,192,223794,128,0,223984:0:0:0:0:
475,192,223889,1,0,0:0:0:0:
329,192,223889,128,0,224079:0:0:0:0:
36,192,223889,128,0,223984:0:0:0:0:
256,192,223984,128,0,224174:0:0:0:0:
182,192,224079,1,0,0:0:0:0:
36,192,224079,1,0,0:0:0:0:
475,192,224079,1,0,0:0:0:0:
402,192,224079,128,0,224269:0:0:0:0:
329,192,224174,128,0,224363:0:0:0:0:
36,192,224269,1,0,0:0:0:0:
182,192,224269,1,0,0:0:0:0:
475,192,224269,1,0,0:0:0:0:
109,192,224269,128,0,224458:0:0:0:0:
256,192,224269,128,0,224458:0:0:0:0:
402,192,224363,128,0,224553:0:0:0:0:
475,192,224458,1,0,0:0:0:0:
182,192,224458,1,0,0:0:0:0:
36,192,224458,128,0,224648:0:0:0:0:
329,192,224553,128,0,224743:0:0:0:0:
109,192,224648,1,0,0:0:0:0:
475,192,224648,1,0,0:0:0:0:
182,192,224648,128,0,224838:0:0:0:0:
402,192,224648,128,0,224838:0:0:0:0:
256,192,224743,128,0,224933:0:0:0:0:
329,192,224838,1,0,0:0:0:0:
36,192,224838,1,0,0:0:0:0:
475,192,224838,1,0,0:0:0:0:
109,192,224838,128,0,225028:0:0:0:0:
182,192,224933,128,0,225123:0:0:0:0:
256,192,225028,1,0,0:0:0:0:
475,192,225028,1,0,0:0:0:0:
36,192,225028,1,0,0:0:0:0:
402,192,225028,128,0,225218:0:0:0:0:
329,192,225028,128,0,225123:0:0:0:0:
109,192,225123,128,0,225218:0:0:0:0:
36,192,225218,1,0,0:0:0:0:
329,192,225218,1,0,0:0:0:0:
256,192,225218,128,0,225313:0:0:0:0:
182,192,225313,128,0,225408:0:0:0:0:
475,192,225408,1,0,0:0:0:0:
402,192,225408,1,0,0:0:0:0:
36,192,225408,1,0,0:0:0:0:
256,192,225408,1,0,0:0:0:0:
329,192,225408,128,0,225503:0:0:0:0:
109,192,225408,128,0,225503:0:0:0:0:
182,192,225503,128,0,225598:0:0:0:0:
36,192,225598,1,0,0:0:0:0:
256,192,225598,128,0,225693:0:0:0:0:
329,192,225693,128,0,225788:0:0:0:0:
182,192,225788,1,0,0:0:0:0:
109,192,225788,1,0,0:0:0:0:
402,192,225788,1,0,0:0:0:0:
402,192,225977,1,0,0:0:0:0:
256,192,225977,1,0,0:0:0:0:
109,192,225977,1,0,0:0:0:0:
182,192,225977,128,0,226072:0:0:0:0:
329,192,226072,128,0,226167:0:0:0:0:
36,192,226167,1,0,0:0:0:0:
475,192,226167,1,0,0:0:0:0:
182,192,226167,1,0,0:0:0:0:
109,192,226167,128,0,226262:0:0:0:0:
402,192,226167,128,0,226262:0:0:0:0:
329,192,226262,1,0,0:0:0:0:
36,192,226357,1,0,0:0:0:0:
256,192,226357,1,0,0:0:0:0:
475,192,226357,1,0,0:0:0:0:
109,192,226357,128,0,226452:0:0:0:0:
402,192,226452,128,0,226547:0:0:0:0:
182,192,226547,128,0,226642:0:0:0:0:
329,192,226642,128,0,226737:0:0:0:0:
256,192,226737,1,0,0:0:0:0:
36,192,226737,1,0,0:0:0:0:
475,192,226737,1,0,0:0:0:0:
402,192,226737,128,0,228019:0:0:0:0:
109,192,226737,128,0,227449:0:0:0:0:
256,192,226927,1,0,0:0:0:0:
256,192,227117,1,0,0:0:0:0:
256,192,227212,1,0,0:0:0:0:
256,192,227401,1,0,0:0:0:0:
109,192,227496,128,0,229870:0:0:0:0:
36,192,227496,128,0,228968:0:0:0:0:
256,192,227591,1,0,0:0:0:0:
256,192,227686,1,0,0:0:0:0:
256,192,227876,1,0,0:0:0:0:
256,192,227971,1,0,0:0:0:0:
329,192,228066,128,0,229538:0:0:0:0:
402,192,228066,128,0,230012:0:0:0:0:
256,192,228161,1,0,0:0:0:0:
256,192,228256,1,0,0:0:0:0:
256,192,228446,1,0,0:0:0:0:
256,192,228636,1,0,0:0:0:0:
256,192,228731,1,0,0:0:0:0:
256,192,228920,1,0,0:0:0:0:
182,192,229015,128,0,229775:0:0:0:0:
36,192,229015,128,0,229727:0:0:0:0:
256,192,229110,1,0,0:0:0:0:
256,192,229205,1,0,0:0:0:0:
256,192,229395,1,0,0:0:0:0:
256,192,229490,1,0,0:0:0:0:
329,192,229585,128,0,229727:0:0:0:0:
475,192,229585,128,0,230155:0:0:0:0:
256,192,229680,1,0,0:0:0:0:
256,192,229775,1,0,0:0:0:0:
36,192,229775,128,0,230487:0:0:0:0:
329,192,229870,128,0,230202:0:0:0:0:
256,192,229965,1,0,0:0:0:0:
109,192,229965,128,0,230202:0:0:0:0:
402,192,230060,128,0,230345:0:0:0:0:
256,192,230155,1,0,0:0:0:0:
182,192,230155,128,0,230534:0:0:0:0:
256,192,230250,1,0,0:0:0:0:
475,192,230250,128,0,230677:0:0:0:0:
109,192,230345,128,0,230724:0:0:0:0:
256,192,230439,1,0,0:0:0:0:
402,192,230439,128,0,230629:0:0:0:0:
329,192,230534,128,0,231009:0:0:0:0:
256,192,230629,1,0,0:0:0:0:
36,192,230629,128,0,231341:0:0:0:0:
256,192,230724,1,0,0:0:0:0:
402,192,230724,128,0,230962:0:0:0:0:
109,192,230819,128,0,230962:0:0:0:0:
256,192,230914,1,0,0:0:0:0:
475,192,230914,128,0,231341:0:0:0:0:
256,192,231009,1,0,0:0:0:0:
182,192,231009,128,0,231389:0:0:0:0:
402,192,231104,128,0,231246:0:0:0:0:
256,192,231199,1,0,0:0:0:0:
109,192,231199,128,0,231484:0:0:0:0:
256,192,231294,1,0,0:0:0:0:
329,192,231294,128,0,231579:0:0:0:0:
36,192,231389,128,0,231626:0:0:0:0:
256,192,231484,1,0,0:0:0:0:
402,192,231484,128,0,231769:0:0:0:0:
109,192,231579,128,0,232053:0:0:0:0:
256,192,231674,1,0,0:0:0:0:
329,192,231674,128,0,232291:0:0:0:0:
256,192,231769,1,0,0:0:0:0:
36,192,231769,128,0,232006:0:0:0:0:
475,192,231864,128,0,232196:0:0:0:0:
256,192,231958,1,0,0:0:0:0:
182,192,231958,128,0,232196:0:0:0:0:
402,192,232053,128,0,232386:0:0:0:0:
256,192,232148,1,0,0:0:0:0:
109,192,232148,128,0,232481:0:0:0:0:
256,192,232243,1,0,0:0:0:0:
475,192,232243,128,0,232623:0:0:0:0:
182,192,232338,128,0,232576:0:0:0:0:
256,192,232433,1,0,0:0:0:0:
36,192,232433,128,0,232623:0:0:0:0:
256,192,232528,1,0,0:0:0:0:
329,192,232528,128,0,232718:0:0:0:0:
109,192,232623,128,0,232765:0:0:0:0:
256,192,232718,1,0,0:0:0:0:
402,192,232718,128,0,232813:0:0:0:0:
256,192,232813,1,0,0:0:0:0:
182,192,232813,128,0,234095:0:0:0:0:
36,192,232813,128,0,235803:0:0:0:0:
256,192,233003,1,0,0:0:0:0:
256,192,233193,1,0,0:0:0:0:
256,192,233288,1,0,0:0:0:0:
256,192,233477,1,0,0:0:0:0:
329,192,233572,128,0,235044:0:0:0:0:
475,192,233572,128,0,236231:0:0:0:0:
256,192,233667,1,0,0:0:0:0:
256,192,233762,1,0,0:0:0:0:
256,192,233952,1,0,0:0:0:0:
256,192,234047,1,0,0:0:0:0:
182,192,234142,128,0,235614:0:0:0:0:
109,192,234142,128,0,235946:0:0:0:0:
256,192,234237,1,0,0:0:0:0:
256,192,234332,1,0,0:0:0:0:
256,192,234522,1,0,0:0:0:0:
256,192,234712,1,0,0:0:0:0:
256,192,234807,1,0,0:0:0:0:
256,192,234996,1,0,0:0:0:0:
402,192,235091,128,0,235993:0:0:0:0:
329,192,235091,128,0,235614:0:0:0:0:
256,192,235186,1,0,0:0:0:0:
256,192,235281,1,0,0:0:0:0:
256,192,235471,1,0,0:0:0:0:
256,192,235566,1,0,0:0:0:0:
329,192,235661,128,0,235898:0:0:0:0:
182,192,235661,128,0,236136:0:0:0:0:
256,192,235756,1,0,0:0:0:0:
256,192,235851,1,0,0:0:0:0:
36,192,235851,128,0,235993:0:0:0:0:
329,192,235946,128,0,236421:0:0:0:0:
256,192,236041,1,0,0:0:0:0:
36,192,236041,128,0,236563:0:0:0:0:
402,192,236136,128,0,236278:0:0:0:0:
256,192,236231,1,0,0:0:0:0:
109,192,236231,128,0,236326:0:0:0:0:
256,192,236326,1,0,0:0:0:0:
402,192,236326,128,0,236610:0:0:0:0:
109,192,236421,128,0,236753:0:0:0:0:
256,192,236515,1,0,0:0:0:0:
475,192,236515,128,0,236610:0:0:0:0:
182,192,236610,128,0,236705:0:0:0:0:
256,192,236705,1,0,0:0:0:0:
475,192,236705,128,0,237133:0:0:0:0:
256,192,236800,1,0,0:0:0:0:
182,192,236800,128,0,237038:0:0:0:0:
402,192,236895,128,0,236990:0:0:0:0:
256,192,236990,1,0,0:0:0:0:
109,192,236990,128,0,237085:0:0:0:0:
256,192,237085,1,0,0:0:0:0:
402,192,237085,128,0,237322:0:0:0:0:
109,192,237180,128,0,237322:0:0:0:0:
256,192,237275,1,0,0:0:0:0:
475,192,237275,128,0,237560:0:0:0:0:
182,192,237370,1,0,0:0:0:0:
329,192,237370,1,0,0:0:0:0:
36,192,237370,128,0,237655:0:0:0:0:
402,192,237465,128,0,237892:0:0:0:0:
329,192,237560,1,0,0:0:0:0:
182,192,237560,1,0,0:0:0:0:
109,192,237560,128,0,237702:0:0:0:0:
475,192,237655,128,0,237845:0:0:0:0:
182,192,237750,1,0,0:0:0:0:
329,192,237750,1,0,0:0:0:0:
36,192,237750,128,0,238034:0:0:0:0:
109,192,237845,1,0,0:0:0:0:
329,192,237845,1,0,0:0:0:0:
256,192,237845,128,0,238177:0:0:0:0:
475,192,237940,128,0,238082:0:0:0:0:
109,192,238034,1,0,0:0:0:0:
329,192,238034,1,0,0:0:0:0:
182,192,238034,128,0,238177:0:0:0:0:
36,192,238129,128,0,238272:0:0:0:0:
329,192,238224,1,0,0:0:0:0:
109,192,238224,1,0,0:0:0:0:
475,192,238224,128,0,238462:0:0:0:0:
182,192,238319,1,0,0:0:0:0:
402,192,238319,1,0,0:0:0:0:
256,192,238319,128,0,238414:0:0:0:0:
36,192,238414,128,0,238604:0:0:0:0:
182,192,238509,1,0,0:0:0:0:
402,192,238509,1,0,0:0:0:0:
256,192,238509,128,0,238699:0:0:0:0:
329,192,238604,1,0,0:0:0:0:
182,192,238604,1,0,0:0:0:0:
475,192,238604,128,0,238841:0:0:0:0:
36,192,238699,128,0,238794:0:0:0:0:
182,192,238794,1,0,0:0:0:0:
329,192,238794,1,0,0:0:0:0:
256,192,238794,128,0,238889:0:0:0:0:
402,192,238889,1,0,0:0:0:0:
109,192,238889,1,0,0:0:0:0:
475,192,238889,128,0,240171:0:0:0:0:
36,192,238889,128,0,239601:0:0:0:0:
402,192,239079,1,0,0:0:0:0:
109,192,239079,1,0,0:0:0:0:
109,192,239269,1,0,0:0:0:0:
402,192,239269,1,0,0:0:0:0:
182,192,239364,1,0,0:0:0:0:
402,192,239364,1,0,0:0:0:0:
402,192,239553,1,0,0:0:0:0:
182,192,239553,1,0,0:0:0:0:
36,192,239648,128,0,241120:0:0:0:0:
256,192,239648,128,0,240171:0:0:0:0:
402,192,239743,1,0,0:0:0:0:
182,192,239743,1,0,0:0:0:0:
182,192,239838,1,0,0:0:0:0:
402,192,239838,1,0,0:0:0:0:
109,192,240028,1,0,0:0:0:0:
329,192,240028,1,0,0:0:0:0:
109,192,240123,1,0,0:0:0:0:
402,192,240123,1,0,0:0:0:0:
475,192,240218,128,0,241120:0:0:0:0:
256,192,240218,128,0,241690:0:0:0:0:
109,192,240313,1,0,0:0:0:0:
329,192,240313,1,0,0:0:0:0:
182,192,240408,1,0,0:0:0:0:
329,192,240408,1,0,0:0:0:0:
182,192,240598,1,0,0:0:0:0:
329,192,240598,1,0,0:0:0:0:
109,192,240788,1,0,0:0:0:0:
402,192,240788,1,0,0:0:0:0:
402,192,240883,1,0,0:0:0:0:
109,192,240883,1,0,0:0:0:0:
182,192,241072,1,0,0:0:0:0:
402,192,241072,1,0,0:0:0:0:
475,192,241167,128,0,241690:0:0:0:0:
36,192,241167,128,0,241879:0:0:0:0:
182,192,241262,1,0,0:0:0:0:
402,192,241262,1,0,0:0:0:0:
329,192,241357,1,0,0:0:0:0:
182,192,241357,1,0,0:0:0:0:
329,192,241547,1,0,0:0:0:0:
109,192,241547,1,0,0:0:0:0:
329,192,241642,1,0,0:0:0:0:
182,192,241642,1,0,0:0:0:0:
256,192,241737,128,0,242212:0:0:0:0:
475,192,241737,128,0,241974:0:0:0:0:
109,192,241832,1,0,0:0:0:0:
402,192,241832,1,0,0:0:0:0:
329,192,241927,1,0,0:0:0:0:
182,192,241927,1,0,0:0:0:0:
36,192,241927,128,0,242022:0:0:0:0:
475,192,242022,128,0,242117:0:0:0:0:
182,192,242117,1,0,0:0:0:0:
329,192,242117,1,0,0:0:0:0:
36,192,242117,128,0,242497:0:0:0:0:
475,192,242212,128,0,242307:0:0:0:0:
329,192,242307,1,0,0:0:0:0:
182,192,242307,1,0,0:0:0:0:
256,192,242307,128,0,242402:0:0:0:0:
329,192,242402,1,0,0:0:0:0:
182,192,242402,1,0,0:0:0:0:
475,192,242402,128,0,242449:0:0:0:0:
256,192,242497,128,0,242639:0:0:0:0:
109,192,242591,1,0,0:0:0:0:
402,192,242591,1,0,0:0:0:0:
475,192,242591,128,0,242829:0:0:0:0:
256,192,242686,128,0,242781:0:0:0:0:
109,192,242781,1,0,0:0:0:0:
402,192,242781,1,0,0:0:0:0:
36,192,242781,128,0,242876:0:0:0:0:
109,192,242876,1,0,0:0:0:0:
402,192,242876,1,0,0:0:0:0:
256,192,242876,128,0,243304:0:0:0:0:
36,192,242971,128,0,243066:0:0:0:0:
182,192,243066,1,0,0:0:0:0:
329,192,243066,1,0,0:0:0:0:
475,192,243066,128,0,243209:0:0:0:0:
109,192,243161,1,0,0:0:0:0:
402,192,243161,1,0,0:0:0:0:
36,192,243161,1,0,0:0:0:0:
475,192,243256,128,0,243398:0:0:0:0:
182,192,243351,1,0,0:0:0:0:
329,192,243351,1,0,0:0:0:0:
36,192,243351,128,0,243588:0:0:0:0:
182,192,243446,1,0,0:0:0:0:
402,192,243446,1,0,0:0:0:0:
256,192,243446,128,0,243541:0:0:0:0:
475,192,243541,128,0,243683:0:0:0:0:
109,192,243636,1,0,0:0:0:0:
329,192,243636,1,0,0:0:0:0:
256,192,243636,128,0,243873:0:0:0:0:
475,192,243731,128,0,243826:0:0:0:0:
329,192,243826,1,0,0:0:0:0:
182,192,243826,1,0,0:0:0:0:
36,192,243826,128,0,244016:0:0:0:0:
109,192,243921,1,0,0:0:0:0:
329,192,243921,1,0,0:0:0:0:
475,192,243921,128,0,244205:0:0:0:0:
256,192,244016,128,0,244110:0:0:0:0:
182,192,244110,1,0,0:0:0:0:
402,192,244110,1,0,0:0:0:0:
36,192,244110,128,0,244253:0:0:0:0:
256,192,244205,128,0,244490:0:0:0:0:
402,192,244300,1,0,0:0:0:0:
109,192,244300,1,0,0:0:0:0:
475,192,244300,128,0,244395:0:0:0:0:
402,192,244395,1,0,0:0:0:0:
182,192,244395,1,0,0:0:0:0:
36,192,244395,128,0,244585:0:0:0:0:
475,192,244490,128,0,244633:0:0:0:0:
182,192,244585,1,0,0:0:0:0:
402,192,244585,1,0,0:0:0:0:
256,192,244585,128,0,244775:0:0:0:0:
182,192,244680,1,0,0:0:0:0:
329,192,244680,1,0,0:0:0:0:
36,192,244680,128,0,244823:0:0:0:0:
475,192,244775,128,0,244870:0:0:0:0:
109,192,244870,1,0,0:0:0:0:
329,192,244870,1,0,0:0:0:0:
256,192,244870,128,0,244965:0:0:0:0:
36,192,244965,1,0,0:0:0:0:
475,192,244965,1,0,0:0:0:0:
182,192,244965,128,0,245677:0:0:0:0:
402,192,244965,128,0,245724:0:0:0:0:
475,192,245155,1,0,0:0:0:0:
36,192,245155,1,0,0:0:0:0:
475,192,245345,1,0,0:0:0:0:
36,192,245345,1,0,0:0:0:0:
475,192,245440,1,0,0:0:0:0:
109,192,245440,1,0,0:0:0:0:
109,192,245629,1,0,0:0:0:0:
475,192,245629,1,0,0:0:0:0:
329,192,245724,128,0,247196:0:0:0:0:
182,192,245724,128,0,246247:0:0:0:0:
402,192,245819,1,0,0:0:0:0:
109,192,245819,1,0,0:0:0:0:
109,192,245914,1,0,0:0:0:0:
475,192,245914,1,0,0:0:0:0:
36,192,246104,1,0,0:0:0:0:
402,192,246104,1,0,0:0:0:0:
109,192,246199,1,0,0:0:0:0:
402,192,246199,1,0,0:0:0:0:
182,192,246294,128,0,247766:0:0:0:0:
256,192,246294,128,0,247196:0:0:0:0:
475,192,246389,1,0,0:0:0:0:
36,192,246389,1,0,0:0:0:0:
109,192,246484,1,0,0:0:0:0:
402,192,246484,1,0,0:0:0:0:
402,192,246674,1,0,0:0:0:0:
109,192,246674,1,0,0:0:0:0:
109,192,246864,1,0,0:0:0:0:
402,192,246864,1,0,0:0:0:0:
475,192,246959,1,0,0:0:0:0:
109,192,246959,1,0,0:0:0:0:
36,192,247148,1,0,0:0:0:0:
402,192,247148,1,0,0:0:0:0:
256,192,247243,128,0,247766:0:0:0:0:
329,192,247243,128,0,248335:0:0:0:0:
36,192,247338,1,0,0:0:0:0:
475,192,247338,1,0,0:0:0:0:
36,192,247433,1,0,0:0:0:0:
402,192,247433,1,0,0:0:0:0:
109,192,247623,1,0,0:0:0:0:
475,192,247623,1,0,0:0:0:0:
475,192,247718,1,0,0:0:0:0:
36,192,247718,1,0,0:0:0:0:
256,192,247813,128,0,248288:0:0:0:0:
182,192,247813,128,0,248098:0:0:0:0:
109,192,247908,1,0,0:0:0:0:
402,192,247908,1,0,0:0:0:0:
475,192,248003,1,0,0:0:0:0:
36,192,248003,1,0,0:0:0:0:
36,192,248193,1,0,0:0:0:0:
475,192,248193,1,0,0:0:0:0:
182,192,248193,128,0,248383:0:0:0:0:
475,192,248383,1,0,0:0:0:0:
36,192,248383,1,0,0:0:0:0:
329,192,248383,128,0,248620:0:0:0:0:
475,192,248478,1,0,0:0:0:0:
36,192,248478,1,0,0:0:0:0:
182,192,248478,128,0,248573:0:0:0:0:
109,192,248667,1,0,0:0:0:0:
402,192,248667,1,0,0:0:0:0:
256,192,248667,128,0,248810:0:0:0:0:
329,192,248762,128,0,248905:0:0:0:0:
36,192,248857,1,0,0:0:0:0:
475,192,248857,1,0,0:0:0:0:
182,192,248857,128,0,249047:0:0:0:0:
109,192,248952,1,0,0:0:0:0:
402,192,248952,1,0,0:0:0:0:
256,192,248952,128,0,249285:0:0:0:0:
329,192,249047,128,0,249142:0:0:0:0:
109,192,249142,1,0,0:0:0:0:
402,192,249142,1,0,0:0:0:0:
182,192,249142,128,0,249237:0:0:0:0:
109,192,249237,1,0,0:0:0:0:
402,192,249237,1,0,0:0:0:0:
329,192,249237,128,0,249380:0:0:0:0:
182,192,249332,128,0,249522:0:0:0:0:
475,192,249427,1,0,0:0:0:0:
36,192,249427,1,0,0:0:0:0:
256,192,249427,128,0,249664:0:0:0:0:
109,192,249522,1,0,0:0:0:0:
402,192,249522,1,0,0:0:0:0:
329,192,249522,128,0,249617:0:0:0:0:
182,192,249617,128,0,249902:0:0:0:0:
402,192,249712,1,0,0:0:0:0:
109,192,249712,1,0,0:0:0:0:
329,192,249712,128,0,249807:0:0:0:0:
256,192,249807,128,0,250139:0:0:0:0:
475,192,249902,1,0,0:0:0:0:
109,192,249902,1,0,0:0:0:0:
329,192,249902,128,0,249997:0:0:0:0:
475,192,249997,1,0,0:0:0:0:
36,192,249997,1,0,0:0:0:0:
182,192,249997,128,0,250092:0:0:0:0:
329,192,250092,128,0,250329:0:0:0:0:
36,192,250186,1,0,0:0:0:0:
475,192,250186,1,0,0:0:0:0:
182,192,250186,128,0,250281:0:0:0:0:
256,192,250281,128,0,250471:0:0:0:0:
475,192,250376,1,0,0:0:0:0:
36,192,250376,1,0,0:0:0:0:
182,192,250376,128,0,250566:0:0:0:0:
36,192,250471,1,0,0:0:0:0:
402,192,250471,1,0,0:0:0:0:
329,192,250471,128,0,250614:0:0:0:0:
256,192,250566,128,0,250756:0:0:0:0:
109,192,250661,1,0,0:0:0:0:
402,192,250661,1,0,0:0:0:0:
182,192,250661,128,0,250899:0:0:0:0:
475,192,250756,1,0,0:0:0:0:
109,192,250756,1,0,0:0:0:0:
329,192,250756,128,0,250851:0:0:0:0:
256,192,250851,128,0,250946:0:0:0:0:
402,192,250946,1,0,0:0:0:0:
329,192,250946,128,0,252133:0:0:0:0:
109,192,250946,1,0,0:0:0:0:
475,192,251041,128,0,251183:0:0:0:0:
402,192,251041,128,0,251373:0:0:0:0:
256,192,251041,128,0,254031:0:0:0:0:
182,192,251041,128,0,251183:0:0:0:0:
36,192,251041,128,0,252133:0:0:0:0:
109,192,251041,128,0,251373:0:0:0:0:
475,192,251231,128,0,251468:0:0:0:0:
182,192,251231,128,0,251468:0:0:0:0:
402,192,251421,128,0,251658:0:0:0:0:
109,192,251421,128,0,251658:0:0:0:0:
182,192,251516,128,0,252512:0:0:0:0:
475,192,251516,128,0,252512:0:0:0:0:
402,192,251706,128,0,251848:0:0:0:0:
109,192,251706,128,0,251848:0:0:0:0:
402,192,251895,128,0,251943:0:0:0:0:
109,192,251895,128,0,251943:0:0:0:0:
402,192,251990,128,0,252228:0:0:0:0:
109,192,251990,128,0,252228:0:0:0:0:
329,192,252180,128,0,252418:0:0:0:0:
36,192,252180,128,0,252418:0:0:0:0:
109,192,252275,128,0,252892:0:0:0:0:
402,192,252275,128,0,252892:0:0:0:0:
329,192,252465,128,0,253652:0:0:0:0:
36,192,252465,128,0,253652:0:0:0:0:
475,192,252560,128,0,252702:0:0:0:0:
182,192,252560,128,0,252702:0:0:0:0:
475,192,252750,128,0,252987:0:0:0:0:
182,192,252750,128,0,252987:0:0:0:0:
109,192,252940,128,0,253177:0:0:0:0:
402,192,252940,128,0,253177:0:0:0:0:
182,192,253035,128,0,254031:0:0:0:0:
475,192,253035,128,0,254031:0:0:0:0:
402,192,253225,128,0,253367:0:0:0:0:
109,192,253225,128,0,253367:0:0:0:0:
402,192,253414,128,0,253462:0:0:0:0:
109,192,253414,128,0,253462:0:0:0:0:
402,192,253509,128,0,253747:0:0:0:0:
109,192,253509,128,0,253747:0:0:0:0:
36,192,253699,128,0,253937:0:0:0:0:
329,192,253699,128,0,253937:0:0:0:0:
109,192,253794,128,0,254411:0:0:0:0:
402,192,253794,128,0,254126:0:0:0:0:
329,192,253984,128,0,254316:0:0:0:0:
36,192,253984,128,0,254506:0:0:0:0:
182,192,254079,128,0,254221:0:0:0:0:
256,192,254079,128,0,254221:0:0:0:0:
475,192,254079,128,0,254221:0:0:0:0:
402,192,254174,128,0,254411:0:0:0:0:
475,192,254269,128,0,254506:0:0:0:0:
256,192,254269,128,0,254411:0:0:0:0:
182,192,254269,128,0,254506:0:0:0:0:
329,192,254364,128,0,254696:0:0:0:0:
402,192,254459,128,0,254696:0:0:0:0:
256,192,254459,128,0,254601:0:0:0:0:
109,192,254459,128,0,254696:0:0:0:0:
475,192,254554,128,0,255076:0:0:0:0:
182,192,254554,128,0,254886:0:0:0:0:
36,192,254554,128,0,255171:0:0:0:0:
256,192,254649,128,0,254791:0:0:0:0:
109,192,254744,128,0,254886:0:0:0:0:
329,192,254744,128,0,255171:0:0:0:0:
402,192,254744,128,0,254886:0:0:0:0:
256,192,254838,128,0,254981:0:0:0:0:
402,192,254933,128,0,254981:0:0:0:0:
182,192,254933,128,0,255266:0:0:0:0:
109,192,254933,128,0,254981:0:0:0:0:
109,192,255028,128,0,255266:0:0:0:0:
256,192,255028,128,0,255171:0:0:0:0:
402,192,255028,128,0,255266:0:0:0:0:
475,192,255123,128,0,255645:0:0:0:0:
329,192,255218,128,0,255456:0:0:0:0:
256,192,255218,128,0,255361:0:0:0:0:
36,192,255218,128,0,255456:0:0:0:0:
402,192,255313,128,0,255550:0:0:0:0:
182,192,255313,128,0,255456:0:0:0:0:
109,192,255313,128,0,255550:0:0:0:0:
256,192,255408,128,0,255550:0:0:0:0:
329,192,255503,128,0,255930:0:0:0:0:
182,192,255503,128,0,255835:0:0:0:0:
36,192,255503,128,0,255930:0:0:0:0:
402,192,255598,128,0,255740:0:0:0:0:
109,192,255598,128,0,255740:0:0:0:0:
256,192,255598,128,0,255740:0:0:0:0:
475,192,255693,128,0,256215:0:0:0:0:
109,192,255788,128,0,256025:0:0:0:0:
402,192,255788,128,0,256025:0:0:0:0:
256,192,255788,128,0,255930:0:0:0:0:
182,192,255883,128,0,256025:0:0:0:0:
36,192,255978,128,0,256215:0:0:0:0:
329,192,255978,128,0,256405:0:0:0:0:
256,192,255978,128,0,256120:0:0:0:0:
402,192,256073,128,0,256405:0:0:0:0:
182,192,256073,128,0,256215:0:0:0:0:
109,192,256073,128,0,256405:0:0:0:0:
256,192,256168,128,0,256310:0:0:0:0:
475,192,256263,128,0,256595:0:0:0:0:
36,192,256263,128,0,256690:0:0:0:0:
182,192,256263,128,0,256785:0:0:0:0:
256,192,256357,128,0,256500:0:0:0:0:
329,192,256452,128,0,256690:0:0:0:0:
402,192,256452,128,0,256500:0:0:0:0:
109,192,256452,128,0,256500:0:0:0:0:
109,192,256547,128,0,256975:0:0:0:0:
256,192,256547,128,0,256690:0:0:0:0:
402,192,256547,128,0,256975:0:0:0:0:
475,192,256642,128,0,257069:0:0:0:0:
329,192,256737,128,0,256785:0:0:0:0:
256,192,256737,128,0,256880:0:0:0:0:
36,192,256737,128,0,256785:0:0:0:0:
329,192,256832,128,0,256975:0:0:0:0:
182,192,256832,128,0,257069:0:0:0:0:
36,192,256832,128,0,258209:0:0:0:0:
256,192,256927,128,0,261626:0:0:0:0:
402,192,257022,128,0,257449:0:0:0:0:
329,192,257022,128,0,258209:0:0:0:0:
109,192,257022,128,0,257449:0:0:0:0:
475,192,257117,128,0,257259:0:0:0:0:
182,192,257117,128,0,257259:0:0:0:0:
475,192,257307,128,0,257544:0:0:0:0:
182,192,257307,128,0,257544:0:0:0:0:
109,192,257497,128,0,257734:0:0:0:0:
402,192,257497,128,0,257734:0:0:0:0:
475,192,257592,128,0,258588:0:0:0:0:
182,192,257592,128,0,258588:0:0:0:0:
109,192,257782,128,0,257924:0:0:0:0:
402,192,257782,128,0,257924:0:0:0:0:
402,192,257971,128,0,258019:0:0:0:0:
109,192,257971,128,0,258019:0:0:0:0:
402,192,258066,128,0,258304:0:0:0:0:
109,192,258066,128,0,258304:0:0:0:0:
36,192,258256,128,0,258494:0:0:0:0:
329,192,258256,128,0,258494:0:0:0:0:
109,192,258351,128,0,258968:0:0:0:0:
402,192,258351,128,0,258968:0:0:0:0:
329,192,258541,128,0,259728:0:0:0:0:
36,192,258541,128,0,259728:0:0:0:0:
182,192,258636,128,0,258778:0:0:0:0:
475,192,258636,128,0,258778:0:0:0:0:
475,192,258826,128,0,259063:0:0:0:0:
182,192,258826,128,0,259063:0:0:0:0:
402,192,259016,128,0,259253:0:0:0:0:
109,192,259016,128,0,259253:0:0:0:0:
475,192,259111,128,0,260107:0:0:0:0:
182,192,259111,128,0,260107:0:0:0:0:
402,192,259301,128,0,259443:0:0:0:0:
109,192,259301,128,0,259443:0:0:0:0:
109,192,259490,128,0,259538:0:0:0:0:
402,192,259490,128,0,259538:0:0:0:0:
402,192,259585,128,0,259823:0:0:0:0:
109,192,259585,128,0,259823:0:0:0:0:
36,192,259775,128,0,260013:0:0:0:0:
329,192,259775,128,0,260013:0:0:0:0:
402,192,259870,128,0,260487:0:0:0:0:
109,192,259870,128,0,260487:0:0:0:0:
329,192,260060,128,0,261247:0:0:0:0:
36,192,260060,128,0,261247:0:0:0:0:
182,192,260155,128,0,260297:0:0:0:0:
475,192,260155,128,0,260297:0:0:0:0:
475,192,260345,128,0,260582:0:0:0:0:
182,192,260345,128,0,260582:0:0:0:0:
109,192,260535,128,0,260772:0:0:0:0:
402,192,260535,128,0,260772:0:0:0:0:
475,192,260630,128,0,261911:0:0:0:0:
182,192,260630,128,0,261721:0:0:0:0:
402,192,260820,128,0,260962:0:0:0:0:
109,192,260820,128,0,260962:0:0:0:0:
109,192,261009,128,0,261057:0:0:0:0:
402,192,261009,128,0,261057:0:0:0:0:
402,192,261104,128,0,261342:0:0:0:0:
109,192,261104,128,0,261342:0:0:0:0:
329,192,261294,128,0,261532:0:0:0:0:
36,192,261294,128,0,261532:0:0:0:0:
402,192,261389,128,0,261626:0:0:0:0:
109,192,261389,128,0,261626:0:0:0:0:
329,192,261579,128,0,262006:0:0:0:0:
36,192,261579,128,0,262006:0:0:0:0:
402,192,261674,128,0,261816:0:0:0:0:
256,192,261674,128,0,261816:0:0:0:0:
109,192,261674,128,0,261816:0:0:0:0:
182,192,261769,128,0,262101:0:0:0:0:
109,192,261864,128,0,262101:0:0:0:0:
256,192,261864,128,0,262006:0:0:0:0:
402,192,261864,128,0,262101:0:0:0:0:
475,192,261959,128,0,262481:0:0:0:0:
329,192,262054,128,0,262481:0:0:0:0:
256,192,262054,128,0,262196:0:0:0:0:
36,192,262054,128,0,262291:0:0:0:0:
402,192,262149,128,0,262291:0:0:0:0:
182,192,262149,128,0,262861:0:0:0:0:
109,192,262149,128,0,262291:0:0:0:0:
256,192,262244,128,0,262386:0:0:0:0:
36,192,262339,128,0,262481:0:0:0:0:
109,192,262339,128,0,263145:0:0:0:0:
402,192,262339,128,0,262671:0:0:0:0:
256,192,262433,128,0,262576:0:0:0:0:
329,192,262528,128,0,262576:0:0:0:0:
475,192,262528,128,0,263051:0:0:0:0:
36,192,262528,128,0,262576:0:0:0:0:
329,192,262623,128,0,262766:0:0:0:0:
256,192,262623,128,0,262766:0:0:0:0:
36,192,262623,128,0,262766:0:0:0:0:
402,192,262718,128,0,263145:0:0:0:0:
36,192,262813,128,0,262861:0:0:0:0:
256,192,262813,128,0,262956:0:0:0:0:
329,192,262813,128,0,262861:0:0:0:0:
36,192,262908,128,0,263051:0:0:0:0:
329,192,262908,128,0,263051:0:0:0:0:
182,192,262908,128,0,263145:0:0:0:0:
256,192,263003,128,0,263145:0:0:0:0:
329,192,263098,128,0,263193:0:0:0:0:
475,192,263098,128,0,263193:0:0:0:0:
36,192,263098,128,0,263193:0:0:0:0:
256,192,263193,1,0,0:0:0:0:
109,192,263193,1,0,0:0:0:0:
402,192,263193,1,0,0:0:0:0:
182,192,263193,128,0,263383:0:0:0:0:
36,192,263288,128,0,263478:0:0:0:0:
402,192,263383,1,0,0:0:0:0:
329,192,263383,128,0,263573:0:0:0:0:
182,192,263478,128,0,263668:0:0:0:0:
475,192,263573,1,0,0:0:0:0:
109,192,263573,1,0,0:0:0:0:
256,192,263573,128,0,263763:0:0:0:0:
329,192,263668,1,0,0:0:0:0:
402,192,263668,128,0,263858:0:0:0:0:
475,192,263763,128,0,263952:0:0:0:0:
256,192,263858,1,0,0:0:0:0:
182,192,263858,128,0,264047:0:0:0:0:
402,192,263952,1,0,0:0:0:0:
329,192,263952,128,0,264142:0:0:0:0:
256,192,264047,1,0,0:0:0:0:
109,192,264047,128,0,264237:0:0:0:0:
256,192,264142,1,0,0:0:0:0:
182,192,264142,128,0,264332:0:0:0:0:
36,192,264237,128,0,264427:0:0:0:0:
256,192,264332,1,0,0:0:0:0:
109,192,264332,1,0,0:0:0:0:
329,192,264332,128,0,264522:0:0:0:0:
256,192,264427,1,0,0:0:0:0:
475,192,264427,128,0,264617:0:0:0:0:
109,192,264522,1,0,0:0:0:0:
36,192,264522,128,0,264712:0:0:0:0:
109,192,264617,1,0,0:0:0:0:
329,192,264617,128,0,264807:0:0:0:0:
256,192,264712,1,0,0:0:0:0:
402,192,264712,1,0,0:0:0:0:
182,192,264712,128,0,264902:0:0:0:0:
36,192,264807,128,0,264997:0:0:0:0:
329,192,264902,1,0,0:0:0:0:
256,192,264902,128,0,265092:0:0:0:0:
182,192,264997,128,0,265187:0:0:0:0:
475,192,265092,1,0,0:0:0:0:
109,192,265092,1,0,0:0:0:0:
36,192,265092,128,0,265282:0:0:0:0:
256,192,265187,1,0,0:0:0:0:
329,192,265187,128,0,265377:0:0:0:0:
475,192,265282,128,0,265471:0:0:0:0:
402,192,265377,1,0,0:0:0:0:
182,192,265377,128,0,265566:0:0:0:0:
109,192,265471,1,0,0:0:0:0:
329,192,265471,128,0,265661:0:0:0:0:
402,192,265566,1,0,0:0:0:0:
36,192,265566,128,0,265756:0:0:0:0:
402,192,265661,1,0,0:0:0:0:
182,192,265661,128,0,265851:0:0:0:0:
475,192,265756,128,0,265946:0:0:0:0:
256,192,265851,1,0,0:0:0:0:
109,192,265851,1,0,0:0:0:0:
329,192,265851,128,0,266041:0:0:0:0:
256,192,265946,1,0,0:0:0:0:
36,192,265946,128,0,266136:0:0:0:0:
182,192,266041,128,0,266231:0:0:0:0:
256,192,266136,1,0,0:0:0:0:
475,192,266136,128,0,266231:0:0:0:0:
402,192,266231,1,0,0:0:0:0:
329,192,266231,1,0,0:0:0:0:
109,192,266231,128,0,266326:0:0:0:0:
36,192,266231,128,0,266373:0:0:0:0:
256,192,266326,128,0,266421:0:0:0:0:
475,192,266326,128,0,266468:0:0:0:0:
402,192,266421,1,0,0:0:0:0:
329,192,266421,128,0,266516:0:0:0:0:
109,192,266421,128,0,266563:0:0:0:0:
182,192,266516,128,0,266611:0:0:0:0:
36,192,266516,128,0,266658:0:0:0:0:
475,192,266611,1,0,0:0:0:0:
109,192,266611,1,0,0:0:0:0:
256,192,266611,128,0,266706:0:0:0:0:
402,192,266611,128,0,266848:0:0:0:0:
36,192,266706,1,0,0:0:0:0:
329,192,266706,128,0,266801:0:0:0:0:
182,192,266706,128,0,266801:0:0:0:0:
475,192,266801,128,0,266896:0:0:0:0:
109,192,266801,128,0,266896:0:0:0:0:
36,192,266896,1,0,0:0:0:0:
182,192,266896,128,0,266990:0:0:0:0:
256,192,266896,128,0,267038:0:0:0:0:
402,192,266990,1,0,0:0:0:0:
329,192,266990,128,0,267085:0:0:0:0:
109,192,266990,128,0,267228:0:0:0:0:
256,192,267085,1,0,0:0:0:0:
475,192,267085,128,0,267180:0:0:0:0:
36,192,267085,128,0,267275:0:0:0:0:
256,192,267180,1,0,0:0:0:0:
182,192,267180,128,0,267275:0:0:0:0:
402,192,267180,128,0,267275:0:0:0:0:
329,192,267275,128,0,267370:0:0:0:0:
475,192,267275,128,0,267418:0:0:0:0:
36,192,267370,1,0,0:0:0:0:
182,192,267370,1,0,0:0:0:0:
402,192,267370,128,0,267465:0:0:0:0:
109,192,267370,128,0,267513:0:0:0:0:
475,192,267465,1,0,0:0:0:0:
329,192,267465,128,0,267560:0:0:0:0:
256,192,267465,128,0,267608:0:0:0:0:
36,192,267560,128,0,267655:0:0:0:0:
182,192,267560,128,0,267703:0:0:0:0:
329,192,267655,1,0,0:0:0:0:
109,192,267655,128,0,267750:0:0:0:0:
475,192,267655,128,0,267797:0:0:0:0:
402,192,267750,1,0,0:0:0:0:
182,192,267750,1,0,0:0:0:0:
256,192,267750,128,0,267845:0:0:0:0:
36,192,267750,128,0,267892:0:0:0:0:
329,192,267845,128,0,267940:0:0:0:0:
475,192,267845,128,0,267987:0:0:0:0:
402,192,267940,128,0,268035:0:0:0:0:
182,192,267940,1,0,0:0:0:0:
109,192,267940,128,0,268082:0:0:0:0:
475,192,268035,1,0,0:0:0:0:
36,192,268035,128,0,268130:0:0:0:0:
109,192,268130,1,0,0:0:0:0:
182,192,268130,128,0,268225:0:0:0:0:
329,192,268130,1,0,0:0:0:0:
402,192,268130,128,0,268272:0:0:0:0:
475,192,268225,1,0,0:0:0:0:
256,192,268225,128,0,268320:0:0:0:0:
36,192,268225,128,0,268367:0:0:0:0:
329,192,268320,128,0,268415:0:0:0:0:
182,192,268320,128,0,268462:0:0:0:0:
402,192,268415,1,0,0:0:0:0:
475,192,268415,128,0,268509:0:0:0:0:
109,192,268415,128,0,268557:0:0:0:0:
36,192,268509,1,0,0:0:0:0:
256,192,268509,128,0,268604:0:0:0:0:
329,192,268509,128,0,268652:0:0:0:0:
109,192,268604,1,0,0:0:0:0:
402,192,268604,128,0,268699:0:0:0:0:
182,192,268604,128,0,268747:0:0:0:0:
256,192,268699,1,0,0:0:0:0:
36,192,268699,128,0,268794:0:0:0:0:
475,192,268699,128,0,268842:0:0:0:0:
182,192,268794,128,0,268889:0:0:0:0:
329,192,268794,128,0,268937:0:0:0:0:
36,192,268889,1,0,0:0:0:0:
475,192,268889,1,0,0:0:0:0:
402,192,268889,128,0,268984:0:0:0:0:
109,192,268889,128,0,269032:0:0:0:0:
329,192,268984,1,0,0:0:0:0:
256,192,268984,128,0,269079:0:0:0:0:
182,192,268984,128,0,269127:0:0:0:0:
402,192,269079,128,0,269174:0:0:0:0:
36,192,269079,128,0,269222:0:0:0:0:
109,192,269174,1,0,0:0:0:0:
475,192,269174,128,0,269269:0:0:0:0:
256,192,269174,128,0,269269:0:0:0:0:
182,192,269269,1,0,0:0:0:0:
402,192,269269,1,0,0:0:0:0:
36,192,269269,1,0,0:0:0:0:
329,192,269269,128,0,269459:0:0:0:0:
109,192,269364,128,0,269554:0:0:0:0:
402,192,269459,1,0,0:0:0:0:
182,192,269459,128,0,269649:0:0:0:0:
475,192,269554,128,0,269744:0:0:0:0:
256,192,269649,1,0,0:0:0:0:
109,192,269649,1,0,0:0:0:0:
329,192,269649,128,0,269839:0:0:0:0:
402,192,269744,1,0,0:0:0:0:
36,192,269744,128,0,269934:0:0:0:0:
182,192,269839,128,0,270028:0:0:0:0:
475,192,269934,1,0,0:0:0:0:
256,192,269934,128,0,270123:0:0:0:0:
329,192,270028,1,0,0:0:0:0:
402,192,270028,128,0,270218:0:0:0:0:
109,192,270123,1,0,0:0:0:0:
475,192,270123,128,0,270313:0:0:0:0:
109,192,270218,1,0,0:0:0:0:
329,192,270218,128,0,270408:0:0:0:0:
36,192,270313,128,0,270503:0:0:0:0:
256,192,270408,1,0,0:0:0:0:
402,192,270408,1,0,0:0:0:0:
182,192,270408,128,0,270598:0:0:0:0:
256,192,270503,1,0,0:0:0:0:
475,192,270503,128,0,270693:0:0:0:0:
329,192,270598,128,0,270788:0:0:0:0:
36,192,270693,1,0,0:0:0:0:
109,192,270693,128,0,270883:0:0:0:0:
182,192,270788,1,0,0:0:0:0:
402,192,270788,1,0,0:0:0:0:
475,192,270788,1,0,0:0:0:0:
256,192,270788,128,0,270978:0:0:0:0:
329,192,270883,128,0,271073:0:0:0:0:
182,192,270978,1,0,0:0:0:0:
402,192,270978,128,0,271168:0:0:0:0:
109,192,271073,128,0,271263:0:0:0:0:
36,192,271168,1,0,0:0:0:0:
182,192,271168,1,0,0:0:0:0:
256,192,271168,128,0,271358:0:0:0:0:
475,192,271263,1,0,0:0:0:0:
402,192,271263,128,0,271453:0:0:0:0:
36,192,271358,128,0,271547:0:0:0:0:
109,192,271453,1,0,0:0:0:0:
475,192,271453,128,0,271642:0:0:0:0:
402,192,271547,1,0,0:0:0:0:
182,192,271547,128,0,271737:0:0:0:0:
256,192,271642,1,0,0:0:0:0:
329,192,271642,128,0,271832:0:0:0:0:
256,192,271737,1,0,0:0:0:0:
36,192,271737,128,0,271927:0:0:0:0:
475,192,271832,128,0,272022:0:0:0:0:
109,192,271927,1,0,0:0:0:0:
402,192,271927,1,0,0:0:0:0:
182,192,271927,128,0,272117:0:0:0:0:
109,192,272022,1,0,0:0:0:0:
329,192,272022,128,0,272212:0:0:0:0:
36,192,272117,128,0,272307:0:0:0:0:
256,192,272212,1,0,0:0:0:0:
475,192,272212,128,0,272307:0:0:0:0:
402,192,272307,1,0,0:0:0:0:
109,192,272307,1,0,0:0:0:0:
182,192,272307,128,0,272402:0:0:0:0:
329,192,272307,128,0,272449:0:0:0:0:
256,192,272402,128,0,272497:0:0:0:0:
36,192,272402,128,0,272544:0:0:0:0:
329,192,272497,1,0,0:0:0:0:
402,192,272497,128,0,272592:0:0:0:0:
475,192,272497,128,0,272639:0:0:0:0:
36,192,272592,128,0,272687:0:0:0:0:
182,192,272592,128,0,272734:0:0:0:0:
475,192,272687,1,0,0:0:0:0:
109,192,272687,1,0,0:0:0:0:
256,192,272687,128,0,272782:0:0:0:0:
329,192,272687,128,0,272829:0:0:0:0:
182,192,272782,1,0,0:0:0:0:
402,192,272782,128,0,272877:0:0:0:0:
36,192,272782,128,0,272924:0:0:0:0:
475,192,272877,128,0,272972:0:0:0:0:
256,192,272877,128,0,273019:0:0:0:0:
36,192,272972,1,0,0:0:0:0:
109,192,272972,128,0,273066:0:0:0:0:
329,192,272972,128,0,273114:0:0:0:0:
402,192,273066,1,0,0:0:0:0:
182,192,273066,128,0,273161:0:0:0:0:
475,192,273066,128,0,273209:0:0:0:0:
256,192,273161,1,0,0:0:0:0:
329,192,273161,128,0,273256:0:0:0:0:
109,192,273161,128,0,273304:0:0:0:0:
256,192,273256,1,0,0:0:0:0:
36,192,273256,128,0,273351:0:0:0:0:
402,192,273256,128,0,273399:0:0:0:0:
182,192,273351,128,0,273446:0:0:0:0:
475,192,273351,128,0,273494:0:0:0:0:
109,192,273446,1,0,0:0:0:0:
256,192,273446,1,0,0:0:0:0:
402,192,273446,128,0,273541:0:0:0:0:
36,192,273446,128,0,273589:0:0:0:0:
109,192,273541,1,0,0:0:0:0:
475,192,273541,128,0,273636:0:0:0:0:
329,192,273541,128,0,273684:0:0:0:0:
182,192,273636,128,0,273731:0:0:0:0:
36,192,273636,128,0,273779:0:0:0:0:
256,192,273731,1,0,0:0:0:0:
329,192,273731,128,0,273826:0:0:0:0:
475,192,273731,128,0,273873:0:0:0:0:
182,192,273826,1,0,0:0:0:0:
36,192,273826,1,0,0:0:0:0:
402,192,273826,128,0,273921:0:0:0:0:
109,192,273826,128,0,273968:0:0:0:0:
256,192,273921,128,0,274016:0:0:0:0:
329,192,273921,128,0,274063:0:0:0:0:
402,192,274016,1,0,0:0:0:0:
182,192,274016,128,0,274111:0:0:0:0:
36,192,274016,128,0,274158:0:0:0:0:
475,192,274111,128,0,274206:0:0:0:0:
329,192,274111,128,0,274206:0:0:0:0:
182,192,274206,1,0,0:0:0:0:
109,192,274206,1,0,0:0:0:0:
402,192,274206,1,0,0:0:0:0:
329,192,274253,1,0,0:0:0:0:
36,192,274253,1,0,0:0:0:0:
475,192,274301,1,0,0:0:0:0:
256,192,274301,1,0,0:0:0:0:
109,192,274301,1,0,0:0:0:0:
402,192,274301,1,0,0:0:0:0:
182,192,274348,1,0,0:0:0:0:
329,192,274348,1,0,0:0:0:0:
36,192,274396,1,0,0:0:0:0:
109,192,274396,1,0,0:0:0:0:
475,192,274491,1,0,0:0:0:0:
402,192,274491,1,0,0:0:0:0:
329,192,274491,1,0,0:0:0:0:
182,192,274491,1,0,0:0:0:0:
256,192,274491,1,0,0:0:0:0:
109,192,274680,1,0,0:0:0:0:
329,192,274680,1,0,0:0:0:0:
256,192,274680,128,0,274775:0:0:0:0:
475,192,274680,128,0,274775:0:0:0:0:
36,192,274775,1,0,0:0:0:0:
109,192,274775,1,0,0:0:0:0:
182,192,274775,1,0,0:0:0:0:
329,192,274775,1,0,0:0:0:0:
402,192,274775,1,0,0:0:0:0:
329,192,274965,1,0,0:0:0:0:
256,192,274965,1,0,0:0:0:0:
475,192,274965,1,0,0:0:0:0:
402,192,274965,128,0,275060:0:0:0:0:
109,192,275060,1,0,0:0:0:0:
182,192,275060,128,0,275155:0:0:0:0:
36,192,275155,1,0,0:0:0:0:
402,192,275155,1,0,0:0:0:0:
256,192,275155,1,0,0:0:0:0:
329,192,275155,128,0,275250:0:0:0:0:
475,192,275250,128,0,275345:0:0:0:0:
402,192,275345,1,0,0:0:0:0:
109,192,275345,1,0,0:0:0:0:
256,192,275345,1,0,0:0:0:0:
329,192,275345,128,0,275487:0:0:0:0:
182,192,275345,128,0,275392:0:0:0:0:
36,192,275440,128,0,275582:0:0:0:0:
475,192,275535,1,0,0:0:0:0:
256,192,275535,128,0,275582:0:0:0:0:
402,192,275535,128,0,275677:0:0:0:0:
109,192,275630,128,0,275772:0:0:0:0:
36,192,275725,1,0,0:0:0:0:
256,192,275725,1,0,0:0:0:0:
402,192,275725,1,0,0:0:0:0:
329,192,275725,128,0,275772:0:0:0:0:
475,192,275725,128,0,275867:0:0:0:0:
182,192,275820,128,0,275867:0:0:0:0:
36,192,275820,128,0,275962:0:0:0:0:
109,192,275915,1,0,0:0:0:0:
329,192,275915,128,0,275962:0:0:0:0:
402,192,275915,128,0,276057:0:0:0:0:
256,192,276010,128,0,276152:0:0:0:0:
182,192,276010,128,0,276057:0:0:0:0:
36,192,276104,1,0,0:0:0:0:
109,192,276104,128,0,276247:0:0:0:0:
329,192,276104,128,0,276152:0:0:0:0:
475,192,276199,1,0,0:0:0:0:
402,192,276199,128,0,276342:0:0:0:0:
475,192,276294,1,0,0:0:0:0:
256,192,276294,128,0,276342:0:0:0:0:
109,192,276294,128,0,276437:0:0:0:0:
402,192,276389,128,0,276532:0:0:0:0:
475,192,276484,1,0,0:0:0:0:
109,192,276484,1,0,0:0:0:0:
256,192,276484,1,0,0:0:0:0:
182,192,276484,128,0,276627:0:0:0:0:
36,192,276484,128,0,276532:0:0:0:0:
256,192,276579,1,0,0:0:0:0:
329,192,276579,128,0,276722:0:0:0:0:
182,192,276674,1,0,0:0:0:0:
109,192,276674,128,0,276722:0:0:0:0:
402,192,276674,128,0,276817:0:0:0:0:
36,192,276769,128,0,276817:0:0:0:0:
256,192,276769,128,0,276911:0:0:0:0:
182,192,276864,1,0,0:0:0:0:
329,192,276864,1,0,0:0:0:0:
475,192,276864,128,0,276911:0:0:0:0:
109,192,276864,128,0,277006:0:0:0:0:
36,192,276959,128,0,277101:0:0:0:0:
182,192,277054,1,0,0:0:0:0:
256,192,277054,128,0,277101:0:0:0:0:
402,192,277054,128,0,277196:0:0:0:0:
109,192,277149,128,0,277291:0:0:0:0:
329,192,277244,1,0,0:0:0:0:
36,192,277244,1,0,0:0:0:0:
402,192,277244,1,0,0:0:0:0:
475,192,277244,128,0,277291:0:0:0:0:
256,192,277244,128,0,277386:0:0:0:0:
182,192,277339,128,0,277481:0:0:0:0:
329,192,277339,1,0,0:0:0:0:
402,192,277434,1,0,0:0:0:0:
475,192,277434,128,0,277481:0:0:0:0:
109,192,277434,128,0,277576:0:0:0:0:
256,192,277529,128,0,277576:0:0:0:0:
182,192,277529,128,0,277671:0:0:0:0:
36,192,277623,1,0,0:0:0:0:
402,192,277623,128,0,277671:0:0:0:0:
329,192,277623,128,0,277766:0:0:0:0:
182,192,277718,1,0,0:0:0:0:
475,192,277718,128,0,277861:0:0:0:0:
182,192,277813,1,0,0:0:0:0:
109,192,277813,128,0,277956:0:0:0:0:
256,192,277813,128,0,277861:0:0:0:0:
402,192,277908,128,0,278051:0:0:0:0:
36,192,278003,1,0,0:0:0:0:
475,192,278003,1,0,0:0:0:0:
109,192,278003,1,0,0:0:0:0:
182,192,278003,128,0,278051:0:0:0:0:
256,192,278003,128,0,278146:0:0:0:0:
36,192,278098,1,0,0:0:0:0:
329,192,278098,128,0,278241:0:0:0:0:
402,192,278193,1,0,0:0:0:0:
182,192,278193,128,0,278336:0:0:0:0:
109,192,278193,128,0,278241:0:0:0:0:
256,192,278288,1,0,0:0:0:0:
329,192,278288,128,0,278336:0:0:0:0:
36,192,278383,1,0,0:0:0:0:
475,192,278383,1,0,0:0:0:0:
402,192,278383,128,0,278525:0:0:0:0:
182,192,278383,128,0,278478:0:0:0:0:
109,192,278478,128,0,278620:0:0:0:0:
256,192,278478,128,0,278525:0:0:0:0:
182,192,278573,1,0,0:0:0:0:
329,192,278573,128,0,278715:0:0:0:0:
475,192,278573,128,0,278620:0:0:0:0:
36,192,278573,128,0,278668:0:0:0:0:
256,192,278668,128,0,278810:0:0:0:0:
402,192,278668,128,0,278715:0:0:0:0:
329,192,278763,1,0,0:0:0:0:
109,192,278763,1,0,0:0:0:0:
36,192,278763,128,0,278905:0:0:0:0:
182,192,278763,128,0,278810:0:0:0:0:
475,192,278763,128,0,278858:0:0:0:0:
402,192,278858,128,0,279000:0:0:0:0:
256,192,278858,128,0,278953:0:0:0:0:
109,192,278858,1,0,0:0:0:0:
475,192,278953,1,0,0:0:0:0:
182,192,278953,128,0,279095:0:0:0:0:
329,192,278953,128,0,279000:0:0:0:0:
36,192,278953,128,0,279048:0:0:0:0:
256,192,279048,128,0,279190:0:0:0:0:
402,192,279048,128,0,279095:0:0:0:0:
109,192,279048,128,0,279142:0:0:0:0:
182,192,279142,1,0,0:0:0:0:
36,192,279142,128,0,279285:0:0:0:0:
475,192,279142,128,0,279190:0:0:0:0:
329,192,279142,128,0,279237:0:0:0:0:
402,192,279237,1,0,0:0:0:0:
256,192,279237,128,0,279380:0:0:0:0:
109,192,279237,128,0,279285:0:0:0:0:
402,192,279332,1,0,0:0:0:0:
329,192,279332,128,0,279475:0:0:0:0:
36,192,279332,128,0,279380:0:0:0:0:
182,192,279332,128,0,279427:0:0:0:0:
109,192,279427,128,0,279570:0:0:0:0:
256,192,279427,128,0,279475:0:0:0:0:
36,192,279522,1,0,0:0:0:0:
402,192,279522,1,0,0:0:0:0:
475,192,279522,128,0,279665:0:0:0:0:
182,192,279522,128,0,279570:0:0:0:0:
329,192,279522,128,0,279617:0:0:0:0:
256,192,279617,128,0,279760:0:0:0:0:
109,192,279617,128,0,279665:0:0:0:0:
402,192,279617,1,0,0:0:0:0:
475,192,279712,1,0,0:0:0:0:
36,192,279712,128,0,279855:0:0:0:0:
329,192,279712,128,0,279760:0:0:0:0:
182,192,279712,128,0,279807:0:0:0:0:
402,192,279807,128,0,279949:0:0:0:0:
256,192,279807,128,0,279855:0:0:0:0:
109,192,279807,128,0,279902:0:0:0:0:
36,192,279902,1,0,0:0:0:0:
182,192,279902,128,0,280044:0:0:0:0:
329,192,279902,128,0,279949:0:0:0:0:
475,192,279902,128,0,279997:0:0:0:0:
256,192,279997,128,0,280139:0:0:0:0:
402,192,279997,128,0,280044:0:0:0:0:
475,192,280092,1,0,0:0:0:0:
329,192,280092,128,0,280234:0:0:0:0:
109,192,280092,128,0,280139:0:0:0:0:
182,192,280092,128,0,280187:0:0:0:0:
256,192,280187,128,0,280329:0:0:0:0:
402,192,280187,128,0,280234:0:0:0:0:
329,192,280282,1,0,0:0:0:0:
109,192,280282,1,0,0:0:0:0:
475,192,280282,128,0,280424:0:0:0:0:
36,192,280282,128,0,280329:0:0:0:0:
182,192,280282,128,0,280377:0:0:0:0:
109,192,280377,1,0,0:0:0:0:
402,192,280377,128,0,280519:0:0:0:0:
256,192,280377,128,0,280424:0:0:0:0:
475,192,280472,1,0,0:0:0:0:
182,192,280472,128,0,280614:0:0:0:0:
36,192,280472,128,0,280519:0:0:0:0:
329,192,280472,128,0,280567:0:0:0:0:
256,192,280567,128,0,280709:0:0:0:0:
402,192,280567,128,0,280614:0:0:0:0:
109,192,280567,128,0,280661:0:0:0:0:
182,192,280661,1,0,0:0:0:0:
329,192,280661,128,0,280709:0:0:0:0:
36,192,280661,128,0,280804:0:0:0:0:
475,192,280661,128,0,280756:0:0:0:0:
109,192,280756,1,0,0:0:0:0:
402,192,280756,128,0,280899:0:0:0:0:
256,192,280756,128,0,280804:0:0:0:0:
109,192,280851,1,0,0:0:0:0:
182,192,280851,128,0,280994:0:0:0:0:
329,192,280851,128,0,280899:0:0:0:0:
475,192,280851,128,0,280946:0:0:0:0:
402,192,280946,128,0,281089:0:0:0:0:
256,192,280946,128,0,280994:0:0:0:0:
475,192,281041,1,0,0:0:0:0:
109,192,281041,1,0,0:0:0:0:
36,192,281041,128,0,281184:0:0:0:0:
329,192,281041,128,0,281089:0:0:0:0:
182,192,281041,128,0,281136:0:0:0:0:
109,192,281136,1,0,0:0:0:0:
256,192,281136,128,0,281279:0:0:0:0:
402,192,281136,128,0,281184:0:0:0:0:
36,192,281231,1,0,0:0:0:0:
475,192,281231,128,0,281374:0:0:0:0:
182,192,281231,128,0,281279:0:0:0:0:
329,192,281231,128,0,281326:0:0:0:0:
109,192,281326,128,0,281421:0:0:0:0:
402,192,281326,128,0,281374:0:0:0:0:
256,192,281326,128,0,281421:0:0:0:0:
36,192,281421,1,0,0:0:0:0:
475,192,281421,1,0,0:0:0:0:
182,192,281421,128,0,281563:0:0:0:0:
329,192,281421,128,0,281468:0:0:0:0:
256,192,281516,128,0,281658:0:0:0:0:
329,192,281611,1,0,0:0:0:0:
402,192,281611,128,0,281658:0:0:0:0:
109,192,281611,128,0,281753:0:0:0:0:
256,192,281706,128,0,281848:0:0:0:0:
182,192,281801,1,0,0:0:0:0:
402,192,281801,1,0,0:0:0:0:
109,192,281801,1,0,0:0:0:0:
36,192,281801,128,0,281848:0:0:0:0:
475,192,281801,128,0,281943:0:0:0:0:
182,192,281896,1,0,0:0:0:0:
329,192,281896,128,0,282038:0:0:0:0:
36,192,281991,1,0,0:0:0:0:
256,192,281991,128,0,282133:0:0:0:0:
109,192,281991,128,0,282038:0:0:0:0:
402,192,282086,128,0,282228:0:0:0:0:
329,192,282086,128,0,282133:0:0:0:0:
475,192,282180,1,0,0:0:0:0:
36,192,282180,128,0,282323:0:0:0:0:
182,192,282180,128,0,282228:0:0:0:0:
329,192,282275,1,0,0:0:0:0:
256,192,282275,128,0,282418:0:0:0:0:
329,192,282370,1,0,0:0:0:0:
109,192,282370,128,0,282513:0:0:0:0:
402,192,282370,128,0,282418:0:0:0:0:
256,192,282465,128,0,282608:0:0:0:0:
109,192,282560,1,0,0:0:0:0:
36,192,282560,1,0,0:0:0:0:
402,192,282560,1,0,0:0:0:0:
475,192,282560,128,0,282608:0:0:0:0:
329,192,282560,128,0,282703:0:0:0:0:
109,192,282655,1,0,0:0:0:0:
182,192,282655,128,0,282798:0:0:0:0:
256,192,282750,1,0,0:0:0:0:
402,192,282750,128,0,282798:0:0:0:0:
475,192,282750,128,0,282893:0:0:0:0:
109,192,282845,128,0,282893:0:0:0:0:
182,192,282845,128,0,282987:0:0:0:0:
36,192,282940,1,0,0:0:0:0:
475,192,282940,1,0,0:0:0:0:
329,192,282940,128,0,283082:0:0:0:0:
256,192,282940,128,0,282987:0:0:0:0:
182,192,283035,128,0,283177:0:0:0:0:
329,192,283130,1,0,0:0:0:0:
402,192,283130,128,0,283272:0:0:0:0:
109,192,283130,128,0,283177:0:0:0:0:
256,192,283225,128,0,283367:0:0:0:0:
182,192,283320,1,0,0:0:0:0:
402,192,283320,1,0,0:0:0:0:
475,192,283320,1,0,0:0:0:0:
109,192,283320,128,0,283462:0:0:0:0:
36,192,283320,128,0,283367:0:0:0:0:
329,192,283415,128,0,283557:0:0:0:0:
475,192,283415,1,0,0:0:0:0:
109,192,283510,1,0,0:0:0:0:
256,192,283510,128,0,283652:0:0:0:0:
36,192,283510,128,0,283557:0:0:0:0:
402,192,283605,128,0,283747:0:0:0:0:
329,192,283605,128,0,283652:0:0:0:0:
475,192,283700,1,0,0:0:0:0:
182,192,283700,128,0,283842:0:0:0:0:
36,192,283700,128,0,283747:0:0:0:0:
109,192,283794,1,0,0:0:0:0:
329,192,283794,128,0,283937:0:0:0:0:
109,192,283889,1,0,0:0:0:0:
182,192,283889,128,0,284032:0:0:0:0:
402,192,283889,128,0,283937:0:0:0:0:
256,192,283984,128,0,284127:0:0:0:0:
329,192,284079,1,0,0:0:0:0:
36,192,284079,1,0,0:0:0:0:
475,192,284079,1,0,0:0:0:0:
402,192,284079,128,0,284127:0:0:0:0:
109,192,284079,128,0,284222:0:0:0:0:
182,192,284174,128,0,284317:0:0:0:0:
256,192,284174,128,0,284222:0:0:0:0:
109,192,284269,1,0,0:0:0:0:
402,192,284269,1,0,0:0:0:0:
475,192,284269,128,0,284412:0:0:0:0:
36,192,284269,128,0,284317:0:0:0:0:
182,192,284364,1,0,0:0:0:0:
329,192,284364,128,0,284459:0:0:0:0:
475,192,284459,1,0,0:0:0:0:
109,192,284459,128,0,284601:0:0:0:0:
402,192,284459,128,0,284506:0:0:0:0:
36,192,284459,128,0,284554:0:0:0:0:
256,192,284554,128,0,284696:0:0:0:0:
329,192,284554,128,0,284601:0:0:0:0:
402,192,284649,1,0,0:0:0:0:
475,192,284649,128,0,284791:0:0:0:0:
36,192,284649,128,0,284696:0:0:0:0:
182,192,284649,128,0,284744:0:0:0:0:
109,192,284744,128,0,284886:0:0:0:0:
256,192,284744,128,0,284791:0:0:0:0:
182,192,284839,1,0,0:0:0:0:
402,192,284839,1,0,0:0:0:0:
329,192,284839,128,0,284981:0:0:0:0:
475,192,284839,128,0,284886:0:0:0:0:
36,192,284839,128,0,284934:0:0:0:0:
402,192,284934,1,0,0:0:0:0:
256,192,284934,128,0,285076:0:0:0:0:
109,192,284934,128,0,284981:0:0:0:0:
329,192,285029,1,0,0:0:0:0:
36,192,285029,128,0,285171:0:0:0:0:
475,192,285029,128,0,285076:0:0:0:0:
182,192,285029,128,0,285124:0:0:0:0:
402,192,285124,128,0,285266:0:0:0:0:
109,192,285124,128,0,285171:0:0:0:0:
256,192,285124,128,0,285219:0:0:0:0:
36,192,285219,1,0,0:0:0:0:
182,192,285219,128,0,285361:0:0:0:0:
475,192,285219,128,0,285266:0:0:0:0:
329,192,285219,128,0,285313:0:0:0:0:
109,192,285313,1,0,0:0:0:0:
256,192,285313,128,0,285361:0:0:0:0:
402,192,285313,128,0,285456:0:0:0:0:
109,192,285408,1,0,0:0:0:0:
329,192,285408,128,0,285551:0:0:0:0:
182,192,285408,128,0,285456:0:0:0:0:
475,192,285408,128,0,285503:0:0:0:0:
256,192,285503,128,0,285646:0:0:0:0:
402,192,285503,128,0,285551:0:0:0:0:
329,192,285598,1,0,0:0:0:0:
109,192,285598,1,0,0:0:0:0:
475,192,285598,128,0,285741:0:0:0:0:
36,192,285598,128,0,285646:0:0:0:0:
182,192,285598,128,0,285693:0:0:0:0:
109,192,285693,1,0,0:0:0:0:
402,192,285693,128,0,285741:0:0:0:0:
256,192,285693,128,0,285836:0:0:0:0:
329,192,285788,1,0,0:0:0:0:
182,192,285788,128,0,285931:0:0:0:0:
475,192,285788,128,0,285836:0:0:0:0:
36,192,285788,128,0,285883:0:0:0:0:
402,192,285883,1,0,0:0:0:0:
109,192,285883,128,0,286025:0:0:0:0:
256,192,285883,128,0,285978:0:0:0:0:
182,192,285978,1,0,0:0:0:0:
402,192,285978,1,0,0:0:0:0:
329,192,285978,128,0,286025:0:0:0:0:
475,192,285978,128,0,286120:0:0:0:0:
36,192,285978,128,0,286073:0:0:0:0:
256,192,286073,128,0,286120:0:0:0:0:
109,192,286073,128,0,286215:0:0:0:0:
36,192,286168,1,0,0:0:0:0:
329,192,286168,128,0,286215:0:0:0:0:
475,192,286168,128,0,286310:0:0:0:0:
182,192,286168,128,0,286263:0:0:0:0:
256,192,286263,128,0,286405:0:0:0:0:
109,192,286263,128,0,286310:0:0:0:0:
36,192,286358,1,0,0:0:0:0:
182,192,286358,128,0,286500:0:0:0:0:
329,192,286358,128,0,286405:0:0:0:0:
475,192,286358,128,0,286453:0:0:0:0:
402,192,286453,128,0,286595:0:0:0:0:
36,192,286453,1,0,0:0:0:0:
256,192,286453,128,0,286500:0:0:0:0:
475,192,286548,1,0,0:0:0:0:
109,192,286548,128,0,286595:0:0:0:0:
329,192,286548,128,0,286690:0:0:0:0:
182,192,286548,128,0,286643:0:0:0:0:
36,192,286643,128,0,286785:0:0:0:0:
256,192,286643,128,0,286690:0:0:0:0:
402,192,286643,128,0,286738:0:0:0:0:
329,192,286738,1,0,0:0:0:0:
182,192,286738,128,0,286880:0:0:0:0:
475,192,286738,128,0,286785:0:0:0:0:
109,192,286738,128,0,286832:0:0:0:0:
36,192,286832,1,0,0:0:0:0:
402,192,286832,128,0,286975:0:0:0:0:
256,192,286832,128,0,286880:0:0:0:0:
36,192,286927,1,0,0:0:0:0:
329,192,286927,128,0,287070:0:0:0:0:
182,192,286927,128,0,286975:0:0:0:0:
475,192,286927,128,0,287022:0:0:0:0:
109,192,287022,128,0,287165:0:0:0:0:
256,192,287022,128,0,287070:0:0:0:0:
329,192,287117,1,0,0:0:0:0:
182,192,287117,128,0,287260:0:0:0:0:
475,192,287117,128,0,287165:0:0:0:0:
36,192,287117,128,0,287212:0:0:0:0:
475,192,287212,1,0,0:0:0:0:
329,192,287212,1,0,0:0:0:0:
402,192,287212,128,0,287355:0:0:0:0:
256,192,287212,128,0,287260:0:0:0:0:
109,192,287212,128,0,287307:0:0:0:0:
36,192,287307,128,0,287450:0:0:0:0:
182,192,287307,128,0,287355:0:0:0:0:
109,192,287402,1,0,0:0:0:0:
402,192,287402,1,0,0:0:0:0:
475,192,287402,1,0,0:0:0:0:
329,192,287402,1,0,0:0:0:0:
256,192,287402,128,0,287450:0:0:0:0:
36,192,287497,1,0,0:0:0:0:
256,192,287497,1,0,0:0:0:0:
329,192,287497,1,0,0:0:0:0:
402,192,287497,1,0,0:0:0:0:
475,192,287497,128,0,287639:0:0:0:0:
109,192,287497,128,0,287544:0:0:0:0:
182,192,287592,128,0,287734:0:0:0:0:
36,192,287687,1,0,0:0:0:0:
329,192,287687,128,0,287734:0:0:0:0:
402,192,287687,128,0,287829:0:0:0:0:
182,192,287782,128,0,287924:0:0:0:0:
256,192,287877,1,0,0:0:0:0:
402,192,287877,1,0,0:0:0:0:
109,192,287877,1,0,0:0:0:0:
36,192,287877,128,0,287924:0:0:0:0:
475,192,287877,128,0,288019:0:0:0:0:
109,192,287972,1,0,0:0:0:0:
182,192,287972,128,0,288114:0:0:0:0:
475,192,288067,1,0,0:0:0:0:
329,192,288067,128,0,288114:0:0:0:0:
36,192,288067,128,0,288209:0:0:0:0:
256,192,288162,128,0,288304:0:0:0:0:
182,192,288162,128,0,288209:0:0:0:0:
402,192,288257,1,0,0:0:0:0:
475,192,288257,128,0,288399:0:0:0:0:
109,192,288257,128,0,288304:0:0:0:0:
256,192,288351,128,0,288494:0:0:0:0:
329,192,288351,1,0,0:0:0:0:
329,192,288446,1,0,0:0:0:0:
402,192,288446,128,0,288494:0:0:0:0:
109,192,288446,128,0,288589:0:0:0:0:
256,192,288541,128,0,288684:0:0:0:0:
329,192,288636,1,0,0:0:0:0:
475,192,288636,1,0,0:0:0:0:
182,192,288636,1,0,0:0:0:0:
36,192,288636,128,0,288779:0:0:0:0:
109,192,288636,128,0,288684:0:0:0:0:
182,192,288731,1,0,0:0:0:0:
256,192,288731,128,0,288874:0:0:0:0:
36,192,288826,1,0,0:0:0:0:
402,192,288826,128,0,288874:0:0:0:0:
109,192,288826,128,0,288969:0:0:0:0:
329,192,288921,128,0,289063:0:0:0:0:
256,192,288921,128,0,288969:0:0:0:0:
36,192,289016,1,0,0:0:0:0:
402,192,289016,1,0,0:0:0:0:
475,192,289016,128,0,289158:0:0:0:0:
182,192,289016,128,0,289063:0:0:0:0:
329,192,289111,128,0,289253:0:0:0:0:
475,192,289206,1,0,0:0:0:0:
182,192,289206,128,0,289348:0:0:0:0:
402,192,289206,128,0,289253:0:0:0:0:
329,192,289301,128,0,289443:0:0:0:0:
475,192,289396,1,0,0:0:0:0:
256,192,289396,1,0,0:0:0:0:
402,192,289396,1,0,0:0:0:0:
36,192,289396,128,0,289443:0:0:0:0:
109,192,289396,128,0,289538:0:0:0:0:
402,192,289491,128,0,289633:0:0:0:0:
329,192,289491,128,0,289538:0:0:0:0:
475,192,289586,1,0,0:0:0:0:
182,192,289586,128,0,289728:0:0:0:0:
36,192,289586,128,0,289633:0:0:0:0:
256,192,289681,128,0,289823:0:0:0:0:
329,192,289681,128,0,289728:0:0:0:0:
36,192,289776,1,0,0:0:0:0:
109,192,289776,128,0,289918:0:0:0:0:
402,192,289776,128,0,289823:0:0:0:0:
475,192,289870,1,0,0:0:0:0:
256,192,289870,128,0,290013:0:0:0:0:
475,192,289965,1,0,0:0:0:0:
402,192,289965,128,0,290108:0:0:0:0:
109,192,289965,128,0,290013:0:0:0:0:
256,192,290060,128,0,290203:0:0:0:0:
402,192,290155,1,0,0:0:0:0:
182,192,290155,1,0,0:0:0:0:
475,192,290155,1,0,0:0:0:0:
329,192,290155,128,0,290298:0:0:0:0:
36,192,290155,128,0,290203:0:0:0:0:
109,192,290250,128,0,290393:0:0:0:0:
256,192,290250,128,0,290298:0:0:0:0:
36,192,290345,1,0,0:0:0:0:
475,192,290345,128,0,290488:0:0:0:0:
402,192,290345,128,0,290393:0:0:0:0:
256,192,290440,1,0,0:0:0:0:
182,192,290440,128,0,290535:0:0:0:0:
475,192,290535,1,0,0:0:0:0:
256,192,290535,1,0,0:0:0:0:
109,192,290535,128,0,290677:0:0:0:0:
329,192,290535,128,0,290582:0:0:0:0:
36,192,290535,128,0,290630:0:0:0:0:
402,192,290630,128,0,290772:0:0:0:0:
182,192,290630,128,0,290677:0:0:0:0:
475,192,290725,1,0,0:0:0:0:
36,192,290725,128,0,290867:0:0:0:0:
256,192,290725,128,0,290772:0:0:0:0:
329,192,290725,128,0,290820:0:0:0:0:
182,192,290820,128,0,290962:0:0:0:0:
402,192,290820,128,0,290867:0:0:0:0:
36,192,290915,1,0,0:0:0:0:
256,192,290915,1,0,0:0:0:0:
329,192,290915,128,0,291057:0:0:0:0:
109,192,290915,128,0,290962:0:0:0:0:
475,192,290915,128,0,291010:0:0:0:0:
256,192,291010,1,0,0:0:0:0:
182,192,291010,128,0,291152:0:0:0:0:
402,192,291010,128,0,291057:0:0:0:0:
329,192,291105,1,0,0:0:0:0:
36,192,291105,128,0,291247:0:0:0:0:
475,192,291105,128,0,291152:0:0:0:0:
109,192,291105,128,0,291200:0:0:0:0:
402,192,291200,128,0,291342:0:0:0:0:
182,192,291200,128,0,291247:0:0:0:0:
475,192,291295,1,0,0:0:0:0:
36,192,291295,128,0,291437:0:0:0:0:
256,192,291295,128,0,291342:0:0:0:0:
329,192,291295,128,0,291389:0:0:0:0:
402,192,291389,1,0,0:0:0:0:
182,192,291389,128,0,291532:0:0:0:0:
109,192,291389,128,0,291437:0:0:0:0:
402,192,291484,1,0,0:0:0:0:
475,192,291484,128,0,291627:0:0:0:0:
256,192,291484,128,0,291532:0:0:0:0:
36,192,291484,128,0,291579:0:0:0:0:
109,192,291579,128,0,291722:0:0:0:0:
329,192,291579,128,0,291627:0:0:0:0:
36,192,291674,1,0,0:0:0:0:
182,192,291674,1,0,0:0:0:0:
256,192,291674,128,0,291817:0:0:0:0:
402,192,291674,128,0,291722:0:0:0:0:
475,192,291674,128,0,291769:0:0:0:0:
182,192,291769,1,0,0:0:0:0:
329,192,291769,128,0,291912:0:0:0:0:
109,192,291769,128,0,291817:0:0:0:0:
402,192,291864,1,0,0:0:0:0:
475,192,291864,128,0,292007:0:0:0:0:
36,192,291864,128,0,291912:0:0:0:0:
256,192,291864,128,0,291959:0:0:0:0:
329,192,291959,1,0,0:0:0:0:
182,192,291959,128,0,292101:0:0:0:0:
256,192,292054,1,0,0:0:0:0:
329,192,292054,1,0,0:0:0:0:
36,192,292054,128,0,292196:0:0:0:0:
109,192,292054,128,0,292101:0:0:0:0:
402,192,292054,128,0,292149:0:0:0:0:
475,192,292149,128,0,292291:0:0:0:0:
182,192,292149,128,0,292244:0:0:0:0:
36,192,292244,1,0,0:0:0:0:
329,192,292244,128,0,292291:0:0:0:0:
109,192,292244,128,0,292386:0:0:0:0:
402,192,292244,128,0,292339:0:0:0:0:
256,192,292339,128,0,292481:0:0:0:0:
475,192,292339,128,0,292386:0:0:0:0:
109,192,292434,1,0,0:0:0:0:
182,192,292434,1,0,0:0:0:0:
402,192,292434,128,0,292576:0:0:0:0:
36,192,292434,128,0,292481:0:0:0:0:
329,192,292434,128,0,292529:0:0:0:0:
182,192,292529,1,0,0:0:0:0:
475,192,292529,128,0,292671:0:0:0:0:
256,192,292529,128,0,292576:0:0:0:0:
402,192,292624,1,0,0:0:0:0:
109,192,292624,128,0,292766:0:0:0:0:
36,192,292624,128,0,292671:0:0:0:0:
329,192,292624,128,0,292719:0:0:0:0:
256,192,292719,128,0,292861:0:0:0:0:
475,192,292719,128,0,292766:0:0:0:0:
182,192,292719,128,0,292814:0:0:0:0:
109,192,292814,1,0,0:0:0:0:
402,192,292814,128,0,292956:0:0:0:0:
36,192,292814,128,0,292861:0:0:0:0:
329,192,292814,128,0,292908:0:0:0:0:
475,192,292908,1,0,0:0:0:0:
182,192,292908,128,0,293051:0:0:0:0:
256,192,292908,128,0,292956:0:0:0:0:
475,192,293003,1,0,0:0:0:0:
329,192,293003,128,0,293146:0:0:0:0:
109,192,293003,128,0,293051:0:0:0:0:
402,192,293003,128,0,293098:0:0:0:0:
36,192,293098,128,0,293241:0:0:0:0:
256,192,293098,128,0,293146:0:0:0:0:
329,192,293193,1,0,0:0:0:0:
475,192,293193,1,0,0:0:0:0:
402,192,293193,128,0,293336:0:0:0:0:
182,192,293193,128,0,293241:0:0:0:0:
109,192,293193,128,0,293288:0:0:0:0:
329,192,293288,1,0,0:0:0:0:
256,192,293288,128,0,293431:0:0:0:0:
36,192,293288,128,0,293336:0:0:0:0:
402,192,293383,1,0,0:0:0:0:
109,192,293383,128,0,293526:0:0:0:0:
475,192,293383,128,0,293431:0:0:0:0:
182,192,293383,128,0,293478:0:0:0:0:
329,192,293478,128,0,293573:0:0:0:0:
36,192,293478,128,0,293526:0:0:0:0:
256,192,293478,128,0,293573:0:0:0:0:
182,192,293573,1,0,0:0:0:0:
402,192,293573,128,0,293715:0:0:0:0:
475,192,293573,128,0,293620:0:0:0:0:
36,192,293668,128,0,293810:0:0:0:0:
475,192,293763,1,0,0:0:0:0:
182,192,293763,128,0,293810:0:0:0:0:
329,192,293763,128,0,293905:0:0:0:0:
36,192,293858,128,0,294000:0:0:0:0:
182,192,293953,1,0,0:0:0:0:
109,192,293953,1,0,0:0:0:0:
329,192,293953,1,0,0:0:0:0:
475,192,293953,128,0,294000:0:0:0:0:
256,192,293953,128,0,294095:0:0:0:0:
329,192,294048,1,0,0:0:0:0:
36,192,294048,128,0,294095:0:0:0:0:
256,192,294143,1,0,0:0:0:0:
182,192,294143,128,0,294285:0:0:0:0:
109,192,294143,128,0,294190:0:0:0:0:
475,192,294238,128,0,294380:0:0:0:0:
36,192,294238,128,0,294285:0:0:0:0:
182,192,294333,1,0,0:0:0:0:
256,192,294333,128,0,294475:0:0:0:0:
402,192,294333,128,0,294380:0:0:0:0:
475,192,294427,1,0,0:0:0:0:
36,192,294427,128,0,294570:0:0:0:0:
182,192,294522,1,0,0:0:0:0:
475,192,294522,1,0,0:0:0:0:
402,192,294522,128,0,294570:0:0:0:0:
36,192,294617,128,0,294760:0:0:0:0:
109,192,294712,1,0,0:0:0:0:
256,192,294712,1,0,0:0:0:0:
329,192,294712,1,0,0:0:0:0:
182,192,294712,128,0,294760:0:0:0:0:
402,192,294712,128,0,294855:0:0:0:0:
329,192,294807,1,0,0:0:0:0:
36,192,294807,128,0,294855:0:0:0:0:
182,192,294902,1,0,0:0:0:0:
109,192,294902,128,0,295045:0:0:0:0:
256,192,294902,128,0,294950:0:0:0:0:
36,192,294997,1,0,0:0:0:0:
402,192,294997,128,0,295139:0:0:0:0:
182,192,295092,1,0,0:0:0:0:
36,192,295092,1,0,0:0:0:0:
256,192,295092,128,0,295139:0:0:0:0:
329,192,295092,128,0,295234:0:0:0:0:
475,192,295187,128,0,295329:0:0:0:0:
329,192,295282,1,0,0:0:0:0:
182,192,295282,128,0,295424:0:0:0:0:
36,192,295282,128,0,295329:0:0:0:0:
475,192,295377,128,0,295519:0:0:0:0:
182,192,295472,1,0,0:0:0:0:
402,192,295472,1,0,0:0:0:0:
36,192,295472,1,0,0:0:0:0:
329,192,295472,128,0,295519:0:0:0:0:
256,192,295472,128,0,295614:0:0:0:0:
36,192,295567,1,0,0:0:0:0:
475,192,295567,128,0,295709:0:0:0:0:
256,192,295662,1,0,0:0:0:0:
329,192,295662,128,0,295804:0:0:0:0:
402,192,295662,128,0,295709:0:0:0:0:
475,192,295757,1,0,0:0:0:0:
182,192,295757,128,0,295899:0:0:0:0:
329,192,295852,1,0,0:0:0:0:
109,192,295852,128,0,295899:0:0:0:0:
256,192,295852,128,0,295994:0:0:0:0:
182,192,295946,1,0,0:0:0:0:
475,192,295946,128,0,296089:0:0:0:0:
182,192,296041,1,0,0:0:0:0:
329,192,296041,128,0,296184:0:0:0:0:
109,192,296041,128,0,296089:0:0:0:0:
475,192,296136,128,0,296279:0:0:0:0:
329,192,296231,1,0,0:0:0:0:
256,192,296231,1,0,0:0:0:0:
36,192,296231,1,0,0:0:0:0:
402,192,296231,128,0,296279:0:0:0:0:
109,192,296231,128,0,296374:0:0:0:0:
36,192,296326,1,0,0:0:0:0:
475,192,296326,128,0,296374:0:0:0:0:
329,192,296421,1,0,0:0:0:0:
402,192,296421,1,0,0:0:0:0:
256,192,296421,128,0,296564:0:0:0:0:
36,192,296516,1,0,0:0:0:0:
475,192,296516,128,0,296564:0:0:0:0:
256,192,296611,1,0,0:0:0:0:
36,192,296611,128,0,296753:0:0:0:0:
109,192,296611,128,0,296658:0:0:0:0:
329,192,296611,128,0,296706:0:0:0:0:
402,192,296706,128,0,296848:0:0:0:0:
182,192,296706,128,0,296753:0:0:0:0:
475,192,296801,1,0,0:0:0:0:
109,192,296801,128,0,296943:0:0:0:0:
329,192,296801,128,0,296848:0:0:0:0:
256,192,296801,128,0,296896:0:0:0:0:
36,192,296896,128,0,297038:0:0:0:0:
402,192,296896,128,0,296943:0:0:0:0:
182,192,296991,1,0,0:0:0:0:
256,192,296991,128,0,297133:0:0:0:0:
475,192,296991,128,0,297038:0:0:0:0:
109,192,296991,1,0,0:0:0:0:
329,192,296991,128,0,297086:0:0:0:0:
182,192,297086,1,0,0:0:0:0:
402,192,297086,128,0,297228:0:0:0:0:
36,192,297086,128,0,297133:0:0:0:0:
256,192,297181,1,0,0:0:0:0:
109,192,297181,128,0,297323:0:0:0:0:
329,192,297181,128,0,297228:0:0:0:0:
475,192,297181,128,0,297276:0:0:0:0:
182,192,297276,128,0,297418:0:0:0:0:
402,192,297276,128,0,297323:0:0:0:0:
36,192,297276,128,0,297371:0:0:0:0:
329,192,297371,1,0,0:0:0:0:
475,192,297371,128,0,297513:0:0:0:0:
256,192,297371,128,0,297418:0:0:0:0:
109,192,297371,128,0,297465:0:0:0:0:
182,192,297465,1,0,0:0:0:0:
36,192,297465,128,0,297608:0:0:0:0:
402,192,297465,128,0,297513:0:0:0:0:
182,192,297560,1,0,0:0:0:0:
109,192,297560,128,0,297703:0:0:0:0:
256,192,297560,128,0,297608:0:0:0:0:
475,192,297560,128,0,297655:0:0:0:0:
402,192,297655,128,0,297798:0:0:0:0:
36,192,297655,128,0,297703:0:0:0:0:
475,192,297750,1,0,0:0:0:0:
182,192,297750,1,0,0:0:0:0:
256,192,297750,128,0,297893:0:0:0:0:
329,192,297750,128,0,297798:0:0:0:0:
109,192,297750,128,0,297845:0:0:0:0:
182,192,297845,1,0,0:0:0:0:
402,192,297845,128,0,297988:0:0:0:0:
256,192,297940,1,0,0:0:0:0:
475,192,297940,128,0,297988:0:0:0:0:
109,192,297940,128,0,298083:0:0:0:0:
329,192,297940,128,0,298035:0:0:0:0:
36,192,298035,1,0,0:0:0:0:
182,192,298035,128,0,298130:0:0:0:0:
402,192,298035,128,0,298083:0:0:0:0:
475,192,298130,128,0,298320:0:0:0:0:
329,192,298130,128,0,298225:0:0:0:0:
256,192,298130,128,0,298320:0:0:0:0:
109,192,298130,128,0,298225:0:0:0:0:
36,192,298130,128,0,298225:0:0:0:0:
402,192,298225,128,0,298320:0:0:0:0:
329,192,298320,128,0,298510:0:0:0:0:
109,192,298320,128,0,298415:0:0:0:0:
36,192,298320,128,0,298415:0:0:0:0:
182,192,298415,1,0,0:0:0:0:
402,192,298415,128,0,298605:0:0:0:0:
475,192,298415,128,0,298605:0:0:0:0:
256,192,298415,128,0,298605:0:0:0:0:
109,192,298510,128,0,298605:0:0:0:0:
36,192,298510,128,0,298605:0:0:0:0:
182,192,298510,128,0,298795:0:0:0:0:
329,192,298605,128,0,298700:0:0:0:0:
402,192,298700,128,0,298890:0:0:0:0:
475,192,298700,128,0,298890:0:0:0:0:
109,192,298700,128,0,298890:0:0:0:0:
36,192,298700,128,0,298890:0:0:0:0:
256,192,298700,128,0,299174:0:0:0:0:
329,192,298795,128,0,298890:0:0:0:0:
182,192,298890,128,0,298984:0:0:0:0:
329,192,298984,1,0,0:0:0:0:
402,192,298984,128,0,299174:0:0:0:0:
475,192,298984,128,0,299174:0:0:0:0:
109,192,298984,128,0,299269:0:0:0:0:
36,192,298984,128,0,299174:0:0:0:0:
329,192,299079,128,0,299269:0:0:0:0:
182,192,299269,1,0,0:0:0:0:
256,192,299269,1,0,0:0:0:0:
402,192,299269,1,0,0:0:0:0:
475,192,299269,1,0,0:0:0:0:
36,192,299269,1,0,0:0:0:0:
182,192,299364,1,0,0:0:0:0:
109,192,299459,1,0,0:0:0:0:
402,192,299459,1,0,0:0:0:0:
329,192,299507,1,0,0:0:0:0:
36,192,299507,1,0,0:0:0:0:
182,192,299554,1,0,0:0:0:0:
475,192,299554,1,0,0:0:0:0:
256,192,299554,128,0,299649:0:0:0:0:
109,192,299649,1,0,0:0:0:0:
182,192,299649,1,0,0:0:0:0:
475,192,299649,1,0,0:0:0:0:
36,192,299649,128,0,299791:0:0:0:0:
402,192,299649,128,0,299696:0:0:0:0:
329,192,299649,128,0,299744:0:0:0:0:
256,192,299744,128,0,299886:0:0:0:0:
182,192,299839,1,0,0:0:0:0:
109,192,299839,128,0,299981:0:0:0:0:
402,192,299839,128,0,299934:0:0:0:0:
256,192,299934,128,0,300076:0:0:0:0:
109,192,300029,1,0,0:0:0:0:
475,192,300029,1,0,0:0:0:0:
329,192,300029,128,0,300171:0:0:0:0:
36,192,300029,128,0,300076:0:0:0:0:
402,192,300029,128,0,300124:0:0:0:0:
475,192,300124,1,0,0:0:0:0:
256,192,300124,128,0,300266:0:0:0:0:
109,192,300219,128,0,300361:0:0:0:0:
402,192,300219,128,0,300266:0:0:0:0:
182,192,300219,128,0,300314:0:0:0:0:
475,192,300314,128,0,300456:0:0:0:0:
256,192,300314,128,0,300361:0:0:0:0:
329,192,300409,128,0,300551:0:0:0:0:
36,192,300409,128,0,300456:0:0:0:0:
109,192,300409,128,0,300503:0:0:0:0:
256,192,300503,128,0,300646:0:0:0:0:
475,192,300503,1,0,0:0:0:0:
475,192,300598,1,0,0:0:0:0:
402,192,300598,128,0,300741:0:0:0:0:
109,192,300598,128,0,300693:0:0:0:0:
256,192,300693,128,0,300836:0:0:0:0:
329,192,300788,1,0,0:0:0:0:
36,192,300788,1,0,0:0:0:0:
109,192,300788,128,0,300931:0:0:0:0:
182,192,300788,128,0,300836:0:0:0:0:
475,192,300788,128,0,300883:0:0:0:0:
329,192,300883,1,0,0:0:0:0:
256,192,300883,128,0,301026:0:0:0:0:
36,192,300978,1,0,0:0:0:0:
475,192,300978,128,0,301121:0:0:0:0:
402,192,300978,128,0,301026:0:0:0:0:
109,192,300978,128,0,301073:0:0:0:0:
36,192,301073,1,0,0:0:0:0:
256,192,301073,128,0,301216:0:0:0:0:
329,192,301168,1,0,0:0:0:0:
402,192,301168,128,0,301310:0:0:0:0:
475,192,301168,128,0,301216:0:0:0:0:
182,192,301168,128,0,301263:0:0:0:0:
256,192,301263,128,0,301405:0:0:0:0:
109,192,301358,128,0,301500:0:0:0:0:
402,192,301358,128,0,301405:0:0:0:0:
36,192,301358,128,0,301453:0:0:0:0:
256,192,301453,128,0,301595:0:0:0:0:
182,192,301548,1,0,0:0:0:0:
402,192,301548,1,0,0:0:0:0:
475,192,301548,128,0,301690:0:0:0:0:
36,192,301548,128,0,301595:0:0:0:0:
329,192,301548,128,0,301643:0:0:0:0:
182,192,301643,1,0,0:0:0:0:
256,192,301643,128,0,301785:0:0:0:0:
109,192,301738,128,0,301785:0:0:0:0:
402,192,301738,128,0,301880:0:0:0:0:
475,192,301738,128,0,301833:0:0:0:0:
36,192,301833,128,0,301975:0:0:0:0:
256,192,301833,128,0,301880:0:0:0:0:
329,192,301928,128,0,302070:0:0:0:0:
182,192,301928,128,0,301975:0:0:0:0:
402,192,301928,128,0,302022:0:0:0:0:
36,192,302022,1,0,0:0:0:0:
256,192,302022,128,0,302165:0:0:0:0:
36,192,302117,1,0,0:0:0:0:
109,192,302117,128,0,302260:0:0:0:0:
402,192,302117,128,0,302165:0:0:0:0:
256,192,302212,128,0,302355:0:0:0:0:
402,192,302307,1,0,0:0:0:0:
182,192,302307,1,0,0:0:0:0:
36,192,302307,128,0,302355:0:0:0:0:
475,192,302307,128,0,302450:0:0:0:0:
109,192,302307,128,0,302402:0:0:0:0:
182,192,302402,1,0,0:0:0:0:
329,192,302402,128,0,302545:0:0:0:0:
402,192,302497,128,0,302640:0:0:0:0:
36,192,302497,128,0,302545:0:0:0:0:
256,192,302497,128,0,302592:0:0:0:0:
475,192,302592,1,0,0:0:0:0:
109,192,302592,128,0,302687:0:0:0:0:
329,192,302592,128,0,302640:0:0:0:0:
402,192,302687,1,0,0:0:0:0:
36,192,302687,1,0,0:0:0:0:
182,192,302687,128,0,302829:0:0:0:0:
475,192,302687,128,0,302735:0:0:0:0:
256,192,302687,128,0,302782:0:0:0:0:
329,192,302782,128,0,302924:0:0:0:0:
109,192,302782,128,0,302829:0:0:0:0:
256,192,302877,1,0,0:0:0:0:
36,192,302877,128,0,303019:0:0:0:0:
402,192,302877,128,0,302924:0:0:0:0:
475,192,302877,128,0,302972:0:0:0:0:
109,192,302972,128,0,303114:0:0:0:0:
329,192,302972,128,0,303019:0:0:0:0:
256,192,303067,1,0,0:0:0:0:
402,192,303067,128,0,303209:0:0:0:0:
182,192,303067,128,0,303114:0:0:0:0:
36,192,303067,128,0,303162:0:0:0:0:
256,192,303162,1,0,0:0:0:0:
475,192,303162,128,0,303304:0:0:0:0:
109,192,303162,128,0,303209:0:0:0:0:
36,192,303257,1,0,0:0:0:0:
182,192,303257,128,0,303399:0:0:0:0:
329,192,303257,128,0,303304:0:0:0:0:
402,192,303257,128,0,303352:0:0:0:0:
256,192,303352,128,0,303494:0:0:0:0:
109,192,303352,128,0,303399:0:0:0:0:
475,192,303352,128,0,303447:0:0:0:0:
329,192,303447,1,0,0:0:0:0:
36,192,303447,128,0,303589:0:0:0:0:
402,192,303447,128,0,303494:0:0:0:0:
182,192,303447,128,0,303541:0:0:0:0:
475,192,303541,1,0,0:0:0:0:
109,192,303541,128,0,303684:0:0:0:0:
256,192,303541,128,0,303589:0:0:0:0:
475,192,303636,1,0,0:0:0:0:
402,192,303636,128,0,303779:0:0:0:0:
182,192,303636,128,0,303684:0:0:0:0:
36,192,303636,128,0,303731:0:0:0:0:
109,192,303731,128,0,303874:0:0:0:0:
329,192,303731,128,0,303779:0:0:0:0:
36,192,303826,1,0,0:0:0:0:
256,192,303826,128,0,303969:0:0:0:0:
182,192,303826,128,0,303874:0:0:0:0:
402,192,303826,128,0,303921:0:0:0:0:
475,192,303921,128,0,304064:0:0:0:0:
36,192,303921,1,0,0:0:0:0:
109,192,303921,128,0,303969:0:0:0:0:
256,192,304016,1,0,0:0:0:0:
182,192,304016,128,0,304159:0:0:0:0:
329,192,304016,128,0,304064:0:0:0:0:
402,192,304016,128,0,304111:0:0:0:0:
475,192,304111,128,0,304254:0:0:0:0:
109,192,304111,128,0,304159:0:0:0:0:
402,192,304206,1,0,0:0:0:0:
36,192,304206,1,0,0:0:0:0:
329,192,304206,128,0,304348:0:0:0:0:
256,192,304206,128,0,304254:0:0:0:0:
182,192,304206,128,0,304301:0:0:0:0:
109,192,304301,128,0,304443:0:0:0:0:
475,192,304301,128,0,304348:0:0:0:0:
329,192,304396,1,0,0:0:0:0:
182,192,304396,128,0,304538:0:0:0:0:
402,192,304396,128,0,304443:0:0:0:0:
36,192,304396,128,0,304491:0:0:0:0:
475,192,304491,128,0,304633:0:0:0:0:
109,192,304491,128,0,304538:0:0:0:0:
256,192,304586,1,0,0:0:0:0:
36,192,304586,128,0,304728:0:0:0:0:
402,192,304586,128,0,304633:0:0:0:0:
182,192,304586,128,0,304681:0:0:0:0:
256,192,304681,1,0,0:0:0:0:
329,192,304681,128,0,304823:0:0:0:0:
109,192,304681,128,0,304728:0:0:0:0:
36,192,304776,1,0,0:0:0:0:
182,192,304776,128,0,304918:0:0:0:0:
475,192,304776,128,0,304823:0:0:0:0:
402,192,304776,128,0,304871:0:0:0:0:
256,192,304871,128,0,305013:0:0:0:0:
109,192,304871,128,0,304918:0:0:0:0:
329,192,304871,128,0,304966:0:0:0:0:
182,192,304966,1,0,0:0:0:0:
36,192,304966,128,0,305108:0:0:0:0:
475,192,304966,128,0,305013:0:0:0:0:
402,192,304966,128,0,305060:0:0:0:0:
109,192,305060,1,0,0:0:0:0:
329,192,305060,128,0,305203:0:0:0:0:
109,192,305155,1,0,0:0:0:0:
256,192,305155,128,0,305298:0:0:0:0:
402,192,305155,128,0,305203:0:0:0:0:
36,192,305155,128,0,305250:0:0:0:0:
475,192,305250,128,0,305393:0:0:0:0:
329,192,305250,128,0,305298:0:0:0:0:
256,192,305345,1,0,0:0:0:0:
36,192,305345,1,0,0:0:0:0:
182,192,305345,128,0,305488:0:0:0:0:
402,192,305345,128,0,305440:0:0:0:0:
36,192,305440,1,0,0:0:0:0:
329,192,305440,128,0,305488:0:0:0:0:
109,192,305440,128,0,305583:0:0:0:0:
256,192,305535,128,0,305678:0:0:0:0:
475,192,305535,128,0,305583:0:0:0:0:
182,192,305535,1,0,0:0:0:0:
402,192,305535,128,0,305630:0:0:0:0:
109,192,305630,1,0,0:0:0:0:
329,192,305630,128,0,305725:0:0:0:0:
36,192,305630,128,0,305678:0:0:0:0:
402,192,305725,1,0,0:0:0:0:
475,192,305725,128,0,305867:0:0:0:0:
182,192,305725,128,0,305773:0:0:0:0:
256,192,305725,128,0,305820:0:0:0:0:
36,192,305820,128,0,305962:0:0:0:0:
182,192,305915,128,0,306057:0:0:0:0:
402,192,305915,128,0,305962:0:0:0:0:
109,192,305915,128,0,306010:0:0:0:0:
36,192,306010,128,0,306152:0:0:0:0:
109,192,306105,1,0,0:0:0:0:
475,192,306105,1,0,0:0:0:0:
256,192,306105,128,0,306152:0:0:0:0:
329,192,306105,128,0,306247:0:0:0:0:
182,192,306105,128,0,306200:0:0:0:0:
475,192,306200,1,0,0:0:0:0:
36,192,306200,128,0,306342:0:0:0:0:
182,192,306295,128,0,306342:0:0:0:0:
402,192,306295,128,0,306437:0:0:0:0:
329,192,306295,128,0,306390:0:0:0:0:
36,192,306390,128,0,306437:0:0:0:0:
475,192,306390,128,0,306532:0:0:0:0:
256,192,306485,128,0,306627:0:0:0:0:
182,192,306485,128,0,306532:0:0:0:0:
402,192,306485,128,0,306579:0:0:0:0:
329,192,306579,1,0,0:0:0:0:
36,192,306579,128,0,306722:0:0:0:0:
329,192,306674,1,0,0:0:0:0:
182,192,306674,128,0,306817:0:0:0:0:
109,192,306674,128,0,306722:0:0:0:0:
36,192,306769,128,0,306912:0:0:0:0:
182,192,306864,1,0,0:0:0:0:
256,192,306864,1,0,0:0:0:0:
329,192,306864,128,0,306912:0:0:0:0:
402,192,306864,128,0,307007:0:0:0:0:
109,192,306864,128,0,306959:0:0:0:0:
256,192,306959,1,0,0:0:0:0:
36,192,306959,128,0,307102:0:0:0:0:
182,192,307054,128,0,307102:0:0:0:0:
329,192,307054,128,0,307197:0:0:0:0:
475,192,307054,128,0,307149:0:0:0:0:
402,192,307149,128,0,307292:0:0:0:0:
36,192,307149,128,0,307244:0:0:0:0:
329,192,307244,1,0,0:0:0:0:
182,192,307244,128,0,307386:0:0:0:0:
109,192,307244,128,0,307292:0:0:0:0:
256,192,307244,128,0,307339:0:0:0:0:
475,192,307339,128,0,307481:0:0:0:0:
36,192,307434,128,0,307576:0:0:0:0:
329,192,307434,128,0,307481:0:0:0:0:
402,192,307434,128,0,307529:0:0:0:0:
475,192,307529,128,0,307671:0:0:0:0:
329,192,307624,1,0,0:0:0:0:
182,192,307624,1,0,0:0:0:0:
256,192,307624,128,0,307671:0:0:0:0:
402,192,307624,128,0,307766:0:0:0:0:
109,192,307624,128,0,307719:0:0:0:0:
182,192,307719,1,0,0:0:0:0:
475,192,307719,128,0,307861:0:0:0:0:
109,192,307814,128,0,307956:0:0:0:0:
329,192,307814,128,0,307861:0:0:0:0:
36,192,307814,128,0,307909:0:0:0:0:
182,192,307909,128,0,308051:0:0:0:0:
475,192,307909,128,0,307956:0:0:0:0:
329,192,308004,128,0,308146:0:0:0:0:
36,192,308004,128,0,308051:0:0:0:0:
256,192,308004,128,0,308098:0:0:0:0:
109,192,308098,1,0,0:0:0:0:
475,192,308098,128,0,308241:0:0:0:0:
109,192,308193,1,0,0:0:0:0:
402,192,308193,128,0,308241:0:0:0:0:
329,192,308193,128,0,308336:0:0:0:0:
475,192,308288,128,0,308431:0:0:0:0:
329,192,308383,1,0,0:0:0:0:
36,192,308383,1,0,0:0:0:0:
256,192,308383,128,0,308526:0:0:0:0:
109,192,308383,128,0,308431:0:0:0:0:
402,192,308383,128,0,308478:0:0:0:0:
36,192,308478,1,0,0:0:0:0:
475,192,308478,128,0,308621:0:0:0:0:
182,192,308573,128,0,308716:0:0:0:0:
109,192,308573,128,0,308621:0:0:0:0:
329,192,308573,128,0,308668:0:0:0:0:
256,192,308668,128,0,308811:0:0:0:0:
475,192,308668,128,0,308716:0:0:0:0:
182,192,308763,1,0,0:0:0:0:
36,192,308763,128,0,308905:0:0:0:0:
402,192,308763,128,0,308811:0:0:0:0:
329,192,308763,128,0,308858:0:0:0:0:
475,192,308858,128,0,309000:0:0:0:0:
182,192,308953,128,0,309095:0:0:0:0:
402,192,308953,128,0,309000:0:0:0:0:
36,192,308953,128,0,309048:0:0:0:0:
475,192,309048,128,0,309190:0:0:0:0:
182,192,309143,1,0,0:0:0:0:
402,192,309143,1,0,0:0:0:0:
109,192,309143,128,0,309190:0:0:0:0:
36,192,309143,128,0,309285:0:0:0:0:
329,192,309143,128,0,309238:0:0:0:0:
402,192,309238,1,0,0:0:0:0:
475,192,309238,128,0,309380:0:0:0:0:
109,192,309333,128,0,309380:0:0:0:0:
182,192,309333,128,0,309475:0:0:0:0:
36,192,309333,128,0,309428:0:0:0:0:
256,192,309428,128,0,309570:0:0:0:0:
475,192,309428,128,0,309475:0:0:0:0:
109,192,309523,128,0,309665:0:0:0:0:
329,192,309523,128,0,309570:0:0:0:0:
36,192,309523,128,0,309617:0:0:0:0:
256,192,309617,1,0,0:0:0:0:
475,192,309617,128,0,309760:0:0:0:0:
256,192,309712,1,0,0:0:0:0:
329,192,309712,128,0,309760:0:0:0:0:
36,192,309712,128,0,309855:0:0:0:0:
475,192,309807,128,0,309950:0:0:0:0:
402,192,309902,1,0,0:0:0:0:
109,192,309902,1,0,0:0:0:0:
182,192,309902,128,0,309950:0:0:0:0:
329,192,309902,128,0,310045:0:0:0:0:
36,192,309902,128,0,309997:0:0:0:0:
109,192,309997,1,0,0:0:0:0:
475,192,309997,128,0,310140:0:0:0:0:
402,192,310092,128,0,310235:0:0:0:0:
36,192,310092,128,0,310140:0:0:0:0:
329,192,310092,128,0,310187:0:0:0:0:
182,192,310187,1,0,0:0:0:0:
475,192,310187,128,0,310282:0:0:0:0:
182,192,310282,1,0,0:0:0:0:
402,192,310282,1,0,0:0:0:0:
109,192,310282,128,0,310424:0:0:0:0:
329,192,310282,128,0,310330:0:0:0:0:
36,192,310282,128,0,310377:0:0:0:0:
256,192,310377,128,0,310519:0:0:0:0:
475,192,310377,128,0,310424:0:0:0:0:
36,192,310472,1,0,0:0:0:0:
402,192,310472,128,0,310614:0:0:0:0:
182,192,310472,128,0,310519:0:0:0:0:
329,192,310472,128,0,310567:0:0:0:0:
256,192,310567,128,0,310709:0:0:0:0:
475,192,310567,128,0,310614:0:0:0:0:
109,192,310662,1,0,0:0:0:0:
329,192,310662,1,0,0:0:0:0:
182,192,310662,128,0,310804:0:0:0:0:
402,192,310662,128,0,310709:0:0:0:0:
36,192,310662,128,0,310757:0:0:0:0:
109,192,310757,1,0,0:0:0:0:
475,192,310757,128,0,310899:0:0:0:0:
256,192,310757,128,0,310804:0:0:0:0:
182,192,310852,1,0,0:0:0:0:
36,192,310852,128,0,310994:0:0:0:0:
402,192,310852,128,0,310899:0:0:0:0:
329,192,310852,128,0,310947:0:0:0:0:
109,192,310947,128,0,311089:0:0:0:0:
256,192,310947,128,0,310994:0:0:0:0:
475,192,310947,128,0,311042:0:0:0:0:
36,192,311042,1,0,0:0:0:0:
402,192,311042,128,0,311184:0:0:0:0:
329,192,311042,128,0,311089:0:0:0:0:
182,192,311042,128,0,311136:0:0:0:0:
109,192,311136,1,0,0:0:0:0:
256,192,311136,128,0,311279:0:0:0:0:
475,192,311136,128,0,311184:0:0:0:0:
329,192,311231,1,0,0:0:0:0:
109,192,311231,1,0,0:0:0:0:
182,192,311231,128,0,311374:0:0:0:0:
402,192,311231,128,0,311279:0:0:0:0:
36,192,311231,128,0,311326:0:0:0:0:
475,192,311326,128,0,311469:0:0:0:0:
256,192,311326,128,0,311374:0:0:0:0:
402,192,311421,1,0,0:0:0:0:
36,192,311421,128,0,311564:0:0:0:0:
182,192,311421,128,0,311469:0:0:0:0:
109,192,311421,128,0,311516:0:0:0:0:
475,192,311516,1,0,0:0:0:0:
256,192,311516,1,0,0:0:0:0:
329,192,311516,1,0,0:0:0:0:
109,192,311564,1,0,0:0:0:0:
402,192,311564,1,0,0:0:0:0:
36,192,311611,1,0,0:0:0:0:
182,192,311611,1,0,0:0:0:0:
329,192,311611,128,0,311754:0:0:0:0:
256,192,311611,128,0,311659:0:0:0:0:
475,192,311706,1,0,0:0:0:0:
109,192,311706,128,0,311754:0:0:0:0:
329,192,311801,1,0,0:0:0:0:
256,192,311801,1,0,0:0:0:0:
475,192,311801,128,0,311943:0:0:0:0:
402,192,311801,128,0,311849:0:0:0:0:
36,192,311801,128,0,311896:0:0:0:0:
182,192,311896,128,0,312038:0:0:0:0:
109,192,311991,128,0,312038:0:0:0:0:
402,192,311991,128,0,312133:0:0:0:0:
329,192,311991,128,0,312086:0:0:0:0:
182,192,312086,128,0,312228:0:0:0:0:
36,192,312181,1,0,0:0:0:0:
109,192,312181,1,0,0:0:0:0:
256,192,312181,128,0,312323:0:0:0:0:
475,192,312181,128,0,312228:0:0:0:0:
329,192,312181,128,0,312276:0:0:0:0:
36,192,312276,1,0,0:0:0:0:
182,192,312276,128,0,312418:0:0:0:0:
329,192,312371,128,0,312418:0:0:0:0:
475,192,312371,128,0,312513:0:0:0:0:
109,192,312371,128,0,312466:0:0:0:0:
256,192,312466,128,0,312608:0:0:0:0:
182,192,312466,128,0,312513:0:0:0:0:
36,192,312561,128,0,312703:0:0:0:0:
329,192,312561,128,0,312608:0:0:0:0:
402,192,312561,128,0,312655:0:0:0:0:
475,192,312655,1,0,0:0:0:0:
182,192,312655,128,0,312798:0:0:0:0:
475,192,312750,1,0,0:0:0:0:
329,192,312750,128,0,312798:0:0:0:0:
256,192,312750,128,0,312893:0:0:0:0:
182,192,312845,128,0,312988:0:0:0:0:
329,192,312940,1,0,0:0:0:0:
109,192,312940,1,0,0:0:0:0:
402,192,312940,128,0,312988:0:0:0:0:
475,192,312940,128,0,313083:0:0:0:0:
36,192,312940,128,0,313035:0:0:0:0:
109,192,313035,1,0,0:0:0:0:
182,192,313035,128,0,313178:0:0:0:0:
36,192,313130,1,0,0:0:0:0:
256,192,313130,128,0,313178:0:0:0:0:
329,192,313130,128,0,313273:0:0:0:0:
475,192,313130,128,0,313225:0:0:0:0:
182,192,313225,128,0,313273:0:0:0:0:
109,192,313225,128,0,313368:0:0:0:0:
475,192,313320,1,0,0:0:0:0:
402,192,313320,128,0,313462:0:0:0:0:
36,192,313320,128,0,313368:0:0:0:0:
329,192,313320,128,0,313415:0:0:0:0:
109,192,313415,128,0,313557:0:0:0:0:
256,192,313510,128,0,313557:0:0:0:0:
475,192,313510,128,0,313652:0:0:0:0:
402,192,313510,128,0,313605:0:0:0:0:
109,192,313605,128,0,313652:0:0:0:0:
329,192,313700,1,0,0:0:0:0:
36,192,313700,128,0,313842:0:0:0:0:
402,192,313700,128,0,313747:0:0:0:0:
256,192,313700,1,0,0:0:0:0:
182,192,313700,128,0,313795:0:0:0:0:
329,192,313795,1,0,0:0:0:0:
109,192,313795,128,0,313937:0:0:0:0:
402,192,313890,128,0,313937:0:0:0:0:
256,192,313890,128,0,314032:0:0:0:0:
475,192,313890,128,0,313985:0:0:0:0:
109,192,313985,128,0,314032:0:0:0:0:
329,192,313985,128,0,314127:0:0:0:0:
182,192,314080,128,0,314222:0:0:0:0:
36,192,314080,128,0,314127:0:0:0:0:
402,192,314080,128,0,314174:0:0:0:0:
475,192,314174,1,0,0:0:0:0:
109,192,314174,128,0,314317:0:0:0:0:
475,192,314269,1,0,0:0:0:0:
402,192,314269,128,0,314317:0:0:0:0:
256,192,314269,128,0,314412:0:0:0:0:
109,192,314364,128,0,314507:0:0:0:0:
182,192,314459,1,0,0:0:0:0:
329,192,314459,128,0,314602:0:0:0:0:
475,192,314459,128,0,314507:0:0:0:0:
402,192,314459,1,0,0:0:0:0:
36,192,314459,128,0,314554:0:0:0:0:
182,192,314554,1,0,0:0:0:0:
109,192,314554,128,0,314697:0:0:0:0:
256,192,314649,128,0,314697:0:0:0:0:
402,192,314649,128,0,314792:0:0:0:0:
36,192,314649,128,0,314744:0:0:0:0:
329,192,314744,1,0,0:0:0:0:
109,192,314744,128,0,314887:0:0:0:0:
329,192,314839,1,0,0:0:0:0:
256,192,314839,128,0,314981:0:0:0:0:
475,192,314839,128,0,314887:0:0:0:0:
182,192,314839,128,0,314934:0:0:0:0:
36,192,314934,128,0,315076:0:0:0:0:
182,192,315029,128,0,315076:0:0:0:0:
402,192,315029,128,0,315171:0:0:0:0:
256,192,315029,128,0,315124:0:0:0:0:
36,192,315124,128,0,315266:0:0:0:0:
402,192,315219,1,0,0:0:0:0:
182,192,315219,1,0,0:0:0:0:
256,192,315219,128,0,315266:0:0:0:0:
329,192,315219,128,0,315361:0:0:0:0:
109,192,315219,128,0,315314:0:0:0:0:
182,192,315314,1,0,0:0:0:0:
475,192,315314,128,0,315456:0:0:0:0:
329,192,315409,128,0,315456:0:0:0:0:
109,192,315409,128,0,315551:0:0:0:0:
36,192,315409,128,0,315504:0:0:0:0:
182,192,315504,128,0,315646:0:0:0:0:
475,192,315504,128,0,315599:0:0:0:0:
109,192,315599,128,0,315646:0:0:0:0:
402,192,315599,128,0,315741:0:0:0:0:
256,192,315599,128,0,315693:0:0:0:0:
329,192,315693,1,0,0:0:0:0:
36,192,315693,128,0,315836:0:0:0:0:
329,192,315788,1,0,0:0:0:0:
182,192,315788,128,0,315836:0:0:0:0:
402,192,315788,128,0,315931:0:0:0:0:
109,192,315788,128,0,315883:0:0:0:0:
36,192,315883,128,0,315931:0:0:0:0:
475,192,315883,128,0,316026:0:0:0:0:
256,192,315978,1,0,0:0:0:0:
402,192,315978,1,0,0:0:0:0:
182,192,315978,128,0,316026:0:0:0:0:
329,192,315978,128,0,316121:0:0:0:0:
109,192,315978,128,0,316073:0:0:0:0:
256,192,316073,128,0,316216:0:0:0:0:
36,192,316073,128,0,316121:0:0:0:0:
475,192,316073,128,0,316168:0:0:0:0:
329,192,316168,1,0,0:0:0:0:
402,192,316168,128,0,316216:0:0:0:0:
109,192,316168,128,0,316311:0:0:0:0:
182,192,316168,128,0,316263:0:0:0:0:
36,192,316263,128,0,316406:0:0:0:0:
475,192,316263,128,0,316311:0:0:0:0:
109,192,316358,1,0,0:0:0:0:
329,192,316358,128,0,316406:0:0:0:0:
182,192,316358,128,0,316500:0:0:0:0:
256,192,316358,128,0,316453:0:0:0:0:
402,192,316453,128,0,316595:0:0:0:0:
329,192,316548,128,0,316595:0:0:0:0:
109,192,316548,128,0,316690:0:0:0:0:
182,192,316548,128,0,316643:0:0:0:0:
402,192,316643,128,0,316785:0:0:0:0:
36,192,316738,1,0,0:0:0:0:
256,192,316738,128,0,316785:0:0:0:0:
475,192,316738,128,0,316880:0:0:0:0:
329,192,316738,1,0,0:0:0:0:
109,192,316738,128,0,316833:0:0:0:0:
36,192,316833,1,0,0:0:0:0:
402,192,316833,128,0,316975:0:0:0:0:
256,192,316928,128,0,317070:0:0:0:0:
109,192,316928,128,0,316975:0:0:0:0:
329,192,316928,128,0,317023:0:0:0:0:
36,192,317023,128,0,317165:0:0:0:0:
402,192,317023,128,0,317070:0:0:0:0:
182,192,317118,128,0,317260:0:0:0:0:
475,192,317118,128,0,317165:0:0:0:0:
109,192,317118,128,0,317213:0:0:0:0:
256,192,317213,1,0,0:0:0:0:
402,192,317213,128,0,317355:0:0:0:0:
256,192,317307,1,0,0:0:0:0:
109,192,317307,128,0,317450:0:0:0:0:
182,192,317307,128,0,317355:0:0:0:0:
402,192,317402,128,0,317545:0:0:0:0:
329,192,317497,1,0,0:0:0:0:
475,192,317497,1,0,0:0:0:0:
182,192,317497,128,0,317545:0:0:0:0:
36,192,317497,128,0,317640:0:0:0:0:
109,192,317497,128,0,317592:0:0:0:0:
329,192,317592,1,0,0:0:0:0:
402,192,317592,128,0,317735:0:0:0:0:
475,192,317687,128,0,317735:0:0:0:0:
182,192,317687,128,0,317830:0:0:0:0:
109,192,317687,128,0,317782:0:0:0:0:
402,192,317782,1,0,0:0:0:0:
329,192,317782,128,0,317877:0:0:0:0:
109,192,317877,1,0,0:0:0:0:
402,192,317877,1,0,0:0:0:0:
256,192,317877,128,0,318019:0:0:0:0:
475,192,317877,128,0,317925:0:0:0:0:
182,192,317877,128,0,317972:0:0:0:0:
36,192,317972,128,0,318114:0:0:0:0:
402,192,318067,128,0,318209:0:0:0:0:
256,192,318067,128,0,318114:0:0:0:0:
475,192,318067,128,0,318162:0:0:0:0:
109,192,318162,128,0,318304:0:0:0:0:
256,192,318257,1,0,0:0:0:0:
402,192,318257,1,0,0:0:0:0:
329,192,318257,128,0,318304:0:0:0:0:
475,192,318257,128,0,318399:0:0:0:0:
36,192,318257,128,0,318352:0:0:0:0:
256,192,318352,1,0,0:0:0:0:
182,192,318352,128,0,318494:0:0:0:0:
402,192,318447,128,0,318494:0:0:0:0:
36,192,318447,128,0,318589:0:0:0:0:
109,192,318447,128,0,318542:0:0:0:0:
256,192,318542,128,0,318589:0:0:0:0:
475,192,318542,128,0,318684:0:0:0:0:
329,192,318637,128,0,318779:0:0:0:0:
182,192,318637,128,0,318684:0:0:0:0:
109,192,318637,128,0,318732:0:0:0:0:
36,192,318732,1,0,0:0:0:0:
475,192,318732,128,0,318874:0:0:0:0:
36,192,318826,1,0,0:0:0:0:
182,192,318826,128,0,318874:0:0:0:0:
256,192,318826,128,0,318969:0:0:0:0:
402,192,318921,128,0,319064:0:0:0:0:
182,192,319016,1,0,0:0:0:0:
256,192,319016,1,0,0:0:0:0:
36,192,319016,128,0,319064:0:0:0:0:
109,192,319016,128,0,319159:0:0:0:0:
475,192,319016,128,0,319111:0:0:0:0:
182,192,319111,1,0,0:0:0:0:
329,192,319111,128,0,319254:0:0:0:0:
475,192,319206,128,0,319254:0:0:0:0:
402,192,319206,128,0,319349:0:0:0:0:
109,192,319206,128,0,319301:0:0:0:0:
329,192,319301,1,0,0:0:0:0:
256,192,319301,128,0,319396:0:0:0:0:
329,192,319396,1,0,0:0:0:0:
109,192,319396,1,0,0:0:0:0:
182,192,319396,128,0,319538:0:0:0:0:
475,192,319396,128,0,319444:0:0:0:0:
402,192,319396,128,0,319491:0:0:0:0:
36,192,319491,128,0,319633:0:0:0:0:
329,192,319586,128,0,319633:0:0:0:0:
256,192,319586,128,0,319728:0:0:0:0:
402,192,319586,128,0,319681:0:0:0:0:
109,192,319681,128,0,319823:0:0:0:0:
329,192,319776,1,0,0:0:0:0:
402,192,319776,128,0,319823:0:0:0:0:
256,192,319776,1,0,0:0:0:0:
475,192,319776,128,0,319918:0:0:0:0:
36,192,319776,128,0,319871:0:0:0:0:
329,192,319871,1,0,0:0:0:0:
182,192,319871,128,0,320013:0:0:0:0:
402,192,319966,128,0,320013:0:0:0:0:
36,192,319966,128,0,320108:0:0:0:0:
109,192,319966,128,0,320061:0:0:0:0:
256,192,320061,128,0,320203:0:0:0:0:
475,192,320061,128,0,320108:0:0:0:0:
182,192,320156,128,0,320298:0:0:0:0:
329,192,320156,128,0,320203:0:0:0:0:
109,192,320156,128,0,320251:0:0:0:0:
36,192,320251,1,0,0:0:0:0:
475,192,320251,128,0,320393:0:0:0:0:
36,192,320345,1,0,0:0:0:0:
256,192,320345,128,0,320488:0:0:0:0:
182,192,320345,128,0,320393:0:0:0:0:
402,192,320440,128,0,320583:0:0:0:0:
36,192,320535,1,0,0:0:0:0:
256,192,320535,1,0,0:0:0:0:
109,192,320535,128,0,320583:0:0:0:0:
182,192,320535,128,0,320678:0:0:0:0:
475,192,320535,128,0,320630:0:0:0:0:
256,192,320630,1,0,0:0:0:0:
329,192,320630,128,0,320773:0:0:0:0:
402,192,320725,1,0,0:0:0:0:
475,192,320725,128,0,320773:0:0:0:0:
36,192,320725,128,0,320868:0:0:0:0:
109,192,320725,128,0,320820:0:0:0:0:
182,192,320820,1,0,0:0:0:0:
256,192,320820,128,0,320915:0:0:0:0:
36,192,320915,1,0,0:0:0:0:
182,192,320915,1,0,0:0:0:0:
402,192,320915,128,0,321057:0:0:0:0:
475,192,320915,128,0,320963:0:0:0:0:
329,192,320915,128,0,321010:0:0:0:0:
256,192,321010,128,0,321152:0:0:0:0:
109,192,321010,128,0,321057:0:0:0:0:
475,192,321105,1,0,0:0:0:0:
182,192,321105,128,0,321247:0:0:0:0:
329,192,321105,128,0,321152:0:0:0:0:
36,192,321105,128,0,321200:0:0:0:0:
402,192,321200,128,0,321342:0:0:0:0:
109,192,321200,128,0,321247:0:0:0:0:
36,192,321295,1,0,0:0:0:0:
329,192,321295,128,0,321437:0:0:0:0:
256,192,321295,128,0,321342:0:0:0:0:
475,192,321295,128,0,321390:0:0:0:0:
36,192,321390,1,0,0:0:0:0:
182,192,321390,128,0,321532:0:0:0:0:
402,192,321390,128,0,321437:0:0:0:0:
329,192,321485,1,0,0:0:0:0:
475,192,321485,128,0,321627:0:0:0:0:
256,192,321485,128,0,321532:0:0:0:0:
109,192,321485,128,0,321580:0:0:0:0:
36,192,321580,128,0,321722:0:0:0:0:
182,192,321580,128,0,321627:0:0:0:0:
402,192,321580,128,0,321675:0:0:0:0:
475,192,321675,1,0,0:0:0:0:
109,192,321675,128,0,321817:0:0:0:0:
329,192,321675,128,0,321722:0:0:0:0:
256,192,321675,128,0,321770:0:0:0:0:
182,192,321770,1,0,0:0:0:0:
402,192,321770,128,0,321912:0:0:0:0:
36,192,321770,128,0,321817:0:0:0:0:
182,192,321864,1,0,0:0:0:0:
329,192,321864,128,0,322007:0:0:0:0:
475,192,321864,128,0,321912:0:0:0:0:
109,192,321864,128,0,321959:0:0:0:0:
36,192,321959,128,0,322102:0:0:0:0:
256,192,321959,128,0,322007:0:0:0:0:
475,192,322054,1,0,0:0:0:0:
109,192,322054,1,0,0:0:0:0:
402,192,322054,128,0,322197:0:0:0:0:
182,192,322054,128,0,322102:0:0:0:0:
329,192,322054,128,0,322149:0:0:0:0:
475,192,322149,1,0,0:0:0:0:
256,192,322149,128,0,322292:0:0:0:0:
36,192,322149,128,0,322197:0:0:0:0:
182,192,322244,1,0,0:0:0:0:
109,192,322244,128,0,322387:0:0:0:0:
329,192,322244,128,0,322292:0:0:0:0:
402,192,322244,128,0,322339:0:0:0:0:
256,192,322339,1,0,0:0:0:0:
475,192,322339,128,0,322434:0:0:0:0:
36,192,322339,128,0,322387:0:0:0:0:
109,192,322434,1,0,0:0:0:0:
256,192,322434,1,0,0:0:0:0:
182,192,322434,128,0,322576:0:0:0:0:
329,192,322434,128,0,322482:0:0:0:0:
402,192,322434,128,0,322529:0:0:0:0:
475,192,322529,128,0,322671:0:0:0:0:
36,192,322529,128,0,322576:0:0:0:0:
402,192,322624,1,0,0:0:0:0:
109,192,322624,128,0,322766:0:0:0:0:
329,192,322624,128,0,322671:0:0:0:0:
182,192,322624,128,0,322719:0:0:0:0:
256,192,322719,128,0,322861:0:0:0:0:
475,192,322719,128,0,322766:0:0:0:0:
182,192,322814,1,0,0:0:0:0:
402,192,322814,1,0,0:0:0:0:
109,192,322814,1,0,0:0:0:0:
329,192,322814,1,0,0:0:0:0:
475,192,322861,1,0,0:0:0:0:
36,192,322861,1,0,0:0:0:0:
256,192,322909,1,0,0:0:0:0:
109,192,322909,1,0,0:0:0:0:
182,192,322909,128,0,323051:0:0:0:0:
402,192,322909,128,0,322956:0:0:0:0:
109,192,323004,1,0,0:0:0:0:
329,192,323004,128,0,323099:0:0:0:0:
475,192,323099,1,0,0:0:0:0:
182,192,323099,1,0,0:0:0:0:
402,192,323099,1,0,0:0:0:0:
36,192,323099,1,0,0:0:0:0:
256,192,323099,128,0,323194:0:0:0:0:
329,192,323194,128,0,323289:0:0:0:0:
256,192,323289,1,0,0:0:0:0:
36,192,323289,1,0,0:0:0:0:
475,192,323289,1,0,0:0:0:0:
402,192,323289,1,0,0:0:0:0:
182,192,323289,128,0,323383:0:0:0:0:
329,192,323383,1,0,0:0:0:0:
256,192,323383,1,0,0:0:0:0:
36,192,323383,1,0,0:0:0:0:
475,192,323383,1,0,0:0:0:0:
402,192,323383,128,0,323478:0:0:0:0:
109,192,323478,128,0,323573:0:0:0:0:
256,192,323573,1,0,0:0:0:0:
182,192,323573,1,0,0:0:0:0:
402,192,323573,1,0,0:0:0:0:
329,192,323573,1,0,0:0:0:0:
475,192,323573,128,0,323668:0:0:0:0:
109,192,323668,1,0,0:0:0:0:
36,192,323668,128,0,323763:0:0:0:0:
256,192,323763,1,0,0:0:0:0:
475,192,323763,1,0,0:0:0:0:
329,192,323763,128,0,323858:0:0:0:0:
36,192,323858,1,0,0:0:0:0:
182,192,323858,128,0,323953:0:0:0:0:
109,192,323953,1,0,0:0:0:0:
256,192,323953,1,0,0:0:0:0:
402,192,323953,1,0,0:0:0:0:
