osu file format v10

[General]
AudioFilename: SubetrraneanEmotion.mp3
AudioLeadIn: 0
PreviewTime: 56062
Countdown: 0
SampleSet: Soft
StackLeniency: 0.4
Mode: 0
LetterboxInBreaks: 0
EpilepsyWarning: 1

[Editor]
Bookmarks: 56045,78388,100696,123039,134185,145364,148155,170481,227690,229434
DistanceSpacing: 1.2
BeatDivisor: 4
GridSize: 4

[Metadata]
Title:Subterranean Emotion
TitleUnicode:
Artist:EastNewSound
ArtistUnicode:
Creator:Scorpiour
Version:Lunatic
Source:Touhou
Tags:Chata Koishi Komeiji split theory c79 eikkaleyd ZUN
BeatmapID:164999
BeatmapSetID:54241

[Difficulty]
HPDrainRate:7
CircleSize:4
OverallDifficulty:7
ApproachRate:8
SliderMultiplier:1.92
SliderTickRate:2

[Events]
//Background and Video events
0,0,"BG.jpg"
//Break Periods
2,123222,133435
//Storyboard Layer 0 (Background)
//Storyboard Layer 1 (Fail)
//Storyboard Layer 2 (Pass)
//Storyboard Layer 3 (Foreground)
Sprite,Foreground,Centre,"SB\ring.png",494,128 F,2,106278,106975,1,0 S,1,106278,106975,0,1.5
Sprite,Foreground,Centre,"SB\ring.png",196,220 F,2,111859,112557,1,0 S,1,111859,112557,0,1.5
Sprite,Foreground,Centre,"SB\ring.png",456,388 F,2,117440,118138,1,0 S,1,117440,118138,0,1.5
Sprite,Foreground,Centre,"SB\ring.png",348,172 F,2,120231,120929,1,0 S,1,120231,120929,0,1.5
//Storyboard Sound Samples
//Background Colour Transformations
3,100,0,0,0

[TimingPoints]
33720,348.837209302326,4,2,1,80,1,0
55871,-200,4,2,1,80,0,0
56045,-100,4,2,1,80,0,0
100696,-100,4,2,1,80,0,1
123022,-100,4,2,1,80,0,0
146045,1395.3488372093,4,2,1,80,1,0
146045,-200,4,2,1,80,0,0
146145,-200,4,2,1,5,0,0
148138,348.837209302326,4,2,1,80,1,1
170376,-100,4,2,1,80,0,0
170464,-100,4,2,1,80,0,1
195580,-100,4,2,1,80,0,0

[Colours]
Combo1 : 255,128,255
Combo2 : 128,255,255
Combo3 : 255,0,128
Combo4 : 192,192,255
SliderBorder : 240,240,240

[HitObjects]
172,160,33719,5,0,0:0:0
104,228,33894,1,0,0:0:0
196,252,34068,1,0,0:0:0
172,160,34243,2,0,B|192:84|252:52|252:52|312:76,2,192
104,228,35115,2,0,B|120:280|169:292,1,96
204,384,35464,2,0,B|256:368|268:318,1,96
240,228,35813,1,0,0:0:0
256,132,35987,1,0,0:0:0
332,72,36161,1,0,0:0:0
428,60,36336,1,0,0:0:0
428,60,36423,1,0,0:0:0
428,60,36510,5,0,0:0:0
444,156,36685,1,0,0:0:0
348,168,36859,1,0,0:0:0
332,72,37033,2,0,B|300:28|256:16|256:16|204:32|180:72,2,192
348,168,37906,2,0,B|348:216|312:256,1,96
324,352,38254,2,0,B|276:352|236:316,1,96
176,240,38603,1,0,0:0:0
252,180,38778,1,0,0:0:0
224,88,38952,1,0,0:0:0
128,88,39126,1,0,0:0:0
128,88,39214,1,0,0:0:0
128,88,39301,5,0,0:0:0
100,180,39475,1,0,0:0:0
192,160,39650,1,0,0:0:0
224,72,39824,2,0,B|292:64|336:16|336:16|368:28|384:57,2,192
128,88,40696,2,0,B|80:80|32:88,1,96
192,160,41045,2,0,B|240:168|288:160,1,96
380,132,41394,1,0,0:0:0
468,168,41568,1,0,0:0:0
484,264,41743,1,0,0:0:0
432,344,41917,1,0,0:0:0
432,344,42004,1,0,0:0:0
432,344,42092,5,0,0:0:0
336,348,42266,1,0,0:0:0
280,272,42440,1,0,0:0:0
188,300,42615,2,0,B|120:328|72:320|72:320|44:296|43:254,2,192
280,272,43487,2,0,B|328:276|376:272,1,96
212,204,43836,2,0,B|164:200|116:204,1,96
300,180,44185,1,0,0:0:0
356,104,44359,1,0,0:0:0
296,28,44533,1,0,0:0:0
204,60,44708,1,0,0:0:0
204,60,44795,1,0,0:0:0
204,60,44882,5,0,0:0:0
208,156,45057,1,0,0:0:0
164,240,45231,1,0,0:0:0
220,316,45406,2,0,B|292:320|340:264|340:264|368:272|386:295,2,192
124,300,46278,1,0,0:0:0
72,220,46452,1,0,0:0:0
80,124,46626,1,0,0:0:0
148,56,46801,1,0,0:0:0
244,60,46975,2,0,B|288:40|338:55,2,96
196,144,47499,1,0,0:0:0
196,144,47586,1,0,0:0:0
196,144,47673,5,0,0:0:0
224,236,47847,1,0,0:0:0
312,272,48022,1,0,0:0:0
408,264,48196,2,0,B|456:196|412:124|412:124|455:124,2,192
332,324,49068,1,0,0:0:0
236,336,49243,1,0,0:0:0
212,172,49417,1,0,0:0:0
272,248,49592,1,0,0:0:0
144,352,49766,2,0,B|92:336|81:285,2,96
176,260,50289,1,0,0:0:0
176,260,50376,1,0,0:0:0
176,260,50464,5,0,0:0:0
272,248,50638,1,0,0:0:0
320,164,50813,1,0,0:0:0
292,72,50987,2,0,B|240:32|172:40|172:40|140:56|129:87,2,192
381,113,51859,1,0,0:0:0
390,206,52033,1,0,0:0:0
311,265,52208,1,0,0:0:0
214,128,52382,1,0,0:0:0
223,225,52557,1,0,0:0:0
292,72,52731,1,0,0:0:0
390,206,52906,1,0,0:0:0
303,167,53080,1,0,0:0:0
303,167,53167,1,0,0:0:0
303,167,53254,5,0,0:0:0
223,225,53429,1,0,0:0:0
136,184,53603,1,0,0:0:0
52,232,53778,2,0,B|64:300|120:324|120:324|152:304|196:312,2,192
52,136,54650,2,0,B|48:124|48:124|56:124|56:124|52:128|52:128|52:58,1,96
136,184,54999,2,0,B|140:196|140:196|132:196|132:196|136:192|136:192|136:261,1,96
212,128,55347,1,0,0:0:0
304,156,55522,1,0,0:0:0
368,84,55696,1,0,0:0:0
460,116,55871,6,0,B|460:164,1,48,0|4,0:0|0:0,0:0:0
312,340,56394,1,0,0:0:0
136,184,56743,2,0,B|144:252|216:292|279:275,1,192
384,224,57266,2,0,B|408:176|372:136,1,96
232,76,57615,2,0,B|208:124|244:164,1,96
220,276,57964,2,0,B|273:272|290:220,1,96
400,184,58313,2,0,B|370:139|317:150,1,96
212,196,58661,6,0,B|148:236|72:200|72:127,1,192
180,84,59185,1,0,0:0:0
212,196,59359,2,0,B|232:248|283:253,1,96
336,356,59708,2,0,B|388:336|393:284,1,96
412,172,60057,1,0,0:0:0
328,92,60231,6,0,B|360:48|409:48,2,96
300,204,60754,1,0,0:0:0
300,204,60842,1,0,0:0:0
300,204,60929,2,0,B|292:256|244:276,1,96
128,292,61278,1,0,0:0:0
40,220,61452,1,0,0:0:0
40,220,61539,1,0,0:0:0
40,220,61626,6,0,B|28:164|66:132,1,96,4|0,0:0|0:0,0:0:0
172,88,61975,1,0,0:0:0
260,164,62150,1,0,0:0:0
260,164,62237,1,0,0:0:0
260,164,62324,2,0,B|312:180|354:166,2,96
220,272,62847,6,0,B|268:304|356:304|404:275,1,192
456,172,63371,1,0,0:0:0
420,64,63545,2,0,B|363:27|279:47|259:112,1,192
256,228,64068,1,0,0:0:0
292,340,64243,2,0,B|244:356|199:328,1,96
88,296,64592,2,0,B|80:244|104:203,1,96
212,164,64940,2,0,B|192:116|146:97,1,96
104,204,65289,1,0,0:0:0
192,276,65464,1,0,0:0:0
300,240,65638,1,0,0:0:0
300,240,65725,1,0,0:0:0
300,240,65813,2,0,B|348:228|394:242,1,96
256,56,66336,5,0,0:0:0
256,56,66423,1,0,0:0:0
256,56,66510,2,0,B|272:104|249:149,1,96
144,196,66859,1,0,0:0:0
68,284,67033,1,0,0:0:0
68,284,67121,1,0,0:0:0
68,284,67208,6,0,B|104:320|156:313,1,96,4|0,0:0|0:0,0:0:0
272,304,67557,1,0,0:0:0
340,212,67731,1,0,0:0:0
292,108,67906,2,0,B|324:72|379:79,1,96
484,124,68254,1,0,0:0:0
452,236,68429,6,0,B|440:304|372:340|304:321,1,192
208,260,68952,1,0,0:0:0
280,172,69126,2,0,B|256:116|168:92|113:124,1,192
28,204,69650,1,0,0:0:0
140,236,69824,1,0,0:0:0
140,236,69911,1,0,0:0:0
140,236,69999,6,0,B|196:228|215:182,2,96
113,124,70522,2,0,B|164:92|164:40|164:40|204:20|251:33,1,192
364,48,71045,1,0,0:0:0
404,216,71219,1,0,0:0:0
404,216,71307,1,0,0:0:0
404,216,71394,2,0,B|428:268|476:271,2,96
300,168,71917,2,0,B|319:103|400:80|458:117,2,192
344,276,72789,6,0,B|272:292|224:252|224:252|159:262,1,192,4|0,0:0|0:0,0:0:0
44,276,73313,1,0,0:0:0
36,160,73487,2,0,B|32:128|32:128|40:100|32:64,2,96
140,212,74010,1,0,0:0:0
140,212,74359,2,0,B|188:232|233:210,1,96,0|0,0:0|0:0,0:0:0
264,320,74708,2,0,B|305:288|309:238,1,96
424,264,75057,2,0,B|417:212|376:183,1,96
452,96,75406,1,0,0:0:0
452,96,75580,5,0,0:0:0
352,40,75754,1,0,0:0:0
352,40,75929,1,0,0:0:0
238,63,76103,2,0,B|172:60|120:144|155:202,1,192
192,312,76626,1,0,0:0:0
88,264,76801,1,0,0:0:0
88,264,76888,1,0,0:0:0
88,264,76975,6,0,B|104:216|156:200,1,96
268,172,77324,1,0,0:0:0
304,284,77499,1,0,0:0:0
304,284,77586,1,0,0:0:0
304,284,77673,2,0,B|352:308|397:289,1,96
452,188,78022,2,0,B|404:164|358:182,1,96
254,232,78371,6,0,B|188:256|120:224|104:154,1,192,4|0,0:0|0:0,0:0:0
112,40,78894,1,0,0:0:0
228,52,79068,2,0,B|296:72|364:24|364:24|398:58,1,192
468,152,79592,1,0,0:0:0
352,140,79766,2,0,B|286:135|226:183|222:254,1,192
280,352,80289,1,0,0:0:0
336,252,80464,2,0,B|331:181|271:133|206:137,1,192
92,148,80987,1,0,0:0:0
36,248,81161,6,0,B|40:300|86:324,2,96
152,228,81685,2,0,B|199:250|243:222,1,96
196,120,82033,2,0,B|225:78|281:62|329:78|362:119,1,192
400,228,82557,1,0,0:0:0
328,316,82731,2,0,B|288:284|287:232,1,96
176,208,83080,2,0,B|183:157|228:131,1,96
344,128,83429,1,0,0:0:0
400,228,83603,2,0,B|356:256|308:234,1,96
240,140,83952,6,0,B|216:76|156:52|156:52|120:56|95:79,1,192,4|0,0:0|0:0,0:0:0
44,184,84475,1,0,0:0:0
152,220,84650,2,0,B|176:284|236:308|236:308|272:304|296:280,1,192,0|0,0:0|0:0,0:0:0
388,208,85173,1,0,0:0:0
375,91,85347,2,0,B|440:84|500:128|507:201,1,192
452,304,85871,1,0,0:0:0
336,312,86045,2,0,B|292:288|276:240,1,96
304,128,86394,1,0,0:0:0
208,64,86568,1,0,0:0:0
120,136,86743,6,0,B|76:136|48:124|48:124|25:127,2,96
160,244,87266,2,0,B|160:296|201:326,1,96
276,240,87615,2,0,B|276:188|234:157,1,96
196,48,87964,2,0,B|252:8|316:8|316:8|348:28|356:56,1,192
368,172,88487,1,0,0:0:0
276,240,88661,2,0,B|204:252|160:204|160:204|128:200|95:214,1,192
28,308,89185,1,0,0:0:0
144,320,89359,1,0,0:0:0
144,320,89446,1,0,0:0:0
144,320,89533,6,0,B|192:352|280:352|329:329,1,192,4|0,0:0|0:0,0:0:0
428,264,90057,1,0,0:0:0
324,212,90231,2,0,B|260:204|200:160|188:94,1,192
256,0,90754,1,0,0:0:0
323,94,90929,2,0,B|312:160|252:204|188:212,1,192
84,164,91452,1,0,0:0:0
188,112,91626,2,0,B|228:92|281:95,1,96
448,168,91975,2,0,B|408:188|354:184,1,96
281,95,92324,6,0,B|256:68|224:52|224:52|176:88|109:73,1,192
68,180,92847,1,0,0:0:0
120,284,93022,1,0,0:0:0
232,260,93196,1,0,0:0:0
336,312,93371,1,0,0:0:0
240,376,93545,1,0,0:0:0
240,376,93632,1,0,0:0:0
240,376,93720,6,0,B|208:332|228:284,1,96
304,200,94068,1,0,0:0:0
416,228,94243,2,0,B|428:180|400:136,1,96
304,200,94592,1,0,0:0:0
212,268,94766,2,0,B|176:272|152:260|152:260|116:268,1,96
64,164,95115,6,0,B|124:152|124:152|180:180|252:164,1,192,4|0,0:0|0:0,0:0:0
364,140,95638,1,0,0:0:0
160,36,95987,1,0,0:0:0
56,240,96336,1,0,0:0:0
260,348,96685,2,0,B|272:292|240:256|240:256|256:200,1,144
272,156,97033,2,0,B|340:120|411:152,1,144
410,151,97382,1,0,0:0:0
444,264,97557,1,0,0:0:0
344,320,97731,1,0,0:0:0
344,320,97818,1,0,0:0:0
342,320,97906,6,0,B|288:344|204:328|169:274,1,192
148,160,98429,1,0,0:0:0
63,238,98603,2,0,B|104:288|192:288|234:238,1,192
260,124,99126,1,0,0:0:0
172,48,99301,2,0,B|216:0|296:0|345:45,1,192
260,124,99824,1,0,0:0:0
208,228,99999,2,0,B|216:272|264:304|264:304|308:272|317:227,1,192
264,304,100696,5,4,0:0:0
148,320,100871,2,0,B|116:328|84:320|84:320|52:326,2,96
192,212,101394,1,0,0:0:0
288,148,101569,1,0,0:0:0
377,221,101743,1,0,0:0:0
336,329,101918,1,0,0:0:0
221,323,102092,6,0,B|224:268|265:241,1,96
424,260,102440,2,0,B|374:284|331:262,1,96,0|0,0:0|0:0,0:0:0
268,116,102789,2,0,B|314:146|316:194,2,96
154,93,103313,1,0,0:0:0
230,6,103487,5,0,0:0:0
456,8,103661,1,0,0:0:0
343,28,103836,1,0,0:0:0
460,220,104010,1,0,0:0:0
380,137,104185,1,0,0:0:0
264,332,104359,1,0,0:0:0
305,224,104533,1,0,0:0:0
268,116,104708,5,0,0:0:0
272,124,104795,1,0,0:0:0
276,132,104882,2,0,B|292:180|261:223,1,96
285,336,105231,2,0,B|235:325|212:277,1,96
106,236,105580,2,0,B|139:198|192:202,1,96
296,252,105929,2,0,B|349:256|382:218,1,96
432,80,106278,6,0,B|380:40|308:40|308:40|258:74,1,192,4|0,0:0|0:0,0:0:0
256,192,106801,1,0,0:0:0
80,304,106975,2,0,B|132:344|204:344|204:344|253:309,1,192
256,192,107499,1,0,0:0:0
160,132,107673,6,0,B|128:124|96:132|96:132|65:124,2,96
260,76,108196,1,0,0:0:0
296,64,108283,1,0,0:0:0
332,72,108371,2,0,B|368:80|396:68|396:68|427:71,2,96
268,168,108894,1,0,0:0:0
296,192,108981,1,0,0:0:0
332,204,109068,5,0,0:0:0
376,312,109243,1,0,0:0:0
252,232,109417,1,0,0:0:0
148,284,109592,1,0,0:0:0
228,152,109766,1,0,0:0:0
184,44,109940,1,0,0:0:0
308,124,110115,1,0,0:0:0
416,84,110289,1,0,0:0:0
448,196,110464,2,0,B|452:228|452:228|444:256|454:290,2,96
332,208,110987,1,0,0:0:0
332,208,111074,1,0,0:0:0
332,208,111161,6,0,B|336:152|379:128,1,96
324,288,111510,2,0,B|273:312|231:287,1,96,0|0,0:0|0:0,0:0:0
132,160,111859,6,0,B|100:152|68:160|68:160|36:153,2,96,4|0|0,0:0|0:0|0:0,0:0:0
244,180,112382,1,0,0:0:0
280,172,112470,1,0,0:0:0
316,184,112557,2,0,B|364:204|412:176,2,96
240,272,113080,1,0,0:0:0
204,280,113167,1,0,0:0:0
168,264,113254,6,0,B|120:248|73:264,1,96
272,296,113603,2,0,B|320:312|365:290,1,96
244,180,113952,2,0,B|208:144|222:90,2,96
356,216,114475,1,0,0:0:0
448,148,114650,6,0,B|462:94|426:58,1,96,0|0,0:0|0:0,0:0:0
380,284,115173,1,0,0:0:0
112,256,115522,1,0,0:0:0
268,36,115871,2,0,B|320:52|330:102,1,96
256,192,116220,1,0,0:0:0
148,152,116394,1,0,0:0:0
48,208,116568,2,0,B|64:256|119:263,1,96
192,356,116917,2,0,B|241:366|276:321,1,96
392,340,117266,1,0,0:0:0
392,340,117353,1,0,0:0:0
392,340,117440,6,0,B|425:302|404:250,1,96,4|0,0:0|0:0,0:0:0
412,136,117789,2,0,B|362:125|327:170,1,96
299,279,118138,2,0,B|244:271|228:224,1,96
200,112,118487,2,0,B|152:92|106:109,1,96
48,292,118836,6,0,B|96:312|141:294,2,96
96,188,119359,1,0,0:0:0
96,188,119446,1,0,0:0:0
96,188,119533,2,0,B|144:160|186:188,1,96
260,276,119882,2,0,B|312:268|337:223,1,96
284,124,120231,5,4,0:0:0
186,188,120406,1,0,0:0:0
289,238,120580,1,0,0:0:0
179,73,120754,1,0,0:0:0
194,303,120929,1,0,0:0:0
386,177,121103,1,0,0:0:0
252,184,121278,1,0,0:0:0
194,303,121452,1,0,0:0:0
76,240,121626,6,0,B|72:204|48:180|48:180|50:150,2,96
192,168,122150,2,0,B|196:204|220:228|220:228|217:257,2,96
328,160,122673,2,0,B|324:124|300:100|300:100|302:70,1,96
288,224,123022,5,4,0:0:0
456,248,134185,6,0,B|380:276|324:204|324:204|292:230,1,192
228,304,134708,1,0,0:0:0
140,344,134882,2,0,B|68:336|32:260|62:200,1,192
124,124,135406,1,0,0:0:0
220,128,135580,2,0,B|268:128|292:92|292:92|304:92,2,96
168,212,136103,1,0,0:0:0
168,212,136190,1,0,0:0:0
168,212,136278,2,0,B|140:260|165:303,2,96
252,260,136801,6,0,B|312:200|404:236,1,144
460,246,137150,2,0,B|472:192|429:162,1,96
340,124,137499,1,0,0:0:0
248,152,137673,1,0,0:0:0
164,104,137847,1,0,0:0:0
72,136,138022,1,0,0:0:0
140,204,138196,1,0,0:0:0
140,204,138283,1,0,0:0:0
140,204,138371,6,0,B|144:248|112:280|112:280|118:289,2,96
212,140,138894,1,0,0:0:0
212,140,138981,1,0,0:0:0
212,140,139068,2,0,B|224:68|156:32|156:32|184:16|215:19,1,192
312,24,139592,1,0,0:0:0
388,80,139766,6,0,B|436:72|476:40,1,96
428,168,140115,2,0,B|380:184|336:160,1,96
408,264,140464,2,0,B|464:272|497:238,2,96
332,324,140987,2,0,B|296:264|328:212|328:212|316:176|272:169,1,192
180,144,141510,1,0,0:0:0
84,156,141685,1,0,0:0:0
140,232,141859,2,0,B|168:284|216:280,1,96
292,220,142208,1,0,0:0:0
276,124,142382,6,0,B|332:100|372:136,1,96
360,36,142731,1,0,0:0:0
448,80,142906,2,0,B|472:124|468:172|436:204|436:204|460:224|489:223,2,192
368,136,143778,1,0,0:0:0
336,228,143952,5,0,0:0:0
193,285,144127,1,0,0:0:0
136,143,144301,1,0,0:0:0
278,85,144476,1,0,0:0:0
284,164,144650,5,0,0:0:0
253,235,144825,1,0,0:0:0
183,205,144999,1,0,0:0:0
212,134,145174,1,0,0:0:0
256,336,146045,6,0,B|256:192,1,144,0|4,0:0|0:0,0:0:0
304,88,148312,2,0,B|352:64|398:82,2,96
196,124,148835,1,0,0:0:0
88,82,149010,1,0,0:0:0
47,190,149184,1,0,0:0:0
154,231,149358,1,0,0:0:0
268,208,149533,6,0,B|304:172|356:175,1,96
308,320,149882,2,0,B|272:356|219:352,1,96
288,116,150231,2,0,B|324:80|376:83,2,96
216,208,150754,1,0,0:0:0
384,364,150928,5,0,0:0:0
376,188,151103,1,0,0:0:0
304,280,151277,1,0,0:0:0
124,276,151451,1,0,0:0:0
288,116,151626,1,0,0:0:0
212,32,151800,1,0,0:0:0
216,208,151975,1,0,0:0:0
468,116,152149,1,0,0:0:0
