osu file format v9

[General]
AudioFilename: Seisou Rinne ~Repeat~.mp3
AudioLeadIn: 0
PreviewTime: 89647
Countdown: 0
SampleSet: Soft
StackLeniency: 0.7
Mode: 0
LetterboxInBreaks: 0
EpilepsyWarning: 1

[Editor]
DistanceSpacing: 1.2
BeatDivisor: 4
GridSize: 8

[Metadata]
Title:Seisou Rinne ~Repeat~
Artist:EastNewSound
Creator:Leorda
Version:Hard
Source:Touhou
Tags:ten desires shinreibyou toyosatomimi no miko stage 6 boss shoutoku legend true administrator chata kokuchou dione aggregation

[Difficulty]
HPDrainRate:4
CircleSize:3
OverallDifficulty:4
ApproachRate:7
SliderMultiplier:1.5
SliderTickRate:2

[Events]
//Background and Video events
0,0,"DJ Miko-tan.jpg"
//Break Periods
2,113141,134629
//Storyboard Layer 0 (Background)
//Storyboard Layer 1 (Fail)
//Storyboard Layer 2 (Pass)
//Storyboard Layer 3 (Foreground)
//Storyboard Sound Samples
//Background Colour Transformations
3,100,163,162,255

[TimingPoints]
0,352.941176470588,4,2,1,100,1,0
45308,-100,4,2,0,100,0,0
45397,-100,4,2,1,100,0,0
45617,-100,4,2,0,100,0,0
45794,-100,4,2,1,100,0,0
46544,-100,4,2,2,80,0,0
46632,-100,4,2,1,100,0,0
48088,-100,4,2,0,100,0,0
48264,-100,4,2,1,100,0,0
48617,-100,4,2,0,100,0,0
48794,-100,4,2,1,100,0,0
49499,-100,4,2,0,100,0,0
49676,-100,4,2,1,100,0,0
50249,-100,4,2,2,80,0,0
50338,-100,4,2,1,100,0,0
50911,-100,4,2,0,100,0,0
51088,-100,4,2,1,100,0,0
51441,-100,4,2,0,100,0,0
51661,-100,4,2,2,80,0,0
51749,-100,4,2,1,100,0,0
53073,-100,4,2,2,80,0,0
53161,-100,4,2,1,100,0,0
53735,-100,4,2,0,100,0,0
53911,-100,4,2,1,100,0,0
54088,-100,4,2,0,100,0,0
54264,-100,4,2,1,100,0,0
55147,-100,4,2,0,100,0,0
55323,-100,4,2,1,100,0,0
56558,-100,4,2,0,100,0,0
56735,-100,4,2,1,100,0,0
57088,-100,4,2,0,100,0,0
57308,-100,4,2,1,100,0,0
59382,-100,4,2,0,100,0,0
59558,-100,4,2,1,100,0,0
59911,-100,4,2,0,100,0,0
60088,-100,4,2,1,100,0,0
60794,-100,4,2,0,100,0,0
60970,-100,4,2,1,100,0,0
62205,-100,4,2,0,100,0,0
62382,-100,4,2,1,100,0,0
62735,-100,4,2,0,100,0,0
62911,-100,4,2,1,100,0,0
63264,-100,4,2,0,100,0,0
63441,-100,4,2,1,100,0,0
63970,-100,4,2,0,100,0,0
64147,-100,4,2,1,100,0,0
64676,-100,4,2,0,100,0,0
64852,-100,4,2,1,100,0,0
69132,-100,4,2,2,80,0,0
69220,-100,4,2,1,100,0,0
69794,-100,4,2,0,100,0,0
69970,-100,4,2,1,100,0,0
70676,-100,4,2,0,100,0,0
70852,-100,4,2,1,100,0,0
71426,-100,4,2,2,80,0,0
71514,-100,4,2,1,100,0,0
73499,-100,4,2,0,100,0,0
73676,-100,4,2,1,100,0,0
73852,-100,4,2,0,100,0,0
74029,-100,4,2,1,100,0,0
75441,-100,4,2,0,100,0,0
75617,-100,4,2,1,100,0,0
76323,-100,4,2,0,100,0,0
76499,-100,4,2,1,100,0,0
77073,-100,4,2,2,80,0,0
77161,-100,4,2,1,100,0,0
77602,-100,4,2,2,80,0,0
77691,-100,4,2,0,100,0,0
77911,-100,4,2,1,100,0,0
78088,-100,4,2,0,100,0,0
78441,-100,4,2,1,100,0,0
78794,-100,4,2,0,100,0,0
78970,-100,4,2,1,100,0,0
79499,-100,4,2,0,100,0,0
79676,-100,4,2,1,100,0,0
80558,-100,4,2,0,100,0,0
80735,-100,4,2,1,100,0,0
80911,-100,4,2,0,100,0,0
81088,-100,4,2,1,100,0,0
84617,-100,4,2,0,60,0,0
90352,-100,4,2,0,100,0,1
90617,-100,4,2,1,100,0,1
91720,-100,4,2,2,80,0,1
91808,-100,4,2,1,100,0,1
93132,-100,4,2,2,80,0,1
93220,-100,4,2,1,100,0,1
94544,-100,4,2,2,80,0,1
94632,-100,4,2,1,100,0,1
95205,-100,4,2,0,100,0,1
95382,-100,4,2,1,100,0,1
96088,-100,4,2,0,100,0,1
96264,-100,4,2,1,100,0,1
97367,-100,4,2,2,80,0,1
97455,-100,4,2,1,100,0,1
98029,-100,4,2,0,100,0,1
98205,-100,4,2,1,100,0,1
99661,-100,4,2,2,80,0,1
99749,-100,4,2,1,100,0,1
100191,-100,4,2,2,80,0,1
100279,-100,4,2,1,100,0,1
103014,-100,4,2,2,80,0,1
103102,-100,4,2,1,100,0,1
104426,-100,4,2,2,80,0,1
104514,-100,4,2,1,100,0,1
105838,-100,4,2,2,80,0,1
105926,-100,4,2,1,100,0,1
106499,-100,4,2,0,100,0,1
106676,-100,4,2,1,100,0,1
107911,-100,4,2,0,100,0,1
108088,-100,4,2,1,100,0,1
108794,-100,4,2,0,100,0,1
108970,-100,4,2,1,100,0,1
112941,-100,4,2,1,100,0,0
136897,-100,4,2,2,80,0,0
136985,-100,4,2,1,100,0,0
138441,-100,4,2,0,100,0,0
138617,-100,4,2,1,100,0,0
139191,-100,4,2,2,80,0,0
139279,-100,4,2,1,100,0,0
140602,-100,4,2,2,80,0,0
140691,-100,4,2,1,100,0,0
141264,-100,4,2,0,100,0,0
141441,-100,4,2,1,100,0,0
141794,-100,4,2,0,100,0,0
142014,-100,4,2,2,80,0,0
142102,-100,4,2,1,100,0,0
142676,-100,4,2,0,100,0,0
142852,-100,4,2,1,100,0,0
143426,-100,4,2,2,80,0,0
143514,-100,4,2,1,100,0,0
144088,-100,4,2,0,100,0,0
144264,-100,4,2,1,100,0,0
144838,-100,4,2,2,80,0,0
144926,-100,4,2,1,100,0,0
145499,-100,4,2,0,100,0,0
145676,-100,4,2,1,100,0,0
146911,-100,4,2,0,100,0,0
147088,-100,4,2,1,100,0,0
147661,-100,4,2,2,80,0,0
147749,-100,4,2,1,100,0,0
149073,-100,4,2,2,80,0,0
149161,-100,4,2,1,100,0,0
149735,-100,4,2,0,100,0,0
149911,-100,4,2,1,100,0,0
151147,-100,4,2,0,100,0,0
151323,-100,4,2,1,100,0,0
152558,-100,4,2,0,100,0,0
152735,-100,4,2,1,100,0,0
153088,-100,4,2,0,100,0,0
153308,-100,4,2,2,80,0,0
153397,-100,4,2,1,100,0,0
153970,-100,4,2,0,100,0,0
154147,-100,4,2,1,100,0,0
154323,-100,4,2,0,100,0,0
154499,-100,4,2,1,100,0,0
155029,-100,4,2,0,100,0,0
155205,-100,4,2,1,100,0,0
156132,-100,4,2,2,80,0,0
156220,-100,4,2,1,100,0,0
159485,-100,4,2,2,80,0,0
159573,-100,4,2,1,100,0,0
161029,-100,4,2,0,100,0,0
161205,-100,4,2,1,100,0,0
161779,-100,4,2,2,80,0,0
161867,-100,4,2,1,100,0,0
162308,-100,4,2,2,80,0,0
162397,-100,4,2,1,100,0,0
163852,-100,4,2,0,100,0,0
164029,-100,4,2,1,100,0,0
164205,-100,4,2,0,100,0,0
164382,-100,4,2,1,100,0,0
164911,-100,4,2,0,100,0,0
165088,-100,4,2,1,100,0,0
165794,-100,4,2,0,100,0,0
165970,-100,4,2,1,100,0,0
166676,-100,4,2,0,100,0,0
166852,-100,4,2,1,100,0,0
167426,-100,4,2,2,80,0,0
167514,-100,4,2,1,100,0,0
167955,-100,4,2,2,80,0,0
168044,-100,4,2,1,100,0,0
169499,-100,4,2,0,100,0,0
169676,-100,4,2,1,100,0,0
169852,-100,4,2,0,100,0,0
170029,-100,4,2,1,100,0,0
170911,-100,4,2,0,100,0,0
171088,-100,4,2,1,100,0,0
171661,-100,4,2,2,80,0,0
171749,-100,4,2,1,100,0,0
174970,-100,4,2,0,60,0,0
180705,-100,4,2,1,100,0,1
180794,-100,4,2,0,100,0,1
180970,-100,4,2,1,100,0,1
182073,-100,4,2,2,80,0,1
182161,-100,4,2,1,100,0,1
183485,-100,4,2,2,80,0,1
183573,-100,4,2,1,100,0,1
184897,-100,4,2,2,80,0,1
184985,-100,4,2,1,100,0,1
185558,-100,4,2,0,100,0,1
185735,-100,4,2,1,100,0,1
186441,-100,4,2,0,100,0,1
186617,-100,4,2,1,100,0,1
187720,-100,4,2,2,80,0,1
187808,-100,4,2,1,100,0,1
188382,-100,4,2,0,100,0,1
188558,-100,4,2,1,100,0,1
190014,-100,4,2,2,80,0,1
190102,-100,4,2,1,100,0,1
190544,-100,4,2,2,80,0,1
190632,-100,4,2,1,100,0,1
193367,-100,4,2,2,80,0,1
193455,-100,4,2,1,100,0,1
194779,-100,4,2,2,80,0,1
194867,-100,4,2,1,100,0,1
196191,-100,4,2,2,80,0,1
196279,-100,4,2,1,100,0,1
196852,-100,4,2,0,100,0,1
197029,-100,4,2,1,100,0,1
198264,-100,4,2,0,100,0,1
198441,-100,4,2,1,100,0,1
199147,-100,4,2,0,100,0,1
199323,-100,4,2,1,100,0,1
203294,-100,4,2,1,100,0,0

[Colours]
Combo1 : 255,225,170
Combo2 : 213,197,0
Combo3 : 255,207,64

[HitObjects]
56,184,45176,2,0,B|56:360,2,150,4|8|0
96,104,46058,1,2
168,160,46235,1,8
248,200,46411,2,0,B|304:224|376:192|368:128,1,150
336,64,46941,6,0,B|256:16,1,75,8|0
185,70,47294,2,0,B|248:112,1,75,0|2
168,160,47647,2,0,B|88:200,1,75,8|0
168,256,48000,6,0,B|184:304|248:320|304:288,1,150,2|8
248,216,48529,2,0,B|295:188|359:204|375:252,1,150,0|2
384,344,49058,1,8
472,192,49411,6,0,B|472:120|512:120|512:40,1,150,2|8
424,64,49941,1,0
352,120,50117,2,0,B|176:120,1,150,0|8
72,248,50823,6,0,B|328:248,2,225,2|0|8
16,176,52058,1,0
88,120,52235,2,0,B|96:72|56:40,2,75,2|0|8
144,192,52764,1,0
72,248,52941,2,0,B|72:304|96:344|168:360,1,150,0|8
248,336,53470,1,0
304,264,53647,6,0,B|304:208|280:168|208:152,2,150,2|8|0
352,336,54529,1,2
440,352,54705,2,0,B|488:344|504:296,1,75,8|0
424,256,55058,6,0,B|424:80,1,150,2|8
333,106,55588,1,0
240,104,55764,2,0,B|240:56,1,37.5,2|0
144,104,56029,2,0,B|144:144,1,37.5,2|8
48,104,56294,1,2
48,192,56470,6,0,B|48:264|104:264|104:360,1,150,4|8
16,360,57000,2,0,B|104:312|184:344,1,150,0|2
248,360,57529,1,8
312,296,57705,2,0,B|376:248,1,75,0|2
408,168,58058,5,0
352,96,58235,1,8
176,104,58588,2,0,B|96:136,1,75,0|2
136,216,58941,2,0,B|72:272,1,75,8|0
152,320,59294,6,0,B|176:368|232:384|288:352,1,150,2|8
232,280,59823,2,0,B|280:251|336:267|360:315,1,150,0|2
440,360,60352,1,8
504,296,60529,1,0
432,240,60705,6,0,B|432:64,1,150,2|8
360,32,61235,1,0
272,32,61411,2,0,B|272:80,1,37.5
184,32,61676,2,0,B|184:80,1,37.5,0|8
96,32,61941,1,0
96,120,62117,6,0,B|96:184|56:184|56:264,1,150,2|8
136,296,62647,2,0,B|296:296,1,150,0|2
368,264,63176,2,0,B|368:184|328:184|328:120,1,150,8|2
448,264,63882,6,0,B|448:184|488:184|488:120,1,150,8|0
432,48,64411,1,2
344,24,64588,2,0,B|176:24,1,150,8|2
48,136,65294,5,8
16,312,65647,1,0
32,224,65823,1,2
104,280,66000,1,8
256,192,66352,12,4,67764
164,192,68117,5,8
344,192,68470,1,0
192,280,68823,1,8
104,264,69000,2,0,B|48:200|96:120,1,150
168,80,69529,1,8
256,104,69705,2,0,B|330:148|394:92,1,150,0|2
464,32,70235,2,0,B|512:40|520:88,1,75,8|0
464,152,70588,6,0,B|464:320,1,150,2|8
288,336,71294,2,0,B|288:168,1,150,0|8
256,104,71823,2,0,B|240:56|192:24,1,75,0|2
168,120,72176,6,0,B|80:136,2,75,0|8|0
200,208,72705,1,0
288,184,72882,2,0,B|368:168,2,75,2|8|0
264,272,73411,6,0,B|216:304|160:304|128:256,2,150,2|8|0
288,184,74294,1,2
312,96,74470,2,0,B|344:56|384:64,1,75,8|0
376,152,74823,2,0,B|464:152,2,75,2|0|8
288,184,75352,2,0,B|216:144|192:208|136:168,1,150,0|2
64,128,75882,1,8
184,264,76235,6,0,B|248:336|336:272,1,150,2|8
480,200,76941,2,0,B|416:128|328:192,1,150,0|8
408,248,77470,2,0,B|408:16,3,225,0|8|2|4
248,104,79411,6,0,B|184:176|96:112,1,150,8|0
40,72,79941,1,2
24,160,80117,2,0,B|24:240,1,75,8|0
64,312,80470,2,0,B|208:256|208:384|376:296,1,300,2|0
416,240,81352,1,2
376,160,81529,2,0,B|376:72,1,75,8|0
296,48,81882,5,2
16,280,82588,1,8
336,120,83294,1,2
56,352,84000,1,8
368,176,84705,6,0,B|488:176,2,112.5,6|2|8
360,264,85411,2,0,B|472:336,2,112.5,8|2|2
272,264,86117,2,0,B|177:324,2,112.5,4|2|8
272,176,86823,2,0,B|159:176,2,112.5,8|2|2
256,192,87529,12,4,88941
400,328,90352,6,0,B|400:168,1,150,4|8
344,104,90882,1,0
264,136,91058,2,0,B|224:144|184:120,1,75,0|2
128,56,91411,1,8
96,144,91588,6,0,B|96:216|56:216|56:296,1,150
104,360,92117,1,8
144,280,92294,1,0
176,200,92470,2,0,B|216:192|256:224,1,75,0|2
320,272,92823,1,8
408,304,93000,6,0,B|456:272|456:200|392:160,1,150,0|0
328,136,93529,1,8
240,120,93705,1,0
152,112,93882,2,0,B|64:112,2,75,0|2|8
176,200,94411,2,0,B|176:272|216:272|216:352,1,150
304,344,94941,1,8
392,344,95117,2,0,B|391:273|431:273|431:201,1,150,0|2
448,112,95647,2,0,B|448:24,1,75,8|0
360,72,96000,6,0,B|192:72,1,150,2|8
128,104,96529,1,0
88,184,96705,2,0,B|88:272,1,75,0|2
168,304,97058,1,8
256,320,97235,6,0,B|314:240|400:288,1,150
480,312,97764,1,8
456,224,97941,2,0,B|392:168|304:184,2,150,0|2|0
336,96,99000,5,0
248,128,99176,1,8
232,216,99352,1,0
296,280,99529,2,0,B|232:336|152:280,1,150,0|8
144,192,100058,2,0,B|70:140|0:192,1,150
64,256,100588,1,8
240,248,100941,5,0
320,200,101117,1,2
240,160,101294,2,0,B|240:72,1,75,8|0
240,248,101647,5,6
320,288,101823,1,0
400,248,102000,1,8
400,160,102176,1,0
336,96,102352,2,0,B|328:48|392:24,2,75,0|2|8
248,96,102882,6,0,B|88:96|88:96,1,150
48,176,103411,1,8
48,264,103588,1,0
128,312,103764,2,0,B|232:312,1,75,0|2
296,312,104117,1,8
384,312,104294,6,0,B|384:248|344:248|344:168,1,150
352,80,104823,1,8
280,32,105000,1,0
192,56,105176,2,0,B|160:72|120:56,2,75,0|2|8
256,120,105705,2,0,B|288:160|272:232|192:240,1,150
160,160,106235,1,8
72,120,106411,2,0,B|40:160|56:232|136:240,1,150,0|2
160,312,106941,1,8
248,336,107117,5,0
336,312,107294,1,2
392,248,107470,1,0
408,160,107647,1,8
344,96,107823,2,0,B|280:96|280:136|200:136,2,150,0|2|0
328,184,108705,2,0,B|272:216|192:224|168:216,1,150,2|8
112,168,109235,1,0
40,120,109411,2,0,B|40:40,2,75,0|2|8
256,192,110117,12,4,112941
256,192,135529,5,4
75,192,135882,1,8
232,280,136235,1,0
320,256,136411,2,0,B|352:224|344:168,1,75,2|8
296,112,136764,2,0,B|264:88|184:104|168:160,2,150
384,112,137647,1,0
464,160,137823,1,2
464,249,138000,1,8
296,296,138352,6,0,B|232:296|216:344|144:344,1,150,2|8
24,216,139058,2,0,B|88:216|104:168|176:168,1,150,0|8
255,168,139588,1,0
344,168,139764,2,0,B|376:128|360:88,2,75,2|0|8
304,248,140294,1,0
248,320,140470,2,0,B|208:352|136:336|120:272,1,150,0|8
48,120,141176,6,0,B|88:88|168:120|208:168|192:240,2,225,2|0|8
16,32,142411,1,0
104,24,142588,2,0,B|192:32|240:96,1,150,2|8
272,176,143117,1,0
288,264,143294,2,0,B|304:320|368:344|424:296,1,150,0|8
488,168,144000,6,0,B|472:112|408:88|352:136,1,150,2|8
368,216,144529,1,0
280,200,144705,2,0,B|216:168|192:240|128:200,1,150,0|8
24,64,145411,6,0,B|88:96|112:24|176:64,1,150,2|8
256,88,145941,1,0
328,40,146117,2,0,B|360:8|432:40,2,75,0|2|8
368,216,146823,6,0,B|200:216,1,150,4|8
64,304,147529,2,0,B|232:304,1,150,0|8
304,304,148058,1,0
392,304,148235,2,0,B|448:296|456:232,1,75,2|0
357,144,148588,2,0,B|344:184|368:216,1,75,8|0
448,176,148941,2,0,B|448:96|496:96|496:24,1,150,0|8
328,112,149647,6,0,B|168:112,1,150,2|8
96,144,150176,1,0
64,224,150352,1,0
96,304,150529,1,2
176,344,150705,2,0,B|272:344,1,75,8|0
341,344,151058,6,0,B|341:264|389:264|389:192,1,150,2|8
408,112,151588,1,0
456,40,151764,2,0,B|488:64|496:104,2,75,0|2|8
368,32,152294,1,0
320,104,152470,6,0,B|80:104,2,225,2|0|8
352,184,153705,1,0
352,272,153882,2,0,B|352:336|400:360|456:344,2,150,2|8|0
160,272,154941,6,0,B|160:336|112:360|56:344,1,150,8|2
32,256,155470,1,0
40,168,155647,1,8
112,112,155823,1,0
200,136,156000,2,0,B|264:136|272:80|360:80,1,150,0|8
256,192,156705,12,4,158117
168,280,158470,5,8
352,280,158823,1,0
488,168,159176,1,8
440,96,159352,2,0,B|368:96|368:144|288:144,1,150
208,144,159882,1,8
120,144,160058,2,0,B|120:104|144:104|144:56,2,75,0|0|2
72,224,160588,5,8
112,304,160764,1,0
160,224,160941,2,0,B|192:272|256:272|296:216,1,150,2|8
368,64,161647,2,0,B|400:17|464:16|496:65,1,150,0|8
432,128,162176,2,0,B|399:174|336:176|303:126,1,150
240,64,162705,5,8
160,96,162882,1,0
144,272,163235,1,0
216,328,163411,1,8
304,312,163588,1,0
360,240,163764,6,0,B|408:168|496:192,2,150,2|8|0
472,96,164823,2,0,B|416:88|352:112|320:152,1,150,8|2
272,208,165352,2,0,B|240:248|160:264|120:232,2,150,0|0|2
240,120,166235,2,0,B|240:32,1,75,8|0
160,80,166588,6,0,B|112:80|64:112|64:176,1,150,2|8
64,264,167117,1,0
152,264,167294,2,0,B|152:312|184:360|248:360,1,150,0|8
240,272,167823,2,0,B|400:272,2,150
200,192,168705,6,0,B|200:96,2,75,0|2|8
288,192,169235,1,0
376,192,169411,2,0,B|424:192|472:160|472:96,2,150,4|8|0
328,272,170294,1,2
240,272,170470,2,0,B|160:272,1,75,8|0
80,240,170823,6,0,B|16:176|64:96,1,150,2|8
232,40,171529,2,0,B|296:104|248:184,1,150,0|8
168,328,172235,5,2
424,104,172941,1,8
104,272,173647,1,2
376,40,174352,1,8
336,176,175058,6,0,B|456:176,2,112.5,6|2|8
328,264,175764,2,0,B|440:336,2,112.5,8|2|2
240,264,176470,2,0,B|145:324,2,112.5,4|2|8
240,176,177176,2,0,B|127:176,2,112.5,8|2|2
256,192,177882,12,4,179294
112,56,180705,6,0,B|112:216,1,150,4|8
168,280,181235,1,0
248,248,181411,2,0,B|288:240|328:264,1,75,0|2
384,328,181764,1,8
416,240,181941,6,0,B|416:168|456:168|456:88,1,150
408,24,182470,1,8
368,104,182647,1,0
336,184,182823,2,0,B|296:192|256:160,1,75,0|2
192,112,183176,1,8
104,80,183353,6,0,B|56:112|56:184|120:224,1,150,0|0
184,248,183882,1,8
272,264,184058,1,0
360,272,184235,2,0,B|448:272,2,75,0|2|8
336,184,184764,2,0,B|336:112|296:112|296:32,1,150
208,40,185294,1,8
120,40,185470,2,0,B|121:111|81:111|81:183,1,150,0|2
64,272,186000,2,0,B|64:360,1,75,8|0
152,312,186353,6,0,B|320:312,1,150,2|8
384,280,186882,1,0
424,200,187058,2,0,B|424:112,1,75,0|2
344,80,187411,1,8
256,64,187588,6,0,B|198:144|112:96,1,150
32,72,188117,1,8
56,160,188294,2,0,B|120:216|208:200,2,150,0|2|0
176,288,189353,5,0
264,256,189529,1,8
280,168,189705,1,0
216,104,189882,2,0,B|280:48|360:104,1,150,0|8
368,192,190411,2,0,B|442:244|512:192,1,150
448,128,190941,1,8
272,136,191294,5,0
192,184,191470,1,2
272,224,191647,2,0,B|272:312,1,75,8|0
272,136,192000,5,6
192,96,192176,1,0
112,136,192353,1,8
112,224,192529,1,0
176,288,192705,2,0,B|184:336|120:360,2,75,0|2|8
264,288,193235,6,0,B|424:288|424:288,1,150
464,208,193764,1,8
464,120,193941,1,0
384,72,194117,2,0,B|280:72,1,75,0|2
216,72,194470,1,8
128,72,194647,6,0,B|128:136|168:136|168:216,1,150
160,304,195176,1,8
232,352,195353,1,0
320,328,195529,2,0,B|352:312|392:328,2,75,0|2|8
256,264,196058,2,0,B|224:224|240:152|320:144,1,150
352,224,196588,1,8
440,264,196764,2,0,B|472:224|456:152|376:144,1,150,0|2
352,72,197294,1,8
264,48,197470,5,0
176,72,197647,1,2
120,136,197823,1,0
104,224,198000,1,8
168,288,198176,2,0,B|232:288|232:248|312:248,2,150,0|2|0
184,200,199058,2,0,B|240:168|320:160|344:168,1,150,2|8
400,216,199588,1,0
472,264,199764,2,0,B|472:344,2,75,0|2|8
256,192,200470,12,4,203294
