osu file format v9

[General]
AudioFilename: Seisou Rinne -Repeat.mp3
AudioLeadIn: 2000
PreviewTime: 23434
Countdown: 1
SampleSet: Soft
StackLeniency: 0.7
Mode: 0
LetterboxInBreaks: 1

[Editor]
Bookmarks: 30656
DistanceSpacing: 1
BeatDivisor: 4
GridSize: 8

[Metadata]
Title:Seisou Rinne -Repeat
Artist:EastNewSound
Creator:Tonoko
Version:Insane
Source:Touhou
Tags:

[Difficulty]
HPDrainRate:5
CircleSize:4
OverallDifficulty:8
ApproachRate:9
SliderMultiplier:2.3
SliderTickRate:1

[Events]
//Background and Video events
0,0,"233.jpg"
//Break Periods
2,136398,158540
2,204164,226305
//Storyboard Layer 0 (Background)
//Storyboard Layer 1 (Fail)
//Storyboard Layer 2 (Pass)
//Storyboard Layer 3 (Foreground)
//Storyboard Sound Samples
//Background Colour Transformations
3,100,163,162,255

[TimingPoints]
1023,352.941176470588,4,2,0,60,1,0
22111,-100,4,1,0,50,0,0
23434,-100,4,1,0,50,0,0
45846,-100,4,2,0,70,0,0
85552,-133.333333333333,4,2,0,70,0,0
90802,-200,4,1,0,65,0,0
91287,-100,4,1,0,65,0,0
96405,-200,4,1,0,65,0,0
96934,-100,4,1,0,65,0,0
102012,-200,4,1,0,65,0,0
102581,-100,4,1,0,65,0,0
158787,-100,4,2,0,70,0,0
175905,-200,4,2,0,70,0,0
180978,-100,4,1,0,30,0,0
181155,-200,4,1,0,65,0,0
181640,-100,4,1,0,65,0,0
186758,-200,4,1,0,65,0,0
187287,-100,4,1,0,65,0,0
192405,-200,4,1,0,65,0,0
192934,-100,4,1,0,65,0,0
204140,-100,4,2,0,65,0,0
226552,-133.333333333333,4,2,0,65,0,0
248743,-200,4,1,0,65,0,0
249228,-100,4,1,0,65,0,0
259287,-133.333333333333,4,2,0,65,0,0
260037,-200,4,1,0,65,0,0
260522,-100,4,1,0,65,0,0
282493,-133.333333333333,4,1,0,65,0,0
283464,-133.333333333333,4,2,0,65,0,0

[Colours]
Combo1 : 128,128,255
Combo2 : 255,0,0
Combo3 : 255,255,255

[HitObjects]
480,192,1022,2,0,B|416:224|416:224|384:288,1,115
32,192,1375,2,0,B|96:160|96:160|128:96,1,115,0|0
400,192,1728,2,0,B|368:256|368:256|304:288,1,115,8|0
112,192,2081,2,0,B|144:128|144:128|208:96,1,115
336,288,2434,2,0,B|272:336|272:336|256:368,1,115
176,96,2787,2,0,B|240:48|240:48|256:16,1,115
304,224,3140,2,0,B|256:256|256:256|224:304,1,115,8|0
208,160,3493,2,0,B|256:128|256:128|288:80,1,115
128,96,3846,6,0,B|80:208,1,115
0,320,4199,1,0
40,216,4375,1,0
112,304,4552,2,0,B|240:352,1,115,8|0
376,360,4905,1,0
264,328,5081,1,0
360,264,5258,2,0,B|408:136,1,115
416,8,5611,1,0
376,120,5787,1,0
272,176,5964,1,8
272,176,6052,2,0,B|184:160|184:160|128:96,1,172.5
129,97,6493,1,0
112,224,6670,6,0,B|96:272|96:272|16:320,1,115
16,144,7022,2,0,B|32:96|32:96|112:48,1,115
272,240,7375,2,0,B|256:288|256:288|176:336,1,115,8|0
176,160,7728,2,0,B|192:112|192:112|272:64,1,115
400,224,8081,2,0,B|416:272|416:272|496:320,1,115
496,144,8434,2,0,B|480:96|480:96|400:48,1,115
240,240,8787,2,0,B|256:288|256:288|336:336,1,115,8|0
336,160,9140,2,0,B|320:112|320:112|240:64,1,115
112,24,9493,5,0
112,120,9670,1,0
128,216,9846,1,0
128,312,10022,1,0
16,120,10199,1,8
112,120,10375,1,0
208,136,10552,1,0
304,136,10728,1,0
416,352,10905,1,0
416,256,11081,1,0
432,160,11258,1,0
432,64,11434,1,0
336,16,11611,1,8
336,16,11699,2,0,B|336:152,1,115
312,152,11964,2,0,B|312:272,1,115
256,352,12317,5,0
256,352,12493,1,0
256,352,12670,1,0
104,360,13022,1,8
104,360,13110,2,0,B|104:224,1,115
128,224,13375,2,0,B|16:176,1,115
224,136,13728,1,0
224,136,13905,1,0
224,136,14081,1,0
328,232,14434,1,8
328,232,14522,2,0,B|328:368,1,115
360,328,14787,2,0,B|480:376,1,115
224,256,15140,5,0
144,224,15317,1,0
112,304,15493,1,0
288,128,15846,1,8
368,160,16022,1,0
400,80,16199,1,0
144,112,16552,1,0
64,144,16728,1,0
32,64,16905,1,0
112,32,17081,1,0
368,272,17258,1,8
448,240,17434,1,0
480,320,17611,1,0
400,352,17787,1,0
256,352,17964,5,4
256,352,18670,1,8
256,32,19375,1,4
256,32,20081,1,8
256,192,20787,1,4
256,192,21493,1,4
256,64,22199,5,4
256,80,22287,1,0
256,96,22375,1,0
256,112,22464,1,0
256,128,22552,1,0
256,144,22640,1,0
256,160,22728,1,0
256,176,22817,1,0
256,192,22905,2,0,B|256:312,2,115
328,128,23611,5,0
328,128,23699,1,0
328,128,23787,1,0
328,128,23875,1,0
328,128,23964,1,0
328,128,24052,1,0
328,128,24140,1,0
328,128,24228,1,0
328,128,24317,2,0,B|448:128,3,115,0|2|0|2
176,176,25022,1,0
176,176,25111,1,0
176,176,25199,1,0
176,176,25287,1,0
176,176,25375,1,0
176,176,25464,1,0
176,176,25552,1,0
176,176,25640,1,0
176,176,25728,2,0,B|56:176,3,115,0|2|0|2
200,288,26434,5,0
200,288,26522,1,0
200,288,26611,1,0
200,288,26699,1,0
200,288,26787,1,0
200,288,26875,1,0
200,288,26964,1,0
200,288,27052,1,0
200,288,27140,2,0,B|216:304|216:304|296:304|296:304|320:304,1,115,0|2
312,96,27493,2,0,B|296:80|296:80|216:80|216:80|192:80,1,115,0|2
96,144,27846,1,0
96,144,27934,1,0
96,144,28022,1,0
96,144,28111,1,0
96,144,28199,1,0
96,144,28287,1,0
96,144,28375,1,0
96,144,28464,1,0
96,144,28552,2,0,B|144:192|144:192|208:208,1,115,2|0
416,240,28905,2,0,B|368:192|368:192|304:176,1,115,2|0
216,232,29258,6,0,B|200:384,1,115
96,272,29611,2,0,B|112:152,1,115
216,112,29964,1,2
112,64,30140,1,0
216,112,30317,1,0
320,168,30493,1,0
432,216,30670,2,0,B|416:80,1,115
320,168,31022,2,0,B|336:296,1,115
216,208,31375,1,2
112,248,31552,1,0
8,288,31728,1,0
112,248,31905,1,0
232,96,32081,6,0,B|184:72|184:72|200:8,1,115
304,272,32434,2,0,B|352:304|352:304|328:368,1,115
200,320,32787,1,2
216,208,32964,1,0
232,96,33140,1,0
344,64,33317,1,0
456,32,33493,2,0,B|440:96|440:96|512:136,1,115
360,264,33846,2,0,B|376:200|376:200|304:160,1,115
336,176,34199,1,2
144,208,34375,1,0
240,176,34552,1,2
48,208,34728,1,0
176,16,34905,6,0,B|176:144,1,115
208,368,35258,2,0,B|208:253,1,115
288,208,35611,1,2
192,112,35787,1,0
80,192,35964,1,2
176,288,36140,1,0
344,304,36317,2,0,B|496:288,1,115
400,64,36670,2,0,B|416:176,1,115
160,136,37022,1,2
272,112,37199,1,0
272,352,37375,1,2
240,240,37552,1,0
24,272,37728,6,0,B|136:288,1,115
352,256,38081,2,0,B|240:240,1,115
216,344,38434,1,2
264,168,38611,1,0
176,240,38787,1,2
224,64,38964,1,0
480,144,39140,2,0,B|368:128,1,115
32,48,39493,2,0,B|144:64,1,115
288,16,39846,1,2
240,192,40023,1,0
256,296,40199,1,0
304,120,40375,1,2
112,160,40552,6,0,B|104:288,1,115
256,368,40905,2,0,B|264:240,1,115
400,160,41258,1,2
392,272,41434,1,0
256,368,41611,1,0
264,256,41787,1,0
64,240,41964,2,0,B|72:112,1,115
208,32,42317,2,0,B|200:152,1,115
456,240,42670,1,2
448,128,42846,1,0
304,32,43023,1,0
312,144,43199,1,0
176,224,43375,6,0,B|288:240,1,115
304,264,43728,2,0,B|192:248,1,115
208,280,44081,1,2
320,296,44258,1,0
336,328,44434,1,0
224,312,44611,1,0
248,48,44787,2,0,B|248:112|248:112|264:144|264:144|264:216,2,172.5,2|0|2
464,272,46199,6,0,B|352:304|256:256,2,172.5,4|0|0
432,184,46905,2,0,B|464:72,1,115,0|0
368,72,47258,2,0,B|336:200,1,115
264,144,47611,2,0,B|184:184|72:136,2,172.5,2|0|0
176,80,48317,2,0,B|192:240,1,115,0|0
144,352,48670,2,0,B|128:208,1,115
48,304,49023,6,0,B|128:272|224:304,1,172.5,2|0
240,336,49375,2,0,B|320:368|432:336,1,172.5
448,368,49728,2,0,B|416:256,1,115
368,176,50081,2,0,B|480:112,2,115,0|0|2
256,184,50611,2,0,B|144:248,2,115,0|0|0
208,88,51140,1,2
136,144,51317,1,0
80,72,51493,1,0
8,128,51670,1,0
64,200,51846,5,2
56,216,51934,1,0
48,232,52023,1,0
40,248,52111,1,0
32,264,52199,2,0,B|72:328|72:328|152:328|152:328|200:328,1,172.5
208,304,52552,2,0,B|328:304,1,115
464,216,52905,2,0,B|320:216,1,115
408,120,53258,1,2
416,104,53346,1,0
424,88,53434,1,0
432,72,53523,1,0
440,56,53611,2,0,B|312:56|312:56|288:104,1,172.5
328,128,53964,2,0,B|376:240,1,115
176,176,54317,2,0,B|128:64,1,115
24,128,54670,5,2
72,240,54846,1,0
72,240,54934,1,0
72,240,55023,2,0,B|120:352,1,115
224,280,55375,1,2
240,280,55464,1,0
256,280,55552,1,0
272,280,55640,1,0
288,280,55728,1,2
304,280,55817,1,0
320,280,55905,1,0
336,280,55993,1,0
352,280,56081,2,0,B|384:256|384:256|472:256,1,115,2|0
496,144,56434,2,0,B|304:144,1,172.5
288,168,56787,2,0,B|256:136|256:136|256:48,1,115
200,248,57140,2,0,B|232:280|232:280|232:368,1,115
464,112,57493,6,0,B|352:80|256:128,2,172.5,8|0|2
416,192,58199,2,0,B|448:304,1,115,0|0
352,304,58552,2,0,B|320:176,1,115
224,256,58905,2,0,B|144:208|32:272,2,172.5,8|0|2
136,320,59611,2,0,B|152:160,1,115,0|0
112,32,59964,2,0,B|96:176,1,115,0|0
24,88,60317,6,0,B|104:120|200:88,1,172.5,8|0
224,120,60670,2,0,B|304:88|416:120,1,172.5,0|0
424,80,61023,2,0,B|392:192,1,115,0|0
304,288,61375,2,0,B|456:288,1,115
168,224,61728,2,0,B|48:224,1,115,8|0
16,312,62081,1,2
52,223,62258,1,2
80,136,62434,1,0
112,40,62611,2,0,B|232:40,1,115
304,96,62964,1,2
496,152,63140,6,0,B|352:152,1,115,8|0
312,216,63493,1,2
128,280,63670,2,0,B|248:280,1,115,2|0
328,328,64023,1,0
440,328,64199,1,2
440,328,64287,1,0
440,328,64375,1,0
440,328,64464,1,0
440,328,64552,2,0,B|464:248|464:248|440:160,1,172.5,8|0
328,208,64905,1,0
240,128,65081,1,2
120,144,65258,2,0,B|0:144,1,115
88,248,65611,2,0,B|144:360,1,115
208,248,65964,5,8
288,344,66140,1,0
288,344,66228,1,0
288,344,66317,1,0
416,344,66493,1,2
336,248,66670,1,0
344,232,66758,1,0
352,216,66846,1,0
360,200,66934,1,0
368,184,67023,1,0
376,168,67111,1,0
384,152,67199,1,0
392,136,67287,1,0
400,120,67375,2,0,B|368:56|368:56|248:56,1,172.5,8|0
240,104,67728,1,2
176,200,67905,1,2
72,144,68081,2,0,B|56:200|56:200|72:256,2,115,0|0|4
480,336,68787,6,0,B|312:336,2,115,4|0|0
280,224,69493,2,0,B|232:352,2,115
40,176,70199,2,0,B|176:176,1,115,8|0
120,88,70552,2,0,B|-24:88,1,115,0|2
216,64,70905,2,2,B|352:64,2,115
448,40,71611,6,0,B|384:192,1,115,8|0
403,145,71964,2,0,B|456:256,1,115
453,249,72317,2,0,B|408:368,1,115
304,312,72670,1,0
192,352,72846,1,0
88,312,73023,1,8
256,192,73199,12,0,74081
32,48,74434,6,0,B|200:48,2,115,8|0|0
296,136,75140,2,0,B|352:8,2,115
472,208,75846,2,0,B|336:208,1,115,8|0
392,296,76199,2,0,B|536:296,1,115
296,320,76552,2,0,B|160:320,2,115
64,344,77258,6,0,B|128:192,1,115,8|0
24,160,77611,2,0,B|139:161,1,115
192,264,77964,2,0,B|237:145,1,115
144,80,78317,1,0
256,80,78493,1,0
368,80,78670,1,8
256,192,78846,12,0,79728
16,280,80081,6,0,B|96:344|256:344,1,230,12|0
328,344,80611,1,0
496,240,80964,2,0,B|408:192|272:192,1,230
184,192,81493,1,8
72,40,81846,2,0,B|88:152|80:272,2,230
264,352,82905,6,0,B|248:208|256:120,1,230,4|0
255,122,83434,1,0
424,32,83611,2,0,B|440:152|424:304,1,230
426,261,84140,1,0
296,248,84317,6,0,B|176:232|56:248,1,230,4|0
66,246,84846,1,0
32,72,85022,2,0,B|144:88|272:72,1,230
261,73,85552,1,0
376,40,85728,6,0,B|416:120|368:216,2,172.4999948591,4|0|0
256,192,86787,1,2
136,344,87140,2,0,B|96:264|144:168,2,172.4999948591,4|0|0
256,192,88199,1,2
256,192,88552,12,0,89611
256,192,89964,5,4
256,192,90052,1,0
256,192,90140,1,0
256,192,90228,1,0
256,192,90317,1,0
256,192,90405,1,0
256,192,90493,1,0
256,192,90581,1,0
256,192,90670,1,0
256,192,90758,1,0
256,192,90846,6,0,B|256:128|288:64,1,115
376,104,91375,1,8
472,240,91552,2,0,B|416:208|352:216,1,115
248,312,91905,1,0
128,240,92081,2,0,B|96:288|88:376,2,115,0|2|0
296,48,92611,2,0,B|352:72|424:72,1,115,8|0
264,160,92964,1,0
224,256,93140,2,0,B|176:288|104:288,1,115
136,176,93493,2,0,B|88:144|-8:144,2,115,0|2|0
296,344,94022,6,0,B|280:208|384:112,1,230,8|0
304,72,94552,2,0,B|440:136,2,115
208,136,95081,2,0,B|144:248,2,115,2|0|0
256,24,95611,1,2
56,192,95787,1,2
256,360,95964,1,0
448,192,96140,1,0
312,192,96317,1,2
312,192,96493,6,0,B|184:192,1,115
136,80,97022,2,0,B|80:48|16:56,1,115,8|0
88,224,97375,1,0
264,264,97552,2,0,B|232:216|224:128,2,115
168,344,98081,1,0
328,320,98258,2,0,B|384:344|456:344,1,115,8|0
440,160,98611,1,0
440,160,98787,2,0,B|472:208|472:280,1,115
376,104,99140,2,0,B|328:72|232:72,2,115
96,320,99670,6,0,B|80:184|184:88,1,230,8|0
56,176,100199,2,0,B|192:240,2,115
328,200,100728,2,0,B|200:264,2,115
384,88,101258,1,4
176,144,101434,1,0
232,336,101611,1,0
432,280,101787,1,0
432,280,101964,1,0
432,280,102140,6,0,B|312:216,1,115
224,184,102670,1,8
120,136,102846,1,0
32,200,103022,1,0
40,208,103111,1,0
48,216,103199,2,0,B|96:272|112:320,1,115
224,184,103552,1,2
296,272,103728,1,0
448,88,103905,1,8
440,96,103993,1,0
432,104,104081,2,0,B|368:104|296:80,1,115
336,240,104434,1,0
472,280,104611,2,0,B|464:224|432:168,1,115,2|0
200,96,104964,1,0
304,160,105140,1,0
152,248,105317,6,0,B|89:151|81:63|81:31,1,230,8|0
256,304,105846,1,0
256,304,106023,1,2
152,248,106199,2,0,B|112:288|104:360,1,115
352,352,106552,1,2
352,352,106728,2,0,B|392:312|400:240,1,115,0|2
360,112,107081,1,2
360,112,107258,1,0
256,192,107434,1,4
152,112,107611,1,0
152,112,107787,1,0
256,192,108140,5,0
256,192,108317,2,0,B|256:328,2,115
256,192,108846,1,2
376,256,109199,1,0
376,256,109375,2,0,B|392:16,1,230,2|0
136,128,110081,2,0,B|120:368,1,230,2|0
24,288,110611,5,0
24,288,110787,2,0,B|304:320,1,230,0|2
48,168,111317,1,0
48,168,111493,2,0,B|304:184,1,230
56,64,112023,1,2
56,64,112199,2,0,B|296:56,1,230,0|2
400,40,112728,1,0
416,208,113081,1,2
432,360,113434,1,2
480,192,113964,6,0,B|416:224|416:224|384:288,1,115
32,192,114317,2,0,B|96:160|96:160|128:96,1,115,0|0
400,192,114670,2,0,B|368:256|368:256|304:288,1,115
112,192,115023,2,0,B|144:128|144:128|208:96,1,115
336,288,115375,2,0,B|272:336|272:336|256:368,1,115
176,96,115728,2,0,B|240:48|240:48|256:16,1,115
304,224,116081,2,0,B|256:256|256:256|224:304,1,115
208,160,116434,2,0,B|256:128|256:128|288:80,1,115
288,304,116787,6,0,B|256:256|256:256|208:224,1,115
225,81,117140,2,0,B|256:128|256:128|304:160,1,115
256,368,117493,2,0,B|240:336|240:336|176:288,1,115
257,17,117846,2,0,B|272:48|272:48|336:96,1,115
183,276,118199,2,0,B|144:256|144:256|112:192,1,115
330,109,118552,2,0,B|368:128|368:128|400:192,1,115
116,263,118905,2,0,B|96:224|96:224|32:192,1,115,0|0
397,122,119258,2,0,B|416:160|416:160|480:192,1,115
464,304,119611,6,0,B|216:288,1,230
234,289,120140,1,0
96,336,120317,2,0,B|176:312|208:256,1,115
176,144,120670,2,0,B|224:216|216:272,1,115
320,200,121023,2,0,B|496:40,1,230
490,45,121552,1,0
360,56,121728,2,0,B|312:96|320:176,1,115
280,336,122081,2,0,B|328:296|320:216,1,115
376,368,122434,5,0
488,352,122611,1,0
472,240,122787,1,0
360,256,122964,1,0
360,256,123140,1,0
248,272,123317,1,0
232,160,123493,1,0
344,144,123670,1,0
136,8,123846,1,0
24,24,124023,1,0
40,136,124199,1,0
152,120,124375,1,0
152,120,124552,1,0
264,104,124728,1,0
280,216,124905,1,0
168,232,125081,1,0
80,320,125258,6,0,B|96:208|96:80,1,230
312,96,125787,1,0
208,144,125964,2,0,B|200:0,1,115
312,96,126317,2,0,B|304:216,1,115
416,48,126670,2,0,B|432:184|432:312,1,230
248,296,127199,1,0
432,280,127375,1,0
344,344,127552,1,0
248,296,127728,1,0
128,336,127905,1,0
112,160,128081,6,0,B|96:112|96:112|16:64,1,115
201,62,128434,2,0,B|256:96|256:96|272:144,1,115
88,321,128787,2,0,B|32:288|32:288|16:240,1,115
176,224,129140,2,0,B|192:272|192:272|272:320,1,115
400,160,129493,2,0,B|416:112|416:112|496:64,1,115
312,62,129846,2,0,B|256:96|256:96|240:144,1,115
425,321,130199,2,0,B|480:288|480:288|496:240,1,115
336,224,130552,2,0,B|320:272|320:272|240:320,1,115
192,352,130905,5,0
88,304,131081,1,0
72,312,131170,1,0
56,320,131258,1,0
144,216,131434,1,0
176,104,131611,1,0
64,104,131787,1,0
200,144,131964,1,0
312,144,132140,1,0
320,32,132317,1,0
424,80,132493,1,0
440,72,132581,1,0
456,64,132670,1,0
368,168,132846,1,0
200,240,133023,1,0
312,240,133199,1,0
448,280,133375,1,0
336,280,133552,1,0
160,344,133728,6,0,B|48:368,1,115
80,240,134081,2,0,B|48:120,1,115
176,120,134434,2,0,B|304:72,1,115
320,240,134787,2,0,B|376:384,1,115
200,240,135140,1,0
200,240,135228,1,0
200,240,135317,1,0
200,240,135405,1,0
200,240,135493,1,0
200,240,135581,1,0
200,240,135670,1,0
200,240,135758,1,0
200,240,135846,2,0,B|216:368,2,115
432,192,159140,6,0,B|376:208|376:208|304:192,2,115,4|0|0
256,256,159846,2,0,B|200:384,2,115,0|0|0
80,192,160552,2,0,B|216:192,1,115,10|0
160,280,160905,2,0,B|16:280,1,115,0|2
16,104,161258,2,2,B|152:104,2,115
272,40,161964,6,0,B|208:192,1,115,8|0
352,120,162317,2,0,B|405:231,1,115
296,208,162670,2,0,B|251:327,1,115
368,280,163023,1,0
256,316,163199,1,0
152,280,163375,1,8
256,192,163552,12,0,164434
64,112,164787,6,0,B|116:132|116:132|136:192,2,115,8|0|0
184,256,165493,2,0,B|240:128,2,115
328,368,166199,2,0,B|275:347|275:347|256:288,1,115,8|0
328,224,166552,2,0,B|472:224,1,115
496,152,166905,2,0,B|478:96|478:96|425:75,2,115,0|0|0
320,112,167611,6,0,B|168:48,1,115,8|0
128,48,167964,2,0,B|144:184,1,115
222,194,168317,2,0,B|328:240,1,115
424,240,168670,1,0
376,320,168846,1,0
288,320,169023,1,8
256,192,169199,12,0,170081
48,192,170434,6,0,B|160:192|160:192|192:240|256:256,1,230,12|0
256,256,170964,1,0
464,192,171317,2,0,B|352:192|352:192|320:144|256:128,1,230,0|0
256,128,171846,1,8
80,256,172199,2,0,B|208:256,1,115
304,336,172552,2,0,B|189:336,1,115
464,352,173081,5,0
464,352,173258,2,0,B|424:280|464:232|464:232|448:168|384:160,1,230,8|0
296,56,173787,1,0
296,56,173964,2,0,B|336:128|296:176|296:176|312:240|376:248,1,230
48,352,174493,1,0
48,352,174670,2,0,B|88:280|48:232|48:232|64:168|128:160,1,230,8|0
216,56,175199,1,0
216,56,175376,2,0,B|176:128|216:176|216:176|200:240|136:248,1,230
256,192,175905,12,0,176787
256,120,177140,5,2
256,192,177317,12,0,178199
256,264,178552,5,2
256,192,178728,12,0,179611
256,192,179964,1,0
256,192,180317,1,6
256,192,180405,1,0
256,192,180493,1,0
256,192,180581,1,0
256,192,180670,1,0
256,192,180758,1,0
256,192,180846,1,0
256,192,180934,1,0
256,192,181023,1,0
256,192,181111,1,0
256,192,181199,6,0,B|256:128|208:64,1,115
368,280,181728,1,0
496,160,181905,2,0,B|440:176|376:136,1,115
280,40,182258,1,0
144,264,182434,2,0,B|144:200|184:152,2,115,0|2|0
376,280,182964,2,0,B|432:304|504:304,1,115,8|0
288,184,183317,1,0
160,128,183493,2,0,B|112:160|40:160,1,115,0|2
456,96,183846,2,0,B|408:64|312:64,2,115
160,352,184375,6,0,B|144:216|248:120,1,230,8|0
256,272,184905,2,0,B|392:336,2,115,0|2|0
112,136,185434,2,0,B|-24:72,2,115,0|2|0
248,120,185964,1,2
80,248,186140,1,2
336,160,186317,1,0
160,288,186493,1,0
424,200,186670,1,0
424,200,186846,6,0,B|320:280,1,115,4|0
464,80,187375,2,0,B|408:48|344:56,1,115
328,192,187728,1,0
176,144,187905,2,0,B|224:112|312:104,2,115,0|0|2
80,104,188434,1,0
328,192,188611,2,0,B|384:216|456:216,1,115,8|0
240,256,188964,1,0
240,256,189140,2,0,B|272:304|272:376,1,115,0|2
136,208,189493,2,0,B|104:256|104:352,2,115
256,152,190022,6,0,B|180:68|44:84,1,230,8|2
320,48,190552,2,0,B|352:192,2,115,0|0|2
440,152,191081,2,0,B|416:288,2,115,0|2|2
472,40,191611,1,0
224,152,191787,1,0
352,120,191964,1,0
128,232,192140,1,0
128,232,192317,1,0
128,232,192493,6,0,B|104:360,1,115
216,304,193023,1,0
304,248,193199,1,0
392,320,193375,1,0
400,312,193464,1,0
408,304,193552,2,0,B|424:232|472:200,1,115
472,88,193905,1,2
320,72,194258,1,8
312,80,194346,1,0
304,88,194434,2,0,B|240:80|192:112,1,115
128,248,194787,1,0
272,304,194964,2,0,B|264:248|232:192,1,115,2|0
104,96,195317,1,0
32,312,195670,6,0,B|95:215|103:127|103:95,1,230,8|0
224,48,196199,1,0
224,48,196376,1,2
360,48,196552,2,0,B|320:88|312:160,1,115
152,336,196905,1,2
152,336,197081,2,0,B|192:296|200:224,1,115,0|2
256,192,197434,1,2
360,112,197611,1,0
152,112,197788,1,0
360,112,197964,1,4
152,112,198141,1,0
256,192,198493,5,0
256,192,198670,2,0,B|256:328,2,115
256,192,199199,1,2
256,24,199552,1,0
256,24,199728,2,0,B|256:264,1,230,2|0
256,254,200434,1,0
392,64,200787,5,0
424,192,200964,1,0
392,320,201140,1,0
112,280,201493,1,2
88,192,201670,1,0
112,104,201846,1,0
320,144,202199,1,0
336,192,202375,1,2
320,240,202552,1,0
192,240,202905,5,0
192,240,203081,1,0
176,192,203434,1,2
192,144,203787,1,2
192,144,203964,1,0
416,120,226905,6,0,B|408:208|416:312,1,172.4999948591,4|0
414,292,227434,1,0
344,336,227611,1,2
264,304,227787,1,0
264,304,227964,2,0,B|176:296|72:304,1,172.4999948591
91,302,228493,5,0
88,216,228670,1,2
24,144,228846,1,0
72,72,229023,1,0
160,88,229199,1,0
232,40,229375,1,0
288,104,229552,1,0
368,128,229728,6,0,B|416:128|480:136,2,86.2499974295498,2|0|0
392,208,230258,1,0
344,280,230434,2,0,B|344:328|336:376,2,86.2499974295498,2|0|0
264,312,230964,1,0
216,240,231140,6,0,B|136:248|40:248,1,172.4999948591,0|0
43,247,231670,1,0
128,112,231846,2,0,B|216:104|312:96,1,172.4999948591
299,97,232375,1,0
416,32,232552,2,0,B|424:120|416:224,1,172.4999948591,4|0
417,204,233081,1,0
296,344,233258,2,0,B|288:256|296:160,1,172.4999948591
295,171,233787,1,0
232,112,233964,6,0,B|192:80|160:48,2,86.2499974295498,2|0|0
152,184,234493,1,0
104,280,234670,2,0,B|56:296|-16:304,2,86.2499974295498,2|0|0
200,328,235199,1,0
296,248,235375,2,0,B|312:304|312:352,1,86.2499974295498
408,280,235728,2,0,B|456:280|504:288,1,86.2499974295498
448,160,236081,2,0,B|448:112|456:64,1,86.2499974295498
336,128,236434,2,0,B|288:128|240:120,1,86.2499974295498
192,64,236787,5,2
104,48,236964,1,0
48,112,237140,1,0
96,184,237317,1,0
184,200,237493,1,2
240,264,237670,1,0
200,344,237846,1,0
112,328,238023,1,0
32,368,238199,6,0,B|25:283|33:195,1,172.4999948591,4|0
33,195,238728,1,0
112,152,238905,1,0
184,200,239081,1,0
184,200,239258,2,0,B|192:112|185:27,1,172.4999948591
185,27,239787,1,0
96,32,239964,1,0
16,48,240140,1,0
32,144,240317,1,0
128,136,240493,1,0
232,120,240670,1,0
336,96,240846,1,0
408,176,241023,6,0,B|456:176|520:184,2,86.2499974295498
360,272,241552,1,0
264,240,241728,2,0,B|264:288|256:336,2,86.2499974295498
168,280,242258,1,0
80,352,242434,6,0,B|72:272|72:176,1,172.4999948591,4|0
72,179,242964,1,0
168,40,243140,2,0,B|184:128|184:224,1,172.4999948591
182,211,243670,1,0
416,352,243846,2,0,B|424:264|416:160,1,172.4999948591,4|0
417,179,244375,1,0
296,40,244552,2,0,B|288:128|296:224,1,172.4999948591
295,212,245081,1,0
256,288,245258,6,0,B|216:256|184:224,2,86.2499974295498,4|0|0
368,296,245787,1,0
456,184,245964,2,0,B|408:200|336:208,2,86.2499974295498
336,104,246493,1,0
224,64,246670,6,0,B|240:120|240:168,1,86.2499974295498,4|0
56,128,247023,2,0,B|104:128|152:136,1,86.2499974295498,0|0
88,304,247375,2,0,B|88:256|96:208,1,86.2499974295498,0|0
288,256,247728,2,0,B|240:256|192:248,1,86.2499974295498
120,224,248081,1,0
112,208,248170,1,0
104,192,248258,1,0
96,176,248346,1,0
88,160,248434,1,0
96,144,248523,1,0
104,128,248611,1,0
112,112,248699,1,0
120,96,248787,6,0,B|248:96,1,115
384,32,249317,2,0,B|384:96|408:160,1,115,8|4
272,152,249670,1,0
272,152,249846,2,0,B|272:216|232:272,1,115
160,40,250199,2,0,B|96:24|40:56,2,115
160,336,250728,2,0,B|146:281|178:225,1,115
384,144,251081,1,0
384,145,251258,2,0,B|328:128|272:152,1,115
24,352,251611,2,0,B|149:355|237:275,1,230
392,328,252140,5,8
392,328,252317,1,0
392,328,252405,1,0
392,328,252493,1,2
440,224,252670,1,0
480,112,252846,1,0
480,112,253023,1,2
480,112,253111,1,0
480,112,253199,1,0
368,120,253375,2,0,B|256:152,1,115,2|0
144,264,253728,1,2
144,264,253905,2,0,B|256:232,1,115,2|0
332,32,254258,1,0
284,140,254434,1,0
236,252,254611,1,0
192,356,254787,1,0
40,208,254964,6,0,B|72:264|64:336,1,115,8|0
146,156,255317,1,0
179,48,255493,2,0,B|180:107|138:170,1,115
272,240,255846,2,0,B|208:224|152:256,2,115
400,352,256375,2,0,B|386:297|418:241,1,115
328,143,256728,1,0
440,136,256905,2,0,B|384:160|328:143,1,115
32,104,257258,2,0,B|160:120|256:56,1,230
232,192,257787,5,0
240,304,257964,2,0,B|216:256|232:192,1,115
120,240,258317,2,0,B|48:216|-16:256,1,115
240,304,258670,1,0
344,224,258846,1,0
296,80,259022,1,0
152,72,259199,1,0
80,184,259375,1,0
72,200,259464,1,0
64,216,259552,1,0
72,232,259640,1,0
80,248,259728,1,0
72,264,259817,1,0
64,280,259905,1,0
72,296,259993,1,0
80,312,260081,6,0,B|216:328,1,115
384,352,260611,2,0,B|384:288|408:224,1,115,8|4
280,216,260964,1,0
392,168,261140,2,0,B|392:104|352:48,1,115
256,336,261493,2,0,B|192:352|136:320,2,115
56,160,262022,2,0,B|42:215|74:271,1,115
200,176,262375,1,0
400,136,262552,2,0,B|344:153|288:129,1,115
24,32,262905,2,0,B|149:29|237:109,1,230
392,56,263434,5,8
392,56,263611,1,0
392,56,263699,1,0
392,56,263787,1,2
440,160,263964,1,0
480,272,264140,1,0
480,272,264317,1,2
480,272,264405,1,0
480,272,264493,1,0
368,264,264669,2,0,B|256:232,1,115,2|0
144,120,265022,1,2
144,120,265199,2,0,B|256:152,2,115,2|0|0
256,32,265728,1,0
256,32,265904,1,0
256,192,266257,5,0
256,192,266434,2,0,B|256:328,2,115,2|0|0
256,192,266963,1,2
56,352,267316,1,0
56,352,267492,2,0,B|72:112,1,230,2|0
456,24,268199,2,0,B|440:264,1,230,2|0
488,128,268729,5,0
488,128,268904,2,0,B|208:160,1,230,0|2
16,184,269434,1,0
16,184,269610,2,0,B|272:200,1,230
496,240,270140,1,2
496,240,270317,2,0,B|256:232,1,230,0|2
16,280,270846,2,0,B|256:272,1,230,0|2
232,184,271375,5,0
248,176,271464,1,0
264,168,271552,1,0
280,160,271640,1,0
296,152,271728,1,0
312,144,271817,1,0
328,136,271905,2,0,B|352:192|344:264,1,115,0|0
224,72,272258,2,0,B|160:48|96:64,1,115
112,176,272611,1,0
200,352,272787,2,0,B|208:232,2,115
464,280,273317,2,0,B|424:176|440:32,1,230
328,136,273846,2,0,B|320:256,1,115
248,40,274199,2,0,B|192:72|104:56,2,115,0|2|0
72,256,274728,6,0,B|80:128|24:8,1,230,0|2
144,352,275258,2,0,B|180:240,1,115
160,120,275611,1,2
160,120,275699,1,0
160,120,275787,1,0
280,64,275964,2,0,B|240:200,1,115,2|0
296,336,276317,1,2
296,336,276493,2,0,B|332:212,1,115,2|0
440,48,276846,1,0
439,49,277022,2,0,B|408:160,2,115
440,328,277552,6,0,B|336:368|192:320,1,230
24,200,278081,1,0
264,176,278258,2,0,B|128:168,2,115,0|0|2
400,216,278787,1,0
504,56,278964,2,0,B|400:16|256:48,1,230
120,16,279493,1,0
112,250,279670,2,0,B|104:136,2,115,0|0|2
160,352,280199,1,0
240,200,280375,5,8
136,216,280552,1,0
208,64,280728,1,0
64,144,280905,2,0,B|52:208|20:272,1,115,2|0
240,352,281258,2,0,B|232:296|210:240,1,115,0|2
280,64,281611,2,0,B|312:120|384:152,1,115,2|2
448,280,281964,2,0,B|508:172|468:28,1,230
328,276,282670,5,0
248,320,282846,1,0
168,280,283023,1,0
96,328,283199,2,0,B|76:244|72:140,1,172.4999948591,8|4
72,157,283728,1,0
168,64,283905,2,0,B|184:112|184:184,2,86.2499974295498
432,32,284611,6,0,B|416:120|432:232,1,172.4999948591
472,280,285140,1,0
472,280,285317,1,0
400,320,285493,1,0
400,320,285670,1,0
296,48,286023,2,2,B|296:144|280:248,1,172.4999948591
288,304,286552,2,0,B|200:296,1,86.2499974295498
128,336,286905,1,0
88,256,287081,2,0,B|64:192|72:72,1,172.4999948591
256,192,287787,5,0
256,192,287964,1,0
416,48,288317,6,0,B|464:120|484:232,2,172.4999948591
40,48,289375,2,0,B|48:136|88:224,1,172.4999948591
240,288,290081,2,0,B|272:368,2,86.2499974295498
312,248,290611,2,0,B|408:272,2,86.2499974295498
240,200,291140,2,0,B|152:216|56:184,1,172.4999948591,0|0
272,48,291846,2,0,B|368:40|452:84,1,172.4999948591,2|0
256,128,292552,2,0,B|240:216,3,86.2499974295498,0|0|0|2
256,192,293258,12,0,294670
