osu file format v14

[General]
AudioFilename: asdf.mp3
AudioLeadIn: 0
PreviewTime: 66284
Countdown: 0
SampleSet: Soft
StackLeniency: 0.7
Mode: 0
LetterboxInBreaks: 0
WidescreenStoryboard: 1

[Editor]
DistanceSpacing: 0.7
BeatDivisor: 4
GridSize: 4
TimelineZoom: 1.2

[Metadata]
Title:Sadistic Paranoia
TitleUnicode:Sadistic Paranoia
Artist:EastNewSound
ArtistUnicode:EastNewSound
Creator:TicClick
Version:Lunatic
Source:東方Project
Tags:Touhou 東方地霊殿 Chireiden Subterranean Animism Satori Maiden ~ 3rd eye Satori Komeiji Tsubaki Kokucho Split Theory c79 ZUN Vass_Bass Reiji-RJ Rotten yellow
BeatmapID:267657
BeatmapSetID:100931

[Difficulty]
HPDrainRate:7
CircleSize:4
OverallDifficulty:8
ApproachRate:8.5
SliderMultiplier:1.6
SliderTickRate:1

[Events]
//Background and Video events
0,0,"asdf.jpg",0,0
//Break Periods
2,95673,101285
2,118376,130474
2,170268,182366
//Storyboard Layer 0 (Background)
//Storyboard Layer 1 (Fail)
//Storyboard Layer 2 (Pass)
//Storyboard Layer 3 (Foreground)
Sprite,Foreground,Centre,"SB/glow.png",320,240 T,HitSound,189426,189629 M,0,0,,540,244 F,0,0,101,0,1 S,0,0,101,0.2,0.6 C,0,0,810,86,180,231 F,0,101,810,1,0
Sprite,Foreground,Centre,"SB/glow.png",320,240 T,HitSound,191048,191251 M,0,0,,540,244 F,0,0,101,0,1 S,0,0,101,0.2,0.6 C,0,0,810,86,180,231 F,0,101,810,1,0
Sprite,Foreground,Centre,"SB/glow.png",320,240 T,HitSound,192669,192872 M,0,0,,532,224 F,0,0,101,0,1 S,0,0,101,0.2,0.6 C,0,0,810,82,117,188 F,0,101,810,1,0
Sprite,Foreground,Centre,"SB/glow.png",320,240 T,HitSound,193480,193683 M,0,0,,548,140 F,0,0,101,0,1 S,0,0,101,0.2,0.6 C,0,0,810,82,117,188 F,0,101,810,1,0
Sprite,Foreground,Centre,"SB/glow.png",320,240 T,HitSound,194291,194494 M,0,0,,464,124 F,0,0,101,0,1 S,0,0,101,0.2,0.6 C,0,0,810,82,117,188 F,0,101,810,1,0
Sprite,Foreground,Centre,"SB/glow.png",320,240 T,HitSound,195102,195305 M,0,0,,448,208 F,0,0,101,0,1 S,0,0,101,0.2,0.6 C,0,0,810,82,117,188 F,0,101,810,1,0
Sprite,Foreground,Centre,"SB/glow.png",320,240 T,HitSound,195507,195710 M,0,0,,344,244 F,0,0,101,0,1 S,0,0,101,0.2,0.6 C,0,0,810,82,117,188 F,0,101,810,1,0
Sprite,Foreground,Centre,"SB/glow.png",320,240 T,HitSound,195913,196115 M,0,0,,310,138 F,0,0,101,0,1 S,0,0,101,0.2,0.7 C,0,0,810,86,180,231 F,0,101,810,1,0
Sprite,Foreground,Centre,"SB/glow.png",320,240 T,HitSound,202451,202551 M,0,0,,352,252 F,0,0,101,0,1 S,0,0,101,0.2,0.6 C,0,0,808,209,46,95 F,0,101,808,1,0
Sprite,Foreground,Centre,"SB/glow.png",320,240 T,HitSound,204072,204172 M,0,0,,516,300 F,0,0,101,0,1 S,0,0,101,0.2,0.6 C,0,0,808,209,46,95 F,0,101,808,1,0
Sprite,Foreground,Centre,"SB/glow.png",320,240 T,HitSound,205694,205794 M,0,0,,347,363 F,0,0,101,0,1 S,0,0,101,0.2,0.6 C,0,0,808,209,46,95 F,0,101,808,1,0
Sprite,Foreground,Centre,"SB/glow.png",320,240 T,HitSound,206505,206605 M,0,0,,203,292 F,0,0,101,0,1 S,0,0,101,0.2,0.6 C,0,0,808,209,46,95 F,0,101,808,1,0
Sprite,Foreground,Centre,"SB/glow.png",320,240 T,HitSound,207315,207415 M,0,0,,246,411 F,0,0,101,0,1 S,0,0,101,0.2,0.6 C,0,0,808,209,46,95 F,0,101,808,1,0
Sprite,Foreground,Centre,"SB/glow.png",320,240 T,HitSound,208126,208226 M,0,0,,320,264 F,0,0,101,0,1 S,0,0,101,0.2,0.6 C,0,0,808,209,46,95 F,0,101,808,1,0
Sprite,Foreground,Centre,"SB/glow.png",320,240 T,HitSound,208329,208429 M,0,0,,408,192 F,0,0,101,0,1 S,0,0,101,0.2,0.6 C,0,0,808,209,46,95 F,0,101,808,1,0
Sprite,Foreground,Centre,"SB/glow.png",320,240 T,HitSound,208633,208733 M,0,0,,508,164 F,0,0,101,0,1 S,0,0,101,0.2,0.6 C,0,0,808,82,117,188 F,0,101,808,1,0
Sprite,Foreground,Centre,"SB/glow.png",320,240 T,HitSound,208937,209037 M,0,0,,504,304 F,0,0,101,0,1 S,0,0,101,0.2,0.85 C,0,0,808,209,46,95 F,0,101,808,1,0
//Storyboard Sound Samples

[TimingPoints]
1420,405.405405405405,4,1,0,60,1,0
2027,-125,4,2,0,50,0,0
12872,-125,4,1,0,40,0,0
13379,-100,4,2,0,50,0,0
14291,-100,4,1,0,65,0,0
14494,-100,4,1,0,40,0,0
24021,-100,4,1,0,50,0,0
26757,-125,4,2,0,50,0,0
26808,-125,4,1,0,50,0,0
27264,-100,4,1,0,65,0,0
27467,-100,4,1,0,40,0,0
37095,-125,4,1,0,40,0,0
38716,-100,4,1,0,40,0,0
40237,-100,4,1,0,55,0,0
40440,-100,4,1,0,40,0,0
49967,-100,4,1,0,55,0,0
50169,-100,4,1,0,40,0,0
53210,-100,4,1,0,55,0,0
53413,-100,4,1,0,40,0,0
62940,-100,4,1,0,55,0,0
63142,-100,4,1,0,40,0,0
64561,-100,4,1,0,55,0,0
64764,-100,4,1,0,40,0,0
66284,-100,4,1,0,65,0,1
66386,-100,4,1,0,40,0,0
79156,-100,4,1,0,65,0,0
79358,-100,4,1,0,40,0,0
88886,-100,4,1,0,55,0,0
89088,-100,4,1,0,40,0,0
89697,-100,4,1,0,55,0,0
89899,-100,4,1,0,40,0,0
90102,-100,4,1,0,55,0,0
90305,-100,4,1,0,40,0,0
90507,-100,4,1,0,65,0,0
90710,-100,4,1,0,55,0,0
92230,-100,4,1,0,65,0,1
92332,-100,4,1,0,50,0,0
93852,-100,4,2,0,40,0,0
94663,-100,4,2,0,30,0,0
95474,-100,4,2,0,20,0,0
101859,-100,4,1,0,50,0,0
104595,-125,4,2,0,50,0,0
104645,-125,4,1,0,50,0,0
105102,-100,4,1,0,65,0,0
105304,-100,4,1,0,40,0,0
114933,-125,4,1,0,40,0,0
116554,-100,4,1,0,40,0,0
118075,-100,4,1,0,55,0,0
131250,-100,4,1,0,40,0,0
144021,-100,4,1,0,55,0,0
144223,-100,4,1,0,40,0,0
153751,-100,4,1,0,55,0,0
153953,-100,4,1,0,40,0,0
155372,-100,4,1,0,55,0,0
155574,-100,4,1,0,40,0,0
156994,-125,4,1,0,55,0,0
157196,-125,4,2,0,40,0,0
169967,-125,4,1,0,55,0,0
182939,-166.666666666667,4,1,0,55,0,0
183142,-166.666666666667,4,2,0,40,0,0
189426,-166.666666666667,4,2,0,55,0,0
195913,-125,4,1,0,65,0,0
196115,-125,4,1,0,40,0,0
202399,-125,4,1,0,50,0,0
208176,-125,4,2,0,60,0,0
208987,-90.9090909090909,4,1,0,65,0,1
209088,-90.9090909090909,4,1,0,40,0,1
214561,-125,4,1,0,40,0,1
215169,-90.9090909090909,4,1,0,40,0,1
221859,-90.9090909090909,4,1,0,65,0,0
221960,-90.9090909090909,4,1,0,65,0,1
222061,-90.9090909090909,4,1,0,40,0,1
227534,-125,4,1,0,40,0,1
228142,-90.9090909090909,4,1,0,40,0,1
231690,-90.9090909090909,4,1,0,55,0,0
231791,-90.9090909090909,4,1,0,40,0,0
232399,-90.9090909090909,4,1,0,55,0,0
232602,-90.9090909090909,4,1,0,40,0,0
233211,-125,4,1,0,55,0,0
233413,-125,4,1,0,55,0,0
234933,-90.9090909090909,4,1,0,65,0,1
235034,-90.9090909090909,4,1,0,40,0,1
240507,-125,4,1,0,40,0,1
241115,-90.9090909090909,4,1,0,40,0,1
247805,-90.9090909090909,4,1,0,65,0,0
247906,-90.9090909090909,4,1,0,65,0,1
248007,-90.9090909090909,4,1,0,40,0,1
253480,-125,4,1,0,40,0,1
254088,-90.9090909090909,4,1,0,40,0,1
257636,-90.9090909090909,4,1,0,55,0,0
259156,-90.9090909090909,4,1,0,65,0,0
259359,-90.9090909090909,4,1,0,55,0,0
260879,-90.9090909090909,4,1,0,65,0,1
260980,-90.9090909090909,4,1,0,65,0,0

[Colours]
Combo1 : 252,103,140
Combo2 : 82,117,188
Combo3 : 86,180,231
Combo4 : 209,46,95

[HitObjects]
224,92,1420,5,4,0:0:0:0:
328,152,2027,1,0,0:0:0:0:
328,152,2129,1,0,0:0:0:0:
328,152,2230,2,0,L|348:216,1,64,2|0,0:0|0:0,0:0:0:0:
300,284,2635,2,0,P|272:306|239:315,1,64
347,213,3041,6,0,P|382:212|413:225,1,64,2|0,0:0|0:0,0:0:0:0:
472,284,3446,1,0,0:0:0:0:
372,308,3649,1,0,0:0:0:0:
348,212,3852,2,0,L|328:144,1,64,2|0,0:0|0:0,0:0:0:0:
320,120,4156,1,0,0:0:0:0:
192,128,4460,1,0,0:0:0:0:
192,128,4662,6,0,L|132:108,1,64,2|0,0:0|0:0,0:0:0:0:
160,204,5068,2,0,L|220:228,1,64
144,288,5473,2,0,L|52:256,2,96,2|0|2,0:0|0:0|0:0,0:0:0:0:
280,296,6284,5,2,0:0:0:0:
280,296,6487,1,0,0:0:0:0:
428,348,6892,2,0,L|444:380,2,32,0|0|2,0:0|0:0|0:0,0:0:0:0:
436,220,7297,1,0,0:0:0:0:
436,220,7399,1,2,0:0:0:0:
436,220,7500,2,0,P|412:180|368:144,1,96,2|2,0:0|0:0,0:0:0:0:
348,140,7906,5,4,1:0:0:0:
184,104,8716,1,4,1:0:0:0:
24,152,9527,5,4,1:0:0:0:
24,152,9933,1,4,1:0:0:0:
20,304,10338,2,0,L|120:296,1,96,4|0,1:0|0:0,0:0:0:0:
408,320,10946,1,2,0:0:0:0:
408,320,11149,6,0,L|344:304,1,64,4|0,0:0|0:0,0:0:0:0:
484,220,11554,2,0,L|420:216,1,64,4|0,0:0|0:0,0:0:0:0:
488,88,11960,2,0,L|424:92,1,64,4|0,0:0|0:0,0:0:0:0:
280,56,12365,1,4,0:2:0:0:
280,56,12466,1,0,1:2:0:0:
128,96,12669,1,0,1:0:0:0:
104,115,12770,5,4,0:0:0:0:
88,141,12872,1,0,0:0:0:0:
81,171,12973,1,0,0:0:0:0:
85,201,13075,1,0,0:0:0:0:
98,229,13176,1,0,0:0:0:0:
120,250,13277,1,0,0:0:0:0:
148,263,13379,1,2,2:0:0:0:
178,266,13480,1,0,0:0:0:0:
208,256,13582,5,4,0:0:0:0:
392,168,13784,1,4,0:0:0:0:
344,304,13987,1,0,0:0:0:0:
340,324,14088,1,6,0:0:0:0:
256,124,14291,1,4,0:0:0:0:
252,104,14392,5,0,0:0:0:0:
172,20,14595,1,0,0:0:0:0:
76,80,14798,2,0,P|65:123|68:164,1,80,8|0,0:0|0:0,0:0:0:0:
80,176,15102,1,2,0:2:0:0:
92,192,15203,2,0,P|96:236|84:280,1,80
248,316,15608,2,0,P|279:286|296:248,1,80,8|0,0:0|0:0,0:0:0:0:
305,95,16014,5,0,0:0:0:0:
224,164,16216,1,0,0:0:0:0:
376,176,16419,2,0,P|415:172|451:155,1,80,8|0,0:0|0:0,0:0:0:0:
296,244,16825,2,0,P|293:309|260:364,1,120
248,360,17230,2,0,P|204:357|164:372,1,80,8|0,0:0|0:0,0:0:0:0:
416,320,17635,6,0,P|456:304|484:272,1,80
296,244,18041,2,0,P|256:248|212:272,1,80,8|0,0:0|0:0,0:0:0:0:
96,312,18446,1,0,0:0:0:0:
96,312,18548,2,0,L|88:228,1,80
84,212,18852,1,8,0:0:0:0:
156,96,19054,1,0,0:0:0:0:
284,112,19257,6,0,L|352:164,1,80
416,320,19662,1,8,0:0:0:0:
256,252,19865,1,0,0:0:0:0:
252,280,19966,1,0,0:0:0:0:
248,308,20068,1,0,0:0:0:0:
376,216,20270,1,0,0:0:0:0:
380,188,20372,1,0,0:0:0:0:
384,160,20473,2,0,P|404:160|424:156,2,40,8|0|0,0:0|0:0|0:0,0:0:0:0:
380,132,20777,1,0,0:0:0:0:
372,104,20879,6,0,P|368:56|384:16,1,80
252,96,21284,1,8,0:0:0:0:
143,59,21487,1,0,0:0:0:0:
140,87,21588,1,0,0:0:0:0:
136,116,21690,2,0,P|98:169|92:232,1,120
96,240,22095,2,0,P|123:274|155:293,1,80,8|0,0:0|0:0,0:0:0:0:
312,316,22500,5,0,0:0:0:0:
400,188,22703,1,0,0:0:0:0:
252,236,22906,1,8,0:0:0:0:
396,288,23108,1,0,0:0:0:0:
239,131,23311,2,0,P|180:105|120:116,1,120
112,128,23716,2,0,L|92:216,1,80,8|0,0:0|0:0,0:0:0:0:
320,200,24122,6,0,L|328:116,1,80,4|0,0:2|0:0,0:0:0:0:
272,308,24527,2,0,P|291:342|323:366,1,80,8|0,0:0|0:0,0:0:0:0:
199,187,24933,2,0,P|162:176|123:182,1,80,4|0,0:2|0:0,0:0:0:0:
75,315,25338,1,8,0:0:0:0:
76,316,25439,2,0,P|104:344|144:356,1,80
160,356,25743,5,4,0:2:0:0:
280,200,25946,1,0,0:0:0:0:
284,172,26047,1,4,0:2:0:0:
288,144,26149,1,0,0:0:0:0:
128,216,26352,1,6,0:2:0:0:
260,344,26554,1,0,0:0:0:0:
288,340,26656,1,0,0:0:0:0:
316,336,26757,2,2,L|444:348,1,128,6|2,0:0|0:0,0:0:0:0:
416,136,27365,5,4,0:0:0:0:
416,136,27771,2,0,L|336:132,1,80,8|0,0:0|0:0,0:0:0:0:
204,188,28176,2,0,P|188:220|188:264,1,80
336,132,28581,2,0,P|345:97|341:53,1,80,8|0,0:0|0:0,0:0:0:0:
236,92,28987,5,0,0:0:0:0:
140,36,29189,1,0,0:0:0:0:
32,68,29392,2,0,L|36:148,1,80,8|0,0:0|0:0,0:0:0:0:
100,232,29798,2,0,L|180:224,1,80
72,328,30203,2,0,L|-8:336,1,80,8|0,0:0|0:0,0:0:0:0:
196,324,30608,6,0,L|276:352,1,80
392,300,31014,1,8,0:0:0:0:
512,352,31216,1,0,0:0:0:0:
392,300,31419,2,0,L|392:216,1,80
344,52,31825,2,0,L|336:132,1,80,8|0,0:0|0:0,0:0:0:0:
228,304,32230,6,0,P|216:212|252:152,1,160,0|8,0:0|0:0,0:0:0:0:
140,324,32838,1,0,0:0:0:0:
140,324,32939,1,0,0:0:0:0:
140,324,33041,2,0,P|118:298|108:248,1,80
248,156,33446,2,0,L|328:148,1,80,8|0,0:0|0:0,0:0:0:0:
172,96,33852,6,0,L|92:92,1,80
108,204,34257,1,8,0:0:0:0:
200,268,34460,1,0,0:0:0:0:
308,244,34662,2,0,P|332:272|344:312,1,80
200,268,35068,2,0,L|212:180,1,80,8|0,0:0|0:0,0:0:0:0:
328,28,35473,6,0,L|340:188,1,160,0|8,0:0|0:0,0:0:0:0:
284,303,36081,1,0,0:0:0:0:
284,304,36284,2,0,P|212:338|134:327,1,160,0|8,0:0|0:0,0:0:0:0:
64,216,36892,1,0,0:0:0:0:
64,216,37095,6,0,L|48:88,1,128,0|8,0:0|0:0,0:0:0:0:
168,144,37703,1,0,0:0:0:0:
168,144,37906,2,0,P|196:152|236:148,1,64
288,276,38311,2,0,P|273:304|268:336,1,64,8|0,0:0|0:0,0:0:0:0:
436,252,38716,6,0,P|448:180|416:96,1,160,0|8,0:0|0:0,0:0:0:0:
280,48,39324,1,0,0:0:0:0:
276,68,39426,1,0,0:0:0:0:
272,88,39527,1,0,0:0:0:0:
248,212,39730,1,0,0:0:0:0:
160,272,39933,1,4,0:2:0:0:
340,336,40135,1,4,0:2:0:0:
88,184,40338,6,0,L|84:104,1,80,4|0,0:0|0:0,0:0:0:0:
200,44,40744,2,0,P|240:48|276:68,1,80,8|0,0:0|0:0,0:0:0:0:
424,104,41149,2,0,P|463:103|501:91,1,80
460,232,41555,1,8,0:0:0:0:
460,232,41757,6,0,P|432:304|368:354,1,160
272,312,42365,1,8,0:0:0:0:
164,280,42568,2,0,L|152:196,1,80
328,148,42973,1,2,0:0:0:0:
328,148,43176,2,0,L|340:232,1,80,2|0,0:0|0:0,0:0:0:0:
132,264,43581,6,0,L|120:180,1,80
168,28,43987,1,8,0:0:0:0:
224,132,44189,1,0,0:0:0:0:
72,108,44392,2,0,P|56:80|44:20,1,80
131,193,44798,2,0,L|54:212,1,80,8|0,0:0|0:0,0:0:0:0:
264,120,45203,6,0,L|344:144,1,80
320,300,45608,1,8,0:0:0:0:
320,300,45811,2,0,P|300:272|292:224,1,80,2|0,0:0|0:0,0:0:0:0:
122,196,46216,1,2,0:0:0:0:
122,196,46419,2,0,P|104:232|100:272,1,80,8|2,0:0|0:0,0:0:0:0:
316,128,46825,6,2,P|320:92|308:48,1,80,0|0,0:0|0:0,0:0:0:0:
288,44,47129,1,0,0:0:0:0:
264,40,47230,2,0,L|184:32,1,80,8|0,0:0|0:0,0:0:0:0:
380,28,47635,1,2,0:2:0:0:
400,30,47737,1,0,0:0:0:0:
420,32,47838,1,2,0:2:0:0:
436,172,48041,1,8,0:0:0:0:
432,192,48142,1,0,0:0:0:0:
428,212,48243,1,0,0:0:0:0:
424,232,48345,1,0,0:0:0:0:
420,252,48446,6,0,L|344:284,1,80
136,272,48852,2,0,L|88:264,2,40,8|2|0,0:0|0:2|0:0,0:0:0:0:
156,276,49156,1,0,0:0:0:0:
176,280,49257,1,2,0:2:0:0:
272,196,49460,1,2,0:0:0:0:
184,92,49662,2,2,L|104:72,1,80,2|0,0:0|0:0,0:0:0:0:
352,116,50068,6,0,L|472:108,2,120,0|2|0,0:0|0:0|0:0,0:0:0:0:
232,192,50879,1,0,0:0:0:0:
264,72,51081,1,0,0:0:0:0:
376,236,51284,2,0,P|376:272|360:320,1,80,8|0,0:0|0:0,0:0:0:0:
147,303,51689,6,0,P|132:226|152:149,1,160,2|8,0:2|0:0,0:0:0:0:
179,43,52297,2,4,P|100:48|28:84,1,160,2|2,0:0|0:0,0:0:0:0:
256,84,52906,1,2,0:0:0:0:
232,184,53108,1,2,0:2:0:0:
440,175,53311,6,0,P|473:154|500:124,1,80,4|0,0:0|0:0,0:0:0:0:
375,260,53716,2,0,P|380:299|399:334,2,80,8|0|0,0:0|0:0|0:0,0:0:0:0:
288,164,54325,1,0,0:0:0:0:
364,60,54528,1,8,0:0:0:0:
364,60,54730,2,0,P|403:60|440:45,1,80
244,32,55136,5,0,0:0:0:0:
128,76,55338,1,8,0:0:0:0:
108,196,55541,2,0,P|124:232|160:264,1,80
384,268,55946,1,2,0:0:0:0:
268,304,56149,1,2,0:0:0:0:
268,304,56352,1,0,0:0:0:0:
500,216,56554,6,0,P|508:252|504:296,1,80
340,262,56960,2,0,P|316:200|324:108,1,160,8|0,0:0|0:0,0:0:0:0:
216,48,57568,1,0,0:0:0:0:
216,48,57771,2,0,P|200:81|168:112,1,80,8|0,0:0|0:0,0:0:0:0:
104,236,58176,5,0,0:0:0:0:
104,236,58379,2,0,L|112:320,1,80,0|8,0:0|0:0,0:0:0:0:
252,203,58784,2,0,P|291:203|327:220,1,80,2|0,0:0|0:0,0:0:0:0:
184,112,59189,1,2,0:0:0:0:
184,111,59392,2,0,P|219:93|258:87,1,80,2|0,0:0|0:0,0:0:0:0:
460,248,59797,6,0,P|424:280|336:296,1,120,2|0,0:0|0:0,0:0:0:0:
336,296,60203,1,8,0:0:0:0:
208,248,60406,1,0,0:0:0:0:
188,244,60507,1,0,0:0:0:0:
168,240,60608,1,0,0:0:0:0:
148,236,60710,1,0,0:0:0:0:
128,232,60811,1,0,0:0:0:0:
288,156,61014,1,8,0:0:0:0:
308,152,61115,1,0,0:0:0:0:
328,148,61216,1,0,0:0:0:0:
348,144,61318,1,0,0:0:0:0:
368,140,61419,6,0,L|412:144,2,40
280,48,61825,1,8,0:0:0:0:
260,44,61926,1,2,0:2:0:0:
240,40,62027,1,0,0:0:0:0:
220,36,62129,1,0,0:0:0:0:
200,32,62230,2,0,P|160:40|121:67,1,80,2|2,0:2|0:0,0:0:0:0:
76,220,62635,1,2,0:0:0:0:
196,296,62838,1,0,0:0:0:0:
452,244,63041,6,0,P|452:208|460:160,1,80,4|0,0:2|0:0,0:0:0:0:
488,76,63446,1,8,0:0:0:0:
320,112,63649,2,0,P|324:156|316:208,1,80
232,296,64054,2,0,P|152:280|72:288,1,160,4|0,0:2|0:0,0:0:0:0:
320,348,64662,5,4,0:0:0:0:
180,200,65270,1,2,0:0:0:0:
152,100,65676,1,2,0:0:0:0:
152,100,65879,1,0,0:0:0:0:
336,128,66284,6,0,P|376:120|412:92,1,80,4|0,0:0|0:0,0:0:0:0:
180,28,66689,2,0,P|160:64|152:104,1,80,8|0,0:0|0:0,0:0:0:0:
352,204,67095,2,0,P|348:160|335:128,1,80
208,240,67500,1,8,0:0:0:0:
356,312,67703,2,0,L|452:328,1,80
352,204,68108,5,0,0:0:0:0:
240,344,68311,2,0,L|152:352,1,80,8|0,0:0|0:0,0:0:0:0:
44,192,68716,2,0,P|84:193|119:210,1,80
264,240,69122,1,8,0:0:0:0:
400,196,69325,2,0,P|436:172|453:140,1,80
296,112,69730,5,0,0:0:0:0:
360,280,69933,2,0,L|368:364,1,80,8|0,0:0|0:0,0:0:0:0:
200,324,70338,2,0,L|184:160,1,160,0|8,0:0|0:0,0:0:0:0:
96,64,70946,1,0,0:0:0:0:
92,280,71149,6,0,P|136:264|161:243,1,80
327,255,71554,2,0,P|304:228|288:184,1,80,8|0,0:0|0:0,0:0:0:0:
192,88,71960,2,0,P|216:53|224:17,1,80,0|2,0:0|0:2,0:0:0:0:
72,164,72365,1,8,0:0:0:0:
72,164,72568,1,2,0:2:0:0:
164,324,72771,6,0,L|248:336,1,80
424,264,73176,2,0,P|388:245|349:238,1,80,8|0,0:0|0:0,0:0:0:0:
324,244,73480,1,0,0:0:0:0:
300,248,73581,2,0,P|260:248|221:239,1,80
104,108,73987,2,0,P|148:108|182:116,1,80,8|0,0:0|0:0,0:0:0:0:
391,44,74392,6,0,P|337:97|355:172,1,160,0|8,0:0|0:0,0:0:0:0:
488,240,75000,1,0,0:0:0:0:
488,240,75102,1,0,0:0:0:0:
488,240,75203,2,0,P|476:284|408:312,1,120
392,308,75608,1,8,0:0:0:0:
256,232,75811,1,0,0:0:0:0:
104,264,76014,6,0,P|80:300|76:336,1,80
196,208,76419,2,0,P|176:169|147:147,1,80,8|0,0:0|0:0,0:0:0:0:
196,316,76824,2,0,P|276:312|340:256,1,160,0|8,0:0|0:0,0:0:0:0:
456,220,77433,1,0,0:0:0:0:
448,92,77635,6,0,L|290:62,1,160,0|8,0:0|0:0,0:0:0:0:
244,172,78243,1,0,0:0:0:0:
244,172,78345,1,0,0:0:0:0:
244,172,78447,1,0,0:0:0:0:
360,196,78649,1,4,0:2:0:0:
116,228,78852,1,0,1:0:0:0:
116,228,78953,1,4,0:2:0:0:
260,72,79156,1,0,0:0:0:0:
260,72,79257,6,0,P|260:116|248:160,1,80,4|0,0:0|0:0,0:0:0:0:
312,288,79662,2,0,L|388:312,1,80,8|0,0:0|0:0,0:0:0:0:
216,220,80068,2,0,P|176:212|136:220,1,80
172,312,80473,1,8,0:0:0:0:
322,169,80676,2,0,P|264:124|180:108,1,160
364,68,81284,6,0,P|393:47|420:13,1,80,8|0,0:0|0:0,0:0:0:0:
432,168,81689,2,0,P|456:208|461:240,1,80
356,320,82095,1,8,0:0:0:0:
264,216,82297,2,0,P|192:204|105:211,1,160
108,348,82906,6,0,P|144:336|175:309,1,80,8|0,0:0|0:0,0:0:0:0:
128,96,83311,2,0,P|124:136|130:175,1,80
292,96,83716,2,0,P|336:76|416:72,1,120,8|0,0:0|0:0,0:0:0:0:
436,80,84122,6,0,L|451:158,1,80
384,272,84527,1,8,0:0:0:0:
272,204,84730,1,0,0:0:0:0:
272,204,84831,1,0,0:0:0:0:
272,204,84933,2,0,P|216:216|164:256,1,120,0|2,0:0|0:2,0:0:0:0:
156,272,85338,2,0,P|143:317|148:361,1,80,8|2,0:0|0:2,0:0:0:0:
112,164,85744,6,0,P|91:133|57:104,1,80
212,84,86149,2,0,L|291:80,1,80,8|0,0:0|0:0,0:0:0:0:
500,52,86554,1,0,0:0:0:0:
388,16,86757,1,0,0:0:0:0:
380,180,86960,1,8,0:0:0:0:
512,192,87162,1,0,0:0:0:0:
376,352,87365,5,0,0:0:0:0:
356,356,87466,2,0,P|316:356|276:332,1,80
268,320,87771,2,0,L|248:232,1,80,8|0,0:0|0:0,0:0:0:0:
344,140,88176,2,0,L|376:116,2,40
192,180,88581,2,0,P|152:176|117:157,1,80,8|0,0:0|0:0,0:0:0:0:
368,32,88987,6,0,L|456:40,1,80,4|0,0:0|0:0,0:0:0:0:
344,140,89392,1,8,0:0:0:0:
344,140,89595,1,0,0:0:0:0:
144,32,89798,2,0,L|64:40,1,80,4|0,0:2|0:0,0:0:0:0:
344,140,90203,2,0,L|424:140,1,80,4|0,0:2|0:0,0:0:0:0:
116,232,90608,6,0,L|32:244,1,80,4|0,0:0|0:0,0:0:0:0:
368,244,91014,1,8,0:0:0:0:
192,224,91419,2,0,P|210:231|230:234,1,40,4|0,0:2|2:0,0:0:0:0:
119,192,91622,2,0,P|105:206|97:225,1,40,4|0,0:2|2:0,0:0:0:0:
184,148,91824,1,0,0:0:0:0:
176,120,91926,1,4,0:2:0:0:
348,72,92129,1,0,0:0:0:0:
356,44,92230,21,4,0:1:0:0:
256,192,92331,12,0,95473,0:0:0:0:
40,240,101960,5,4,0:2:0:0:
116,336,102162,1,0,0:0:0:0:
187,197,102365,1,8,0:0:0:0:
296,332,102568,1,0,0:0:0:0:
368,176,102770,1,4,0:2:0:0:
368,176,102973,1,0,0:0:0:0:
228,80,103176,1,8,0:0:0:0:
200,56,103277,2,0,P|163:66|120:67,1,80
92,44,103581,6,0,P|60:68|38:101,1,80,4|0,0:2|0:0,0:0:0:0:
40,140,103885,1,4,0:2:0:0:
216,248,104189,1,4,0:2:0:0:
216,248,104291,1,0,0:0:0:0:
216,248,104392,1,0,0:0:0:0:
332,172,104595,2,2,P|387:203|421:256,1,128,4|0,0:0|0:0,0:0:0:0:
196,280,105203,5,4,0:0:0:0:
196,280,105609,2,0,P|180:248|176:205,1,80,8|0,0:0|0:0,0:0:0:0:
207,92,106014,2,0,P|168:95|127:87,1,80
352,83,106419,2,0,P|390:72|429:71,1,80,8|0,0:0|0:0,0:0:0:0:
447,172,106824,6,0,P|391:228|368:303,1,160,0|8,0:0|0:0,0:0:0:0:
224,84,107635,2,0,P|256:144|263:234,1,160,0|8,0:0|0:0,0:0:0:0:
184,312,108243,1,0,0:0:0:0:
128,224,108446,6,0,P|92:212|48:212,1,80
184,312,108852,2,0,P|220:324|264:324,1,80,8|0,0:0|0:0,0:0:0:0:
328,216,109257,1,0,0:0:0:0:
448,236,109460,1,0,0:0:0:0:
448,236,109662,2,0,P|460:276|464:316,1,80,8|0,0:0|0:0,0:0:0:0:
464,116,110068,6,0,P|472:80|493:40,1,80
344,96,110474,1,8,0:0:0:0:
224,80,110676,1,0,0:0:0:0:
200,76,110777,1,0,0:0:0:0:
176,72,110879,1,2,0:2:0:0:
112,204,111081,1,0,0:0:0:0:
264,200,111284,1,8,0:0:0:0:
283,214,111385,1,2,0:2:0:0:
303,228,111487,1,2,0:2:0:0:
216,348,111689,6,0,P|172:348|138:336,1,80
36,232,112095,2,0,P|6:256|-12:292,1,80,8|0,0:0|0:0,0:0:0:0:
180,192,112500,2,0,P|184:152|175:113,1,80
64,20,112906,1,8,0:0:0:0:
40,164,113108,1,0,0:0:0:0:
180,192,113311,6,0,L|260:184,1,80
372,64,113716,2,0,L|288:72,1,80,8|0,0:0|0:0,0:0:0:0:
476,96,114122,1,0,0:0:0:0:
476,96,114324,1,0,0:0:0:0:
464,196,114527,2,0,L|468:284,1,80,8|0,0:0|0:0,0:0:0:0:
336,344,114933,6,0,P|316:312|312:280,1,64
320,168,115338,2,0,L|316:100,1,64,8|0,0:0|0:0,0:0:0:0:
132,96,115744,2,0,L|136:160,1,64,0|0,0:0|0:0,0:0:0:0:
228,164,116149,2,0,L|224:100,1,64,8|0,0:0|0:0,0:0:0:0:
40,92,116554,6,0,L|48:252,1,160,0|8,0:0|0:0,0:0:0:0:
168,348,117162,1,0,0:0:0:0:
168,348,117264,1,0,0:0:0:0:
168,348,117365,2,0,P|208:348|247:339,1,80
452,248,117770,1,4,0:2:0:0:
344,88,117973,1,4,0:2:0:0:
368,360,118176,5,4,0:0:0:0:
272,60,131149,6,0,L|297:177,1,120,4|0,0:0|0:0,0:0:0:0:
272,252,131554,2,0,P|243:270|198:279,1,80,8|0,0:0|0:0,0:0:0:0:
76,228,131960,1,0,0:0:0:0:
76,228,132061,1,0,0:0:0:0:
76,228,132162,1,0,0:0:0:0:
48,96,132365,1,8,0:0:0:0:
156,16,132568,6,8,P|180:88|177:171,1,160,0|0,0:0|0:0,0:0:0:0:
128,284,133176,1,8,0:0:0:0:
240,332,133379,2,0,P|278:319|309:292,1,80
336,176,133784,1,2,0:0:0:0:
408,356,133987,1,2,0:0:0:0:
408,356,134190,1,0,0:0:0:0:
488,276,134392,6,0,L|480:184,1,80
416,108,134798,2,0,L|408:24,1,80,8|0,0:0|0:0,0:0:0:0:
272,132,135203,2,0,P|304:160|341:171,1,80
176,152,135608,2,0,P|140:133|99:131,1,80,8|0,0:0|0:0,0:0:0:0:
212,284,136014,5,0,0:0:0:0:
212,284,136216,2,0,L|292:272,1,80,0|8,0:0|0:0,0:0:0:0:
120,220,136622,2,0,L|40:232,1,80,2|0,0:0|0:0,0:0:0:0:
196,140,137028,2,0,L|276:128,1,80,2|8,0:0|0:0,0:0:0:0:
248,24,137433,1,2,0:0:0:0:
125,61,137635,6,0,P|66:66|12:44,1,120,2|0,0:0|0:0,0:0:0:0:
4,24,138041,1,8,0:0:0:0:
80,164,138243,1,0,0:0:0:0:
73,183,138345,1,0,0:0:0:0:
63,200,138446,1,2,0:2:0:0:
50,217,138547,1,0,0:0:0:0:
33,228,138649,1,0,0:0:0:0:
182,131,138852,1,8,0:0:0:0:
200,124,138953,1,0,0:0:0:0:
220,120,139055,1,0,0:0:0:0:
242,121,139156,1,0,0:0:0:0:
261,127,139257,5,0,0:0:0:0:
364,196,139460,1,0,0:0:0:0:
432,300,139662,2,0,P|433:321|429:339,2,40,8|2|0,0:0|0:2|0:0,0:0:0:0:
436,160,140068,1,2,0:2:0:0:
508,240,140270,1,2,0:0:0:0:
444,44,140473,2,0,L|364:35,1,80,0|2,0:0|0:0,0:0:0:0:
220,84,140879,6,0,P|176:120|118:144,1,120,0|2,0:0|0:0,0:0:0:0:
100,148,141284,2,0,P|64:164|34:192,1,80,8|0,0:0|0:0,0:0:0:0:
208,248,141689,2,0,P|248:228|275:205,1,80
400,344,142095,2,0,P|377:311|364:273,1,80,8|0,0:0|0:0,0:0:0:0:
404,96,142500,5,2,2:0:0:0:
404,96,142906,1,8,0:0:0:0:
404,96,143108,2,0,P|328:80|244:88,1,160,2|2,0:0|0:0,0:0:0:0:
160,264,143716,1,0,0:0:0:0:
336,348,143919,1,0,0:0:0:0:
232,88,144122,6,0,P|194:103|166:129,1,80,4|0,0:0|0:0,0:0:0:0:
120,232,144527,2,0,P|81:246|36:244,1,80,8|0,0:0|0:0,0:0:0:0:
224,280,144933,2,0,P|257:307|272:340,1,80
160,380,145338,1,8,0:0:0:0:
88,284,145541,6,0,P|112:204|172:160,1,160
296,184,146149,1,8,0:0:0:0:
420,156,146352,2,0,P|432:120|432:76,1,80
296,184,146757,1,2,0:0:0:0:
352,304,146960,2,0,L|452:312,1,80,2|0,0:0|0:0,0:0:0:0:
240,272,147365,6,0,P|180:272|120:292,1,120
100,300,147771,2,0,P|63:302|20:288,1,80,8|0,0:0|0:0,0:0:0:0:
52,148,148176,2,0,L|48:108,2,40,0|0|0,0:0|2:0|2:0,0:0:0:0:
164,116,148581,2,0,L|176:36,1,80,8|0,0:0|0:0,0:0:0:0:
200,216,148987,5,0,0:0:0:0:
200,216,149190,2,0,P|236:231|276:232,1,80,0|8,0:0|0:0,0:0:0:0:
416,72,149595,2,0,P|377:63|337:67,1,80,2|0,0:0|0:0,0:0:0:0:
368,252,150001,2,0,P|416:260|445:253,1,80,0|8,0:0|0:0,0:0:0:0:
508,152,150406,1,2,0:0:0:0:
288,152,150608,6,0,P|232:160|176:192,1,120,2|2,0:0|0:0,0:0:0:0:
164,212,151014,1,8,0:0:0:0:
160,352,151216,1,0,0:0:0:0:
144,348,151318,1,0,0:0:0:0:
128,344,151419,1,2,0:2:0:0:
112,340,151520,1,0,0:0:0:0:
96,336,151622,1,0,0:0:0:0:
32,212,151824,1,8,0:0:0:0:
31,196,151926,1,0,0:0:0:0:
30,180,152027,1,0,0:0:0:0:
29,164,152129,1,0,0:0:0:0:
28,148,152230,6,0,L|24:64,1,80
184,56,152635,1,8,0:0:0:0:
188,72,152737,2,0,P|228:87|254:112,1,80,2|0,0:2|0:0,0:0:0:0:
264,128,153041,2,0,P|276:168|272:216,1,80,2|2,0:2|0:0,0:0:0:0:
184,336,153446,1,2,0:0:0:0:
156,184,153649,1,0,0:0:0:0:
321,316,153852,6,0,P|389:288|440:220,1,160,4|8,0:2|0:0,0:0:0:0:
156,184,154460,2,0,P|111:185|76:172,1,80
292,104,154865,2,0,P|333:105|370:118,1,80,4|8,0:2|0:0,0:0:0:0:
204,384,155270,1,0,0:0:0:0:
156,184,155473,5,4,0:0:0:0:
292,104,156081,1,2,0:0:0:0:
156,184,156487,1,2,0:0:0:0:
156,184,156689,1,2,0:0:0:0:
136,332,157095,37,4,0:0:0:0:
248,243,157500,2,0,P|263:216|268:184,1,64,0|2,0:0|0:0,0:0:0:0:
348,276,157906,2,0,P|343:310|348:344,1,64,2|0,0:0|0:0,0:0:0:0:
404,200,158311,1,0,0:0:0:0:
404,200,158514,2,0,P|404:168|396:137,1,64,2|0,0:0|0:0,0:0:0:0:
248,100,159122,6,0,L|260:32,2,64,0|0|2,0:0|0:0|0:0,0:0:0:0:
180,156,159730,2,0,P|152:168|118:172,1,64,2|0,0:0|0:0,0:0:0:0:
44,124,160135,1,2,0:0:0:0:
96,316,160743,37,0,0:0:0:0:
96,316,160946,1,2,0:0:0:0:
96,316,161149,1,0,0:0:0:0:
220,296,161555,1,2,0:0:0:0:
344,276,161960,6,0,P|352:243|369:218,1,64,2|0,0:0|0:0,0:0:0:0:
510,213,162365,2,0,P|478:222|447:219,1,64,2|0,0:0|0:0,0:0:0:0:
496,96,162770,2,0,P|447:134|384:130,1,128,2|0,0:0|0:0,0:0:0:0:
196,168,163581,38,0,L|206:40,1,128,0|2,0:0|0:0,0:0:0:0:
112,212,164392,2,0,P|109:244|124:280,1,64
245,205,164798,2,0,P|224:181|196:168,1,64,2|0,0:0|0:0,0:0:0:0:
212,292,165203,6,0,P|260:300|306:294,1,96,2|0,0:0|0:0,0:0:0:0:
408,336,165811,1,2,0:0:0:0:
408,336,166014,2,0,P|432:296|444:248,1,96,2|0,0:0|0:0,0:0:0:0:
376,156,166622,1,2,0:0:0:0:
376,156,166824,37,2,0:0:0:0:
244,172,167635,1,2,0:0:0:0:
180,84,168041,2,0,L|108:84,1,64,0|2,0:0|0:0,0:0:0:0:
32,172,168446,6,0,L|128:172,1,96,2|0,0:0|0:0,0:0:0:0:
280,244,169054,1,2,0:0:0:0:
280,244,169257,2,0,L|186:263,1,96,2|0,0:0|0:0,0:0:0:0:
340,160,169865,1,2,0:0:0:0:
444,256,170068,37,4,1:0:0:0:
40,176,183041,6,0,L|36:104,1,71.9999978027344,4|0,0:0|0:0,0:0:0:0:
192,152,183649,2,0,L|196:224,2,71.9999978027344,0|2|0,0:0|0:0|0:0,0:0:0:0:
260,100,184460,1,2,0:0:0:0:
324,160,184662,38,0,P|360:164|394:157,1,71.9999978027344,2|0,0:0|0:0,0:0:0:0:
424,20,185270,1,2,0:0:0:0:
424,20,185473,2,0,P|408:56|406:88,1,71.9999978027344,2|0,0:0|0:0,0:0:0:0:
400,252,186081,1,2,0:0:0:0:
400,252,186284,6,0,P|368:264|320:264,1,71.9999978027344,0|2,0:0|0:0,0:0:0:0:
200,208,186892,2,0,P|197:174|188:136,2,71.9999978027344,0|2|2,0:0|0:0|0:0,0:0:0:0:
184,292,187703,1,2,0:0:0:0:
108,332,187906,38,0,P|72:332|36:324,1,71.9999978027344,0|2,0:0|0:0,0:0:0:0:
200,208,188514,1,2,0:0:0:0:
200,208,188716,2,0,P|235:215|267:231,1,71.9999978027344,2|2,0:0|0:0,0:0:0:0:
444,288,189324,1,2,0:0:0:0:
480,184,189527,5,4,0:0:0:0:
480,184,191149,1,4,0:0:0:0:
472,164,192771,37,4,0:0:0:0:
488,80,193582,1,4,0:0:0:0:
404,64,194392,1,4,0:0:0:0:
388,148,195203,1,4,0:0:0:0:
284,184,195608,1,4,0:0:0:0:
250,78,196014,5,4,0:0:0:0:
168,60,196216,1,0,0:0:0:0:
96,100,196419,1,0,0:0:0:0:
56,172,196622,1,0,0:0:0:0:
76,252,196824,1,0,0:0:0:0:
136,308,197027,1,0,0:0:0:0:
216,324,197230,1,0,0:0:0:0:
296,308,197433,1,0,0:0:0:0:
432,352,197635,37,0,0:0:0:0:
440,268,197838,1,0,0:0:0:0:
464,188,198041,1,0,0:0:0:0:
500,112,198243,1,0,0:0:0:0:
416,32,198446,1,0,0:0:0:0:
332,44,198649,1,0,0:0:0:0:
248,56,198852,1,0,0:0:0:0:
168,68,199054,1,0,0:0:0:0:
144,216,199257,5,0,0:0:0:0:
144,216,199460,1,0,0:0:0:0:
96,304,199662,1,0,0:0:0:0:
96,304,199865,1,0,0:0:0:0:
192,352,200068,1,0,0:0:0:0:
192,352,200270,1,0,0:0:0:0:
236,256,200473,1,0,0:0:0:0:
236,256,200676,1,0,0:0:0:0:
344,128,200879,38,0,L|408:140,1,64
164,152,201284,2,0,L|101:140,1,64
360,240,201690,2,0,L|428:256,1,64
100,240,202095,2,0,L|27:227,1,64
292,192,202501,21,4,0:2:0:0:
306,175,202601,21,0,0:0:0:0:
324,162,202703,1,0,0:0:0:0:
345,155,202805,1,0,0:0:0:0:
366,151,202906,1,0,0:0:0:0:
389,153,203007,1,0,0:0:0:0:
409,160,203109,1,0,0:0:0:0:
426,173,203210,1,0,0:0:0:0:
440,189,203311,2,0,P|448:205|452:220,7,32
456,240,204122,21,4,0:2:0:0:
454,262,204224,21,0,0:0:0:0:
447,283,204325,1,0,0:0:0:0:
435,301,204426,1,0,0:0:0:0:
418,316,204528,1,0,0:0:0:0:
399,328,204629,1,0,0:0:0:0:
377,335,204730,1,0,0:0:0:0:
354,335,204832,1,0,0:0:0:0:
332,330,204933,2,0,P|313:325|298:314,7,32
287,302,205743,21,4,0:2:0:0:
275,282,205845,21,0,0:0:0:0:
262,263,205946,1,0,0:0:0:0:
248,245,206047,1,0,0:0:0:0:
229,231,206149,1,0,0:0:0:0:
208,221,206250,1,0,0:0:0:0:
185,218,206352,1,0,0:0:0:0:
162,220,206453,1,0,0:0:0:0:
143,232,206554,21,4,0:2:0:0:
126,246,206656,21,0,0:0:0:0:
117,266,206757,1,0,0:0:0:0:
113,287,206858,1,0,0:0:0:0:
117,309,206960,1,0,0:0:0:0:
127,328,207061,1,0,0:0:0:0:
144,342,207162,1,0,0:0:0:0:
164,351,207264,1,0,0:0:0:0:
186,351,207365,21,4,0:2:0:0:
207,346,207467,21,0,0:0:0:0:
224,332,207568,1,0,0:0:0:0:
238,314,207669,1,0,0:0:0:0:
247,293,207770,1,0,0:0:0:0:
254,271,207872,1,0,0:0:0:0:
257,249,207973,1,0,0:0:0:0:
260,228,208075,1,0,0:0:0:0:
260,204,208176,22,0,L|252:164,1,32,6|0,0:0|0:0,0:0:0:0:
348,132,208379,2,0,L|348:96,1,32,6|0,0:0|0:0,0:0:0:0:
448,104,208581,21,0,1:0:0:0:
448,104,208683,1,6,1:2:0:0:
444,244,208885,1,2,1:2:0:0:
444,244,208987,22,0,P|440:292|419:325,1,88.000002685547,4|0,0:0|0:0,0:0:0:0:
404,340,209291,1,0,0:0:0:0:
384,352,209392,2,0,P|344:360|298:351,1,88.000002685547,8|0,0:0|0:0,0:0:0:0:
152,200,209798,2,0,P|116:228|100:266,1,88.000002685547
248,280,210203,1,8,0:0:0:0:
328,179,210406,2,0,P|324:136|302:98,1,88.000002685547
160,336,210811,5,0,0:0:0:0:
160,336,210913,1,0,0:0:0:0:
160,336,211014,2,0,P|206:334|248:324,1,88.000002685547,8|0,0:0|0:0,0:0:0:0:
88,164,211419,2,0,P|43:165|0:176,1,88.000002685547
144,40,211824,1,8,0:0:0:0:
200,216,212028,2,0,P|288:224|374:192,1,176.000005371094,0|2,0:0|0:2,0:0:0:0:
396,176,212534,1,0,0:0:0:0:
396,176,212636,1,8,0:0:0:0:
460,72,212838,5,0,0:0:0:0:
500,224,213041,2,0,P|503:267|492:310,1,88.000002685547
360,328,213447,1,8,0:0:0:0:
252,252,213649,1,0,0:0:0:0:
120,256,213852,6,0,L|32:264,1,88.000002685547
288,172,214257,2,0,L|388:176,1,88.000002685547,8|0,0:0|0:0,0:0:0:0:
148,68,214662,2,0,L|20:72,1,128,0|8,0:0|0:0,0:0:0:0:
140,296,215270,1,0,0:0:0:0:
140,296,215473,6,0,P|164:260|172:216,1,88.000002685547
296,364,215879,2,0,P|284:332|279:278,1,88.000002685547,8|0,0:0|0:0,0:0:0:0:
312,119,216284,2,0,P|336:83|370:56,1,88.000002685547
195,88,216689,2,0,P|159:112|116:120,1,88.000002685547,8|0,0:0|0:0,0:0:0:0:
296,304,217095,5,0,0:0:0:0:
400,144,217298,2,0,P|400:124|403:100,2,44.0000013427735,0|0|8,0:0|0:0|0:0,0:0:0:0:
412,320,217703,1,0,0:0:0:0:
294,200,217906,1,0,0:0:0:0:
272,188,218007,2,0,P|233:177|186:185,1,88.000002685547,0|0,0:0|0:0,0:0:0:0:
164,200,218311,2,0,L|152:288,1,88.000002685547,8|0,0:0|0:0,0:0:0:0:
48,176,218716,6,0,L|48:88,1,88.000002685547
180,288,219122,2,0,P|225:283|262:264,1,88.000002685547,8|0,0:0|0:0,0:0:0:0:
352,164,219527,1,0,0:0:0:0:
424,276,219730,1,0,0:0:0:0:
384,52,219933,2,0,P|340:48|298:60,1,88.000002685547,8|0,0:0|0:0,0:0:0:0:
424,276,220338,6,0,P|463:295|506:298,1,88.000002685547
324,324,220743,1,8,0:0:0:0:
248,196,220946,1,0,0:0:0:0:
180,324,221149,1,0,0:0:0:0:
324,324,221352,1,4,0:2:0:0:
352,128,221554,1,0,0:0:0:0:
352,128,221656,1,4,0:2:0:0:
68,72,221858,1,0,0:2:0:0:
68,72,221960,6,0,L|56:168,1,88.000002685547,4|0,0:0|0:0,0:0:0:0:
104,304,222365,2,0,P|152:316|189:309,1,88.000002685547,8|0,0:0|0:0,0:0:0:0:
360,244,222771,2,0,P|397:276|412:310,1,88.000002685547,0|0,0:0|0:0,0:0:0:0:
240,196,223176,1,8,0:0:0:0:
240,196,223379,2,0,P|220:120|232:24,1,176.000005371094
352,44,223987,5,8,0:0:0:0:
324,164,224189,1,0,0:0:0:0:
416,248,224392,2,0,P|455:257|503:259,1,88.000002685547
468,48,224797,1,8,0:0:0:0:
467,48,225000,2,0,P|455:90|455:133,1,88.000002685547
440,312,225406,5,0,0:0:0:0:
440,312,225507,1,0,0:0:0:0:
440,312,225608,2,0,P|400:304|358:281,1,88.000002685547,8|0,0:0|0:0,0:0:0:0:
224,128,226014,1,0,0:0:0:0:
92,180,226216,1,0,0:0:0:0:
140,312,226419,1,8,0:0:0:0:
272,260,226621,1,0,0:0:0:0:
92,224,226825,6,0,P|54:238|12:266,1,88.000002685547
208,136,227230,2,0,P|196:98|166:56,1,88.000002685547,8|0,0:0|0:0,0:0:0:0:
288,252,227635,2,0,P|351:239|403:203,1,128,0|8,0:0|0:0,0:0:0:0:
280,68,228243,1,0,0:0:0:0:
156,268,228446,6,0,L|148:360,1,88.000002685547
288,252,228852,2,0,L|296:160,1,88.000002685547,8|0,0:0|0:0,0:0:0:0:
40,200,229257,1,0,0:0:0:0:
156,268,229460,1,0,0:0:0:0:
288,252,229662,1,8,0:0:0:0:
416,280,229865,1,0,0:0:0:0:
456,96,230068,6,0,L|476:48,2,44.0000013427735
288,252,230473,2,0,L|280:300,2,44.0000013427735,8|0|0,0:0|0:0|0:0,0:0:0:0:
144,52,230879,2,0,L|120:8,2,44.0000013427735
148,76,231183,1,0,0:0:0:0:
152,96,231284,1,8,0:0:0:0:
156,116,231385,1,0,0:0:0:0:
160,136,231487,1,0,0:0:0:0:
144,328,231689,21,4,0:0:0:0:
32,260,231892,1,0,0:0:0:0:
212,232,232095,1,8,0:0:0:0:
0,136,232297,1,0,0:0:0:0:
232,104,232500,2,0,P|280:100|328:108,1,88.000002685547,4|0,0:2|0:0,0:0:0:0:
118,253,232906,2,0,P|74:263|32:260,1,88.000002685547,8|0,0:0|0:0,0:0:0:0:
396,248,233311,38,0,P|447:286|480:340,1,128,4|8,0:0|0:0,0:0:0:0:
260,296,234122,1,4,0:2:0:0:
260,296,234325,2,0,L|252:232,1,64,4|0,0:2|0:0,0:0:0:0:
160,192,234629,2,0,L|168:256,1,64,4|0,0:2|0:0,0:0:0:0:
240,144,234933,22,0,P|228:104|232:44,1,88.000002685547,4|0,0:0|0:0,0:0:0:0:
252,52,235237,1,0,0:0:0:0:
272,48,235338,1,8,0:0:0:0:
392,144,235541,1,0,0:0:0:0:
160,192,235744,2,0,P|144:152|136:104,1,88.000002685547
360,256,236149,1,8,0:0:0:0:
146,283,236352,2,0,P|68:249|32:170,1,176.000005371094
273,92,236960,6,0,P|292:132|296:176,1,88.000002685547,8|0,0:0|0:0,0:0:0:0:
396,280,237365,2,0,L|483:287,1,88.000002685547
384,108,237770,1,8,0:0:0:0:
184,160,237973,2,0,L|96:152,1,88.000002685547
216,52,238379,5,0,0:0:0:0:
216,52,238480,1,0,0:0:0:0:
216,52,238581,1,8,0:0:0:0:
296,176,238784,1,0,0:0:0:0:
260,320,238987,2,0,P|224:340|178:348,1,88.000002685547
356,256,239392,2,0,P|396:262|438:283,1,88.000002685547,8|0,0:0|0:0,0:0:0:0:
240,200,239798,6,0,L|232:112,1,88.000002685547
356,196,240203,1,8,0:0:0:0:
244,284,240406,1,0,0:0:0:0:
112,204,240608,2,0,L|80:80,1,128,0|8,0:0|0:0,0:0:0:0:
216,20,241216,1,0,0:0:0:0:
364,52,241419,6,0,P|386:89|396:132,1,88.000002685547
396,164,241723,1,0,0:0:0:0:
396,164,241824,1,8,0:0:0:0:
220,208,242027,1,0,0:0:0:0:
184,32,242230,2,0,L|271:42,1,88.000002685547
220,208,242635,2,0,P|186:238|147:255,1,88.000002685547,8|0,0:0|0:0,0:0:0:0:
319,145,243041,6,0,P|322:190|312:232,1,88.000002685547
176,340,243446,1,8,0:0:0:0:
176,208,243649,1,0,0:0:0:0:
312,232,243852,2,0,P|374:250|440:244,1,132.00000402832
468,256,244257,2,0,P|480:304|472:344,1,88.000002685547,8|0,0:0|0:0,0:0:0:0:
252,352,244662,6,0,P|240:312|248:268,1,88.000002685547
116,64,245068,1,8,0:0:0:0:
116,64,245271,1,0,0:0:0:0:
128,164,245474,2,0,P|168:150|201:120,1,88.000002685547
314,83,245879,2,0,P|350:107|376:144,1,88.000002685547,8|0,0:0|0:0,0:0:0:0:
444,368,246284,6,0,P|444:328|452:276,1,88.000002685547
508,160,246689,1,8,0:0:0:0:
376,144,246892,1,0,0:0:0:0:
244,128,247095,1,0,0:0:0:0:
112,112,247298,2,0,L|100:208,1,88.000002685547,4|0,0:2|0:0,0:0:0:0:
126,224,247602,2,0,L|114:320,1,88.000002685547,4|0,0:2|0:0,0:0:0:0:
92,336,247906,6,0,P|50:350|7:348,1,88.000002685547,4|0,0:0|0:0,0:0:0:0:
248,264,248311,1,8,0:0:0:0:
380,324,248514,1,0,0:0:0:0:
492,232,248716,2,0,P|476:192|440:160,1,88.000002685547
300,164,249122,1,8,0:0:0:0:
376,36,249325,2,0,L|464:40,1,88.000002685547
336,224,249730,5,0,0:0:0:0:
336,224,249831,1,0,0:0:0:0:
336,224,249933,2,0,L|248:220,1,88.000002685547,8|0,0:0|0:0,0:0:0:0:
96,244,250338,2,0,P|68:276|52:320,1,88.000002685547
192,356,250743,1,8,0:0:0:0:
248,220,250946,2,0,L|259:132,1,88.000002685547,0|0,0:0|0:0,0:0:0:0:
128,56,251352,5,0,0:0:0:0:
128,56,251453,1,0,0:0:0:0:
128,56,251554,2,0,L|117:143,1,88.000002685547,8|0,0:0|0:0,0:0:0:0:
327,182,251960,2,0,P|297:150|258:132,1,88.000002685547
189,269,252365,2,0,P|183:313|192:356,1,88.000002685547,8|0,0:0|0:0,0:0:0:0:
87,180,252771,6,0,P|44:178|0:188,1,88.000002685547
108,324,253176,1,8,0:0:0:0:
108,324,253379,1,0,0:0:0:0:
240,204,253581,2,0,P|246:140|228:80,1,128,0|8,0:0|0:0,0:0:0:0:
400,112,254190,1,0,0:0:0:0:
360,256,254392,6,0,P|340:296|337:341,1,88.000002685547
216,184,254798,2,0,P|236:228|236:268,1,88.000002685547,8|0,0:0|0:0,0:0:0:0:
464,200,255203,1,0,0:0:0:0:
424,316,255406,1,0,0:0:0:0:
284,152,255608,1,8,0:0:0:0:
312,320,255811,1,0,0:0:0:0:
144,248,256014,6,0,P|100:252|52:228,1,88.000002685547
40,220,256318,1,0,0:0:0:0:
28,196,256419,2,0,P|23:147|37:111,1,88.000002685547,8|0,0:0|0:0,0:0:0:0:
200,40,256824,1,0,0:0:0:0:
200,40,256925,1,0,0:0:0:0:
260,224,257129,1,0,0:0:0:0:
260,225,257230,2,0,L|248:312,1,88.000002685547,8|0,0:0|0:0,0:0:0:0:
392,216,257635,22,0,L|404:128,1,88.000002685547,4|0,0:0|0:0,0:0:0:0:
240,120,258041,1,8,0:0:0:0:
240,120,258243,1,0,0:0:0:0:
308,324,258446,2,0,P|348:336|396:336,1,88.000002685547,4|0,0:2|0:0,0:0:0:0:
112,268,258852,2,0,P|72:256|24:256,1,88.000002685547,4|0,0:0|0:0,0:0:0:0:
240,120,259257,38,0,P|252:80|256:28,1,88.000002685547,4|0,0:2|0:0,0:0:0:0:
308,324,259662,1,8,0:0:0:0:
308,324,260068,2,0,L|312:268,1,44.0000013427735,6|0,0:2|2:0,0:0:0:0:
236,224,260270,2,0,L|232:272,1,44.0000013427735,4|0,0:2|2:0,0:0:0:0:
320,200,260473,1,0,0:0:0:0:
323,172,260574,1,4,0:2:0:0:
152,88,260777,1,0,0:0:0:0:
155,60,260879,21,4,0:0:0:0:
