osu file format v14

[General]
AudioFilename: asdf.mp3
AudioLeadIn: 0
PreviewTime: 66284
Countdown: 0
SampleSet: Soft
StackLeniency: 0.7
Mode: 0
LetterboxInBreaks: 0
WidescreenStoryboard: 1

[Editor]
DistanceSpacing: 0.7
BeatDivisor: 4
GridSize: 4
TimelineZoom: 0.6999999

[Metadata]
Title:Sadistic Paranoia
TitleUnicode:Sadistic Paranoia
Artist:EastNewSound
ArtistUnicode:EastNewSound
Creator:TicClick
Version:Easy Collab
Source:東方Project
Tags:Touhou 東方地霊殿 Chireiden Subterranean Animism Satori Maiden ~ 3rd eye Satori Komeiji Tsubaki Kokucho Split Theory c79 ZUN Vass_Bass Reiji-RJ Rotten yellow
BeatmapID:615505
BeatmapSetID:100931

[Difficulty]
HPDrainRate:3
CircleSize:3
OverallDifficulty:3
ApproachRate:3
SliderMultiplier:0.9
SliderTickRate:1

[Events]
//Background and Video events
0,0,"asdf.jpg",0,0
//Break Periods
2,95674,100520
2,118376,129709
2,170268,181601
//Storyboard Layer 0 (Background)
//Storyboard Layer 1 (Fail)
//Storyboard Layer 2 (Pass)
//Storyboard Layer 3 (Foreground)
Sprite,Foreground,Centre,"SB/glow.png",320,240 T,HitSound,189427,189629 M,0,0,,152,360 F,0,0,101,0,1 S,0,0,101,0.2,0.6 C,0,0,808,209,46,95 F,0,101,808,1,0
Sprite,Foreground,Centre,"SB/glow.png",320,240 T,HitSound,191048,191250 M,0,0,,152,164 F,0,0,101,0,1 S,0,0,101,0.2,0.6 C,0,0,808,209,46,95 F,0,101,808,1,0
Sprite,Foreground,Centre,"SB/glow.png",320,240 T,HitSound,192670,192872 M,0,0,,348,160 F,0,0,101,0,1 S,0,0,101,0.2,0.6 C,0,0,808,252,103,140 F,0,101,808,1,0
Sprite,Foreground,Centre,"SB/glow.png",320,240 T,HitSound,193481,193683 M,0,0,,472,196 F,0,0,101,0,1 S,0,0,101,0.2,0.6 C,0,0,808,252,103,140 F,0,101,808,1,0
Sprite,Foreground,Centre,"SB/glow.png",320,240 T,HitSound,194291,194493 M,0,0,,472,324 F,0,0,101,0,1 S,0,0,101,0.2,0.6 C,0,0,808,209,46,95 F,0,101,808,1,0
Sprite,Foreground,Centre,"SB/glow.png",320,240 T,HitSound,195102,195304 M,0,0,,344,364 F,0,0,101,0,1 S,0,0,101,0.2,0.6 C,0,0,808,209,46,95 F,0,101,808,1,0
Sprite,Foreground,Centre,"SB/glow.png",320,240 T,HitSound,195508,195710 M,0,0,,296,341 F,0,0,101,0,1 S,0,0,101,0.2,0.6 C,0,0,808,209,46,95 F,0,101,808,1,0
Sprite,Foreground,Centre,"SB/glow.png",320,240 T,HitSound,195913,196115 M,0,0,,216,344 F,0,0,101,0,1 S,0,0,101,0.2,0.7 C,0,0,808,82,117,188 F,0,101,808,1,0
Sprite,Foreground,Centre,"SB/glow.png",320,240 T,HitSound,202400,202602 M,0,0,,380,292 F,0,0,101,0,1 S,0,0,101,0.2,0.6 C,0,0,808,82,117,188 F,0,101,808,1,0
Sprite,Foreground,Centre,"SB/glow.png",320,240 T,HitSound,204021,204223 M,0,0,,184,352 F,0,0,101,0,1 S,0,0,101,0.2,0.6 C,0,0,808,82,117,188 F,0,101,808,1,0
Sprite,Foreground,Centre,"SB/glow.png",320,240 T,HitSound,205643,205845 M,0,0,,220,152 F,0,0,101,0,1 S,0,0,101,0.2,0.6 C,0,0,808,86,180,231 F,0,101,808,1,0
Sprite,Foreground,Centre,"SB/glow.png",320,240 T,HitSound,206454,206656 M,0,0,,376,124 F,0,0,101,0,1 S,0,0,101,0.2,0.6 C,0,0,808,86,180,231 F,0,101,808,1,0
Sprite,Foreground,Centre,"SB/glow.png",320,240 T,HitSound,207264,207466 M,0,0,,412,276 F,0,0,101,0,1 S,0,0,101,0.2,0.6 C,0,0,808,82,117,188 F,0,101,808,1,0
Sprite,Foreground,Centre,"SB/glow.png",320,240 T,HitSound,208075,208277 M,0,0,,260,320 F,0,0,101,0,1 S,0,0,101,0.2,0.6 C,0,0,808,82,117,188 F,0,101,808,1,0
Sprite,Foreground,Centre,"SB/glow.png",320,240 T,HitSound,208278,208480 M,0,0,,254,355 F,0,0,101,0,1 S,0,0,101,0.2,0.6 C,0,0,808,82,117,188 F,0,101,808,1,0
Sprite,Foreground,Centre,"SB/glow.png",320,240 T,HitSound,208480,208683 M,0,0,,260,320 F,0,0,101,0,1 S,0,0,101,0.2,0.6 C,0,0,808,82,117,188 F,0,101,808,1,0
Sprite,Foreground,Centre,"SB/glow.png",320,240 T,HitSound,208886,209088 M,0,0,,204,248 F,0,0,101,0,1 S,0,0,101,0.2,0.85 C,0,0,808,209,46,95 F,0,101,808,1,0
//Storyboard Sound Samples

[TimingPoints]
1420,405.405405405405,4,1,0,60,1,0
2027,-125,4,2,0,50,0,0
13379,-100,4,2,0,50,0,0
14291,-100,4,1,0,70,0,0
14494,-100,4,1,0,45,0,0
24021,-100,4,1,0,55,0,0
27264,-100,4,1,0,70,0,0
27467,-100,4,1,0,45,0,0
40237,-100,4,1,0,60,0,0
40440,-100,4,1,0,45,0,0
49967,-100,4,1,0,60,0,0
50169,-100,4,1,0,45,0,0
53210,-100,4,1,0,60,0,0
53413,-100,4,1,0,45,0,0
62940,-100,4,1,0,60,0,0
63142,-100,4,1,0,45,0,0
64561,-100,4,1,0,60,0,0
66284,-100,4,1,0,70,0,1
66386,-100,4,1,0,45,0,0
79156,-100,4,1,0,70,0,0
79358,-100,4,1,0,45,0,0
88886,-100,4,1,0,60,0,0
90507,-100,4,1,0,70,0,0
90710,-100,4,1,0,60,0,0
92230,-100,4,1,0,70,0,1
92332,-100,4,1,0,55,0,0
93852,-100,4,2,0,40,0,0
94663,-100,4,2,0,30,0,0
95474,-100,4,2,0,20,0,0
101757,-100,4,2,0,45,0,0
105102,-100,4,1,0,70,0,0
105304,-100,4,1,0,45,0,0
118075,-100,4,1,0,60,0,0
131250,-100,4,1,0,45,0,0
144021,-100,4,1,0,60,0,0
144223,-100,4,1,0,45,0,0
153751,-100,4,1,0,60,0,0
153953,-100,4,1,0,45,0,0
155372,-100,4,1,0,60,0,0
157196,-125,4,2,0,45,0,0
169967,-125,4,1,0,60,0,0
182939,-166.666666666667,4,1,0,60,0,0
183142,-166.666666666667,4,2,0,45,0,0
189426,-166.666666666667,4,2,0,60,0,0
195913,-125,4,1,0,70,0,0
196115,-125,4,1,0,45,0,0
202399,-125,4,2,0,60,0,0
208987,-100,4,1,0,70,0,1
209088,-100,4,1,0,45,0,1
221859,-100,4,1,0,70,0,0
221960,-100,4,1,0,70,0,1
222061,-100,4,1,0,45,0,1
231690,-100,4,1,0,60,0,0
233211,-100,4,1,0,70,0,0
233413,-100,4,1,0,60,0,0
234933,-100,4,1,0,70,0,1
235034,-100,4,1,0,45,0,1
247805,-100,4,1,0,70,0,0
247906,-100,4,1,0,70,0,1
248007,-100,4,1,0,45,0,1
257636,-100,4,1,0,60,0,0
259156,-100,4,1,0,70,0,0
259359,-100,4,1,0,60,0,0
260879,-100,4,1,0,70,0,1
260980,-100,4,1,0,70,0,0

[Colours]
Combo1 : 252,103,140
Combo2 : 82,117,188
Combo3 : 86,180,231
Combo4 : 209,46,95

[HitObjects]
256,340,1420,37,4,0:0:0:0:
368,188,2230,2,0,L|372:116,1,72,2|0,0:0|0:0,0:0:0:0:
284,80,3041,2,0,L|280:151,1,72,2|0,0:0|0:0,0:0:0:0:
192,184,3852,2,0,L|196:104,1,72,2|0,0:0|0:0,0:0:0:0:
204,20,4663,5,2,0:0:0:0:
392,28,5474,1,2,0:0:0:0:
420,212,6284,2,0,P|378:267|309:272,1,144,2|2,0:0|0:0,0:0:0:0:
216,244,7501,1,2,0:0:0:0:
124,268,7906,37,4,1:0:0:0:
284,364,8717,1,4,1:0:0:0:
460,304,9528,1,4,1:0:0:0:
476,212,9933,1,4,1:0:0:0:
488,120,10338,1,4,1:0:0:0:
308,68,11149,6,0,L|232:72,1,72,4|4,0:0|0:0,0:0:0:0:
143,80,11960,2,0,P|128:112|126:148,1,72,4|4,0:0|0:0,0:0:0:0:
200,204,12771,2,0,P|204:239|194:273,1,72,4|0,0:0|0:0,0:0:0:0:
104,312,13582,2,0,P|83:320|60:340,2,45,4|4|0,0:0|0:0|0:0,0:0:0:0:
188,368,14392,38,0,P|232:371|276:360,1,90,4|8,0:0|0:0,0:0:0:0:
356,300,15203,1,0,0:0:0:0:
344,200,15609,1,8,0:0:0:0:
392,112,16014,1,0,0:0:0:0:
332,32,16419,1,8,0:0:0:0:
238,63,16825,2,0,P|196:76|151:72,1,90,0|8,0:0|0:0,0:0:0:0:
52,88,17636,6,0,P|37:130|37:174,2,90,0|8|0,0:0|0:0|0:0,0:0:0:0:
152,72,18852,1,8,0:0:0:0:
236,124,19257,2,0,P|236:168|219:210,1,90,0|8,0:0|0:0,0:0:0:0:
124,240,20068,1,0,0:0:0:0:
124,340,20474,1,8,0:0:0:0:
220,360,20879,38,0,P|304:368|397:344,1,180
444,260,22095,1,8,0:0:0:0:
344,260,22501,2,0,P|299:254|261:230,2,90,0|8|0,0:0|0:0|0:0,0:0:0:0:
396,176,23717,1,8,0:0:0:0:
368,80,24122,6,0,P|323:74|279:82,1,90,4|8,0:2|0:1,0:0:0:0:
192,131,24933,2,0,P|147:127|107:107,1,90,4|8,0:2|0:1,0:0:0:0:
12,135,25744,2,0,P|-7:199|8:264,1,135,4|4,0:2|0:2,0:0:0:0:
76,336,26757,1,4,0:2:0:0:
224,360,27365,37,4,0:0:0:0:
264,168,28176,2,0,P|304:156|360:160,2,90,0|8|0,0:0|0:0|0:0,0:0:0:0:
188,232,29392,1,8,0:0:0:0:
140,146,29798,2,0,P|157:105|186:71,1,90,0|8,0:0|0:0,0:0:0:0:
280,40,30609,5,0,0:0:0:0:
376,64,31014,1,8,0:0:0:0:
440,140,31419,1,0,0:0:0:0:
448,240,31825,1,8,0:0:0:0:
396,328,32230,2,0,P|356:332|306:331,1,90,0|8,0:0|0:0,0:0:0:0:
206,331,33041,2,0,P|161:331|116:327,1,90,0|8,0:0|0:0,0:0:0:0:
52,252,33852,38,0,P|80:176|168:140,1,180,0|0,0:0|0:0,0:0:0:0:
252,188,35068,1,8,0:0:0:0:
344,148,35474,2,0,P|354:104|348:56,1,90,0|8,0:0|0:0,0:0:0:0:
264,8,36284,1,0,0:0:0:0:
172,48,36690,1,8,0:0:0:0:
168,148,37095,6,0,P|134:176|89:184,1,90,0|8,0:0|0:0,0:0:0:0:
16,248,37906,2,0,P|22:291|48:327,1,90,0|8,0:0|0:0,0:0:0:0:
144,360,38717,1,0,0:0:0:0:
256,196,39528,1,0,0:0:0:0:
340,140,39933,1,4,1:2:0:0:
440,152,40338,38,0,P|491:222|477:309,1,180,4|0,0:0|0:0,0:0:0:0:
384,348,41555,1,8,0:0:0:0:
304,292,41960,2,0,P|260:279|216:277,1,90,0|8,0:0|0:0,0:0:0:0:
120,308,42771,2,0,P|107:264|106:220,1,90,0|10,0:0|0:0,0:0:0:0:
200,188,43582,6,0,P|202:100|156:20,1,180,0|0,0:0|0:0,0:0:0:0:
60,28,44798,1,8,0:0:0:0:
16,116,45203,2,0,P|33:156|63:189,1,90,0|8,0:0|0:0,0:0:0:0:
148,240,46014,2,0,P|189:255|235:259,1,90,0|8,0:0|0:0,0:0:0:0:
324,216,46825,37,0,0:0:0:0:
408,164,47230,1,8,0:0:0:0:
496,204,47636,1,2,0:2:0:0:
504,304,48041,1,8,0:0:0:0:
420,356,48447,1,0,0:0:0:0:
328,316,48852,2,0,P|307:322|280:324,2,45,8|2|2,0:0|1:2|1:2,0:0:0:0:
412,260,49663,1,10,0:0:0:0:
324,216,50068,6,0,P|228:216|144:192,1,180
328,128,51690,2,0,P|288:120|239:85,1,90,2|8,0:2|0:0,0:0:0:0:
180,20,52501,1,0,0:0:0:0:
88,60,52906,1,2,0:0:0:0:
108,160,53311,38,0,P|100:208|108:252,1,90,4|8,0:0|0:0,0:0:0:0:
192,300,54122,1,0,0:0:0:0:
284,268,54528,1,8,0:0:0:0:
376,308,54933,2,0,P|376:224|292:168,1,180,0|0,0:0|0:0,0:0:0:0:
208,152,56149,1,10,0:0:0:0:
247,64,56555,6,0,P|292:63|340:76,1,90,0|8,0:0|0:0,0:0:0:0:
420,124,57365,2,0,P|452:160|468:200,1,90,0|8,0:0|0:0,0:0:0:0:
472,296,58176,1,0,0:0:0:0:
400,364,58582,2,0,L|308:352,1,90,8|0,0:0|0:0,0:0:0:0:
256,268,59392,1,8,0:0:0:0:
201,352,59798,38,0,L|112:364,1,90,0|8,0:0|0:0,0:0:0:0:
84,268,60609,2,0,L|176:256,1,90,0|8,0:0|0:0,0:0:0:0:
256,204,61419,1,0,0:0:0:0:
340,256,61825,2,0,L|340:308,2,45,8|0|2,0:0|0:0|0:2,0:0:0:0:
376,164,62636,1,2,0:0:0:0:
327,75,63041,6,0,P|285:60|241:59,1,90,4|8,0:2|0:0,0:0:0:0:
104,124,64055,2,0,P|104:148|100:170,1,45,4|8,1:2|0:0,0:0:0:0:
44,248,64663,37,4,0:0:0:0:
425,340,66284,22,0,P|437:296|434:252,1,90,4|8,0:0|0:0,0:0:0:0:
352,196,67095,1,0,0:0:0:0:
256,216,67501,1,8,0:0:0:0:
160,196,67906,1,0,0:0:0:0:
80,252,68311,2,0,P|72:296|80:339,2,90,8|0|8,0:0|0:0|0:0,0:0:0:0:
160,196,69528,5,0,0:0:0:0:
144,96,69933,1,8,0:0:0:0:
244,80,70338,1,0,0:0:0:0:
260,180,70743,1,8,0:0:0:0:
312,264,71149,2,0,P|356:257|398:240,1,90,0|8,0:0|0:0,0:0:0:0:
398,144,71960,2,0,P|360:128|312:120,1,90,0|8,0:0|0:0,0:0:0:0:
212,108,72771,37,0,0:0:0:0:
196,204,73176,1,8,0:0:0:0:
179,300,73582,2,0,P|135:303|92:290,1,90,0|8,0:0|0:0,0:0:0:0:
56,200,74392,1,0,0:0:0:0:
128,128,74798,2,0,L|120:32,2,90,8|0|8,0:0|0:0|0:0,0:0:0:0:
196,204,76014,6,0,P|236:222|281:224,1,90,0|8,0:0|0:0,0:0:0:0:
376,255,76825,2,0,P|400:218|408:174,1,90,0|8,0:0|0:0,0:0:0:0:
455,87,77636,2,0,P|418:63|375:52,1,90,0|8,0:0|0:0,0:0:0:0:
284,96,78447,1,0,0:0:0:0:
196,52,78852,1,4,1:2:0:0:
96,60,79257,38,0,P|84:103|83:148,1,90,4|8,0:0|0:0,0:0:0:0:
160,212,80068,2,0,P|203:203|252:204,1,90,0|8,0:0|0:0,0:0:0:0:
308,284,80879,1,0,0:0:0:0:
404,264,81284,1,8,0:0:0:0:
420,167,81690,2,0,P|424:123|420:78,1,90,0|8,0:0|0:0,0:0:0:0:
324,52,82501,5,0,0:0:0:0:
239,104,82906,2,0,P|195:111|151:107,1,90,8|0,0:0|0:0,0:0:0:0:
52,80,83717,1,8,0:0:0:0:
63,180,84122,2,0,P|60:224|62:269,2,90,0|8|0,0:0|0:0|0:0,0:0:0:0:
144,124,85338,1,8,0:0:0:0:
232,168,85744,37,0,0:0:0:0:
244,68,86149,1,8,0:0:0:0:
344,80,86555,2,0,L|436:88,1,90,0|8,0:0|0:0,0:0:0:0:
456,184,87365,2,0,L|366:176,1,90,0|8,0:0|0:0,0:0:0:0:
268,168,88176,1,0,0:0:0:0:
168,160,88582,1,8,0:0:0:0:
68,152,88987,5,4,0:0:0:0:
136,336,89798,1,4,0:2:0:0:
228,304,90203,1,4,0:2:0:0:
320,272,90609,38,0,P|320:220|316:176,1,90,4|0,0:0|0:0,0:0:0:0:
224,144,91419,2,0,P|196:148|176:148,2,45,4|4|0,0:2|0:2|0:0,0:0:0:0:
292,72,92230,5,4,0:1:0:0:
256,192,92433,12,0,95474,0:0:0:0:
40,128,101960,37,4,0:2:0:0:
16,324,102771,1,4,0:2:0:0:
172,200,103582,2,0,P|167:175|156:148,2,45,4|0|0,0:2|0:0|0:0,0:0:0:0:
264,236,104392,2,0,P|308:236|353:246,1,90,0|0,1:0|0:0,0:0:0:0:
428,312,105203,5,4,0:0:0:0:
328,144,106014,2,0,P|284:148|236:144,1,90,0|8,0:0|0:0,0:0:0:0:
148,104,106825,2,0,P|136:152|144:192,1,90,0|8,0:0|0:0,0:0:0:0:
192,280,107636,1,0,0:0:0:0:
248,196,108041,1,8,0:0:0:0:
304,276,108447,38,0,L|396:272,1,90,0|8,0:0|0:0,0:0:0:0:
440,184,109257,2,0,L|348:188,1,90,0|8,0:0|0:0,0:0:0:0:
248,196,110068,2,0,P|160:152|168:68,1,180,0|2,0:0|0:2,0:0:0:0:
256,56,111284,1,8,0:0:0:0:
348,96,111690,5,0,0:0:0:0:
448,96,112095,1,8,0:0:0:0:
472,192,112501,2,0,P|451:231|417:261,1,90,0|8,0:0|0:0,0:0:0:0:
324,236,113311,1,0,0:0:0:0:
232,268,113717,1,8,0:0:0:0:
180,352,114122,2,0,P|137:336|101:310,1,90,0|8,0:0|0:0,0:0:0:0:
44,228,114933,38,0,P|27:139|43:51,1,180
136,20,116149,1,8,0:0:0:0:
216,80,116555,2,0,P|264:84|308:80,1,90,0|8,0:0|0:0,0:0:0:0:
400,56,117365,1,0,0:0:0:0:
440,148,117771,2,0,P|440:170|435:192,2,45,4|4|4,0:2|0:2|0:0,0:0:0:0:
200,120,131149,6,0,P|236:145|280:152,1,90,4|8,0:0|0:0,0:0:0:0:
380,152,131960,2,0,P|399:192|399:236,1,90,0|8,0:0|0:0,0:0:0:0:
308,272,132771,1,0,0:0:0:0:
212,244,133176,1,8,0:0:0:0:
116,259,133582,2,0,P|96:271|82:288,2,45,0|2|10,0:0|0:0|0:0,0:0:0:0:
156,172,134392,38,0,L|164:80,1,90,0|8,0:0|0:0,0:0:0:0:
252,36,135203,1,0,0:0:0:0:
324,104,135609,2,0,L|316:200,1,90,8|0,0:0|0:0,0:0:0:0:
291,288,136419,2,0,P|211:319|141:270,1,180,8|8,0:0|0:0,0:0:0:0:
120,175,137636,6,0,P|119:131|109:87,2,90,0|8|2,0:0|0:0|0:2,0:0:0:0:
84,268,138852,1,8,0:0:0:0:
164,328,139257,1,0,0:0:0:0:
240,264,139663,1,8,0:0:0:0:
260,168,140068,2,0,P|302:155|348:168,1,90,2|2,0:2|0:0,0:0:0:0:
436,204,140879,38,0,L|465:118,1,90,0|8,0:0|0:0,0:0:0:0:
392,52,141690,2,0,P|351:31|307:27,1,90,0|8,0:0|0:0,0:0:0:0:
216,68,142501,1,2,2:0:0:0:
120,48,142906,1,8,0:0:0:0:
24,68,143311,2,0,L|4:8,2,45,0|2|8,0:0|0:0|0:0,0:0:0:0:
72,156,144122,6,0,P|112:135|162:128,1,90,4|8,0:0|0:0,0:0:0:0:
212,212,144933,2,0,P|251:233|295:240,1,90,0|8,0:0|0:0,0:0:0:0:
392,228,145744,1,0,0:0:0:0:
440,144,146149,1,8,0:0:0:0:
424,48,146555,2,0,P|429:26|439:6,2,45,0|2|10,0:0|0:0|0:0,0:0:0:0:
347,112,147365,38,0,P|305:124|261:113,1,90,0|8,0:0|0:0,0:0:0:0:
168,84,148176,2,0,P|148:124|152:172,1,90,0|8,0:0|0:0,0:0:0:0:
192,256,148987,1,0,0:0:0:0:
292,276,149392,2,0,L|388:264,1,90,8|0,0:0|0:0,0:0:0:0:
448,192,150203,1,8,0:0:0:0:
380,120,150609,6,0,L|280:108,1,90,2|8,0:0|0:0,0:0:0:0:
216,172,151419,2,0,P|208:224|212:264,1,90,2|8,0:2|0:0,0:0:0:0:
228,360,152230,2,0,L|136:348,1,90,0|8,0:0|0:0,0:0:0:0:
64,284,153041,2,0,P|58:232|64:192,1,90,2|10,0:2|0:0,0:0:0:0:
112,108,153852,38,0,P|147:81|190:67,1,90,4|8,0:2|0:0,0:0:0:0:
312,152,154865,2,0,P|314:174|312:196,1,45,4|8,0:2|0:0,0:0:0:0:
248,272,155474,1,4,0:0:0:0:
440,20,157095,5,4,0:0:0:0:
480,172,157906,2,0,P|476:208|480:260,1,72,2|0,0:0|0:0,0:0:0:0:
492,320,158717,1,2,0:0:0:0:
336,336,159528,2,0,P|296:340|256:336,1,72,2|0,0:0|0:0,0:0:0:0:
188,320,160338,37,2,0:0:0:0:
32,348,161149,1,2,0:0:0:0:
16,268,161555,1,0,0:0:0:0:
68,204,161960,2,0,P|102:193|138:190,1,72,2|2,0:0|0:0,0:0:0:0:
216,208,162771,1,2,0:0:0:0:
328,320,163582,6,0,P|368:324|412:320,1,72,0|2,0:0|0:0,0:0:0:0:
480,316,164392,2,0,P|484:268|476:232,1,72,0|2,0:0|0:0,0:0:0:0:
408,208,165203,1,2,0:0:0:0:
272,288,166014,1,2,0:0:0:0:
260,368,166419,1,0,0:0:0:0:
180,348,166825,37,2,0:0:0:0:
112,208,167636,2,0,P|105:172|111:133,1,72,2|0,0:0|0:0,0:0:0:0:
176,92,168447,2,0,P|211:96|247:92,1,72,2|0,0:0|0:0,0:0:0:0:
324,76,169257,1,2,0:0:0:0:
376,136,169663,1,0,0:0:0:0:
328,200,170068,5,4,1:0:0:0:
95,183,183041,6,0,P|172:208|249:188,1,161.999995056153,4|0,0:0|0:0,0:0:0:0:
304,124,184663,2,0,P|376:104|464:124,1,161.999995056153,2|0,0:0|0:0,0:0:0:0:
496,196,186284,6,0,L|492:256,1,53.9999983520508,0|0,0:0|0:0,0:0:0:0:
464,328,187095,2,0,L|408:332,1,53.9999983520508,0|2,0:0|0:0,0:0:0:0:
344,284,187906,2,0,L|236:288,1,107.999996704102,0|2,0:0|0:0,0:0:0:0:
92,300,189528,37,4,0:0:0:0:
92,104,191149,1,4,0:0:0:0:
288,100,192771,5,4,0:0:0:0:
412,136,193582,1,4,0:0:0:0:
412,264,194392,37,4,0:0:0:0:
284,304,195203,2,0,P|261:290|232:280,1,53.9999983520508,4|4,0:0|0:0,0:0:0:0:
156,284,196014,22,0,P|144:250|146:214,1,72,4|0,0:0|0:0,0:0:0:0:
216,164,196825,2,0,P|249:149|274:124,2,72
144,116,198041,1,0,0:0:0:0:
176,36,198447,2,0,P|211:31|246:39,1,72
312,96,199257,5,0,0:0:0:0:
388,56,199663,1,0,0:0:0:0:
439,120,200068,2,0,P|434:155|441:190,1,72
496,256,200879,2,0,P|496:291|480:328,1,72
400,356,201690,1,0,0:0:0:0:
320,320,202095,1,0,0:0:0:0:
320,232,202501,37,4,0:0:0:0:
124,292,204122,1,4,0:0:0:0:
160,92,205744,5,4,2:0:0:0:
316,64,206555,1,4,2:0:0:0:
352,216,207365,38,0,L|272:228,1,72,4|0,2:0|0:0,0:0:0:0:
200,260,208176,2,0,L|192:304,2,36,6|6|0,0:0|0:0|1:0,0:0:0:0:
144,188,208987,22,0,P|132:144|137:100,1,90,4|8,0:0|0:0,0:0:0:0:
208,32,209798,1,0,0:0:0:0:
304,32,210203,1,8,0:0:0:0:
376,104,210609,2,0,P|380:148|368:191,1,90,0|8,0:0|0:0,0:0:0:0:
315,275,211419,2,0,P|271:267|227:271,1,90,0|8,0:0|0:0,0:0:0:0:
139,319,212230,6,0,P|103:295|87:253,1,90,0|8,0:0|0:0,0:0:0:0:
144,172,213041,1,0,0:0:0:0:
244,188,213447,1,8,0:0:0:0:
280,96,213852,2,0,P|254:59|212:44,1,90,0|8,0:0|0:0,0:0:0:0:
116,56,214663,2,0,L|100:152,1,90,0|8,0:0|0:0,0:0:0:0:
80,240,215474,37,0,0:0:0:0:
176,220,215879,1,8,0:0:0:0:
272,196,216284,1,0,0:0:0:0:
368,172,216690,1,8,0:0:0:0:
456,216,217095,2,0,L|464:312,1,90,0|8,0:0|0:0,0:0:0:0:
376,352,217906,2,0,L|368:262,1,90,0|8,0:0|0:0,0:0:0:0:
272,280,218717,6,0,P|191:318|103:309,1,180,0|0,0:0|0:0,0:0:0:0:
40,236,219933,1,8,0:0:0:0:
72,144,220338,2,0,P|107:117|150:104,1,90,0|8,0:0|0:0,0:0:0:0:
244,72,221149,2,0,L|240:28,2,45,0|4|4,0:0|0:2|0:2,0:0:0:0:
316,140,221960,22,0,L|320:244,1,90,4|8,0:0|0:0,0:0:0:0:
312,328,222771,1,0,0:0:0:0:
216,356,223176,1,8,0:0:0:0:
120,336,223582,2,0,L|116:244,1,90,0|8,0:0|0:0,0:0:0:0:
212,260,224392,2,0,L|208:163,1,90,0|8,0:0|0:0,0:0:0:0:
308,184,225203,37,0,0:0:0:0:
304,84,225609,1,8,0:0:0:0:
404,80,226014,1,0,0:0:0:0:
408,180,226419,1,8,0:0:0:0:
411,280,226825,2,0,P|386:317|348:340,1,90,0|8,0:0|0:0,0:0:0:0:
256,308,227636,1,0,0:0:0:0:
160,332,228041,1,8,0:0:0:0:
64,308,228447,5,0,0:0:0:0:
20,220,228852,1,8,0:0:0:0:
32,124,229257,2,0,P|59:88|99:67,1,90,0|8,0:0|0:0,0:0:0:0:
164,144,230068,2,0,P|208:148|253:144,1,90,0|8,0:0|0:0,0:0:0:0:
352,164,230879,2,0,P|356:208|352:253,1,90,0|8,0:0|0:0,0:0:0:0:
268,308,231690,37,4,0:0:0:0:
68,292,232501,2,0,P|64:240|72:200,1,90,4|0,0:2|0:0,0:0:0:0:
128,120,233311,1,4,0:0:0:0:
324,112,234122,2,0,P|348:100|364:88,2,45,4|4|0,0:2|0:2|0:0,0:0:0:0:
228,88,234933,22,0,P|220:136|224:176,1,90,4|8,0:0|0:0,0:0:0:0:
220,276,235744,2,0,P|263:284|304:304,1,90,0|8,0:0|0:0,0:0:0:0:
404,316,236555,1,0,0:0:0:0:
463,236,236960,2,0,P|465:148|404:86,1,180,8|8,0:0|0:0,0:0:0:0:
315,136,238176,6,0,P|280:164|232:168,1,90,0|8,0:0|0:0,0:0:0:0:
168,96,238987,1,0,0:0:0:0:
76,136,239392,1,8,0:0:0:0:
84,236,239798,1,0,0:0:0:0:
180,260,240203,1,8,0:0:0:0:
236,179,240609,2,0,P|280:180|323:193,1,90,0|8,0:0|0:0,0:0:0:0:
400,260,241419,37,0,0:0:0:0:
472,192,241825,1,8,0:0:0:0:
456,92,242230,2,0,P|416:80|366:80,1,90,0|8,0:0|0:0,0:0:0:0:
296,147,243041,2,0,P|206:139|128:96,1,180,0|0,0:0|0:0,0:0:0:0:
64,20,244257,1,8,0:0:0:0:
32,112,244663,6,0,P|28:156|34:200,1,90,0|8,0:0|0:0,0:0:0:0:
132,228,245474,1,0,0:0:0:0:
108,324,245879,1,8,0:0:0:0:
12,300,246284,1,0,0:0:0:0:
36,204,246690,1,8,0:0:0:0:
132,228,247095,2,0,L|144:180,2,45,0|4|4,0:0|0:2|0:2,0:0:0:0:
212,288,247906,22,0,P|255:295|297:282,1,90,4|8,0:0|0:0,0:0:0:0:
380,228,248717,1,0,0:0:0:0:
388,128,249122,1,8,0:0:0:0:
308,72,249528,2,0,P|224:48|144:92,1,180,0|0,0:0|0:0,0:0:0:0:
84,164,250744,1,8,0:0:0:0:
160,228,251149,37,0,0:0:0:0:
228,156,251555,2,0,P|277:161|320:156,1,90,8|0,0:0|0:0,0:0:0:0:
336,60,252365,1,8,0:0:0:0:
432,68,252771,2,0,L|448:164,1,90,0|8,0:0|0:0,0:0:0:0:
360,208,253582,2,0,L|376:304,1,90,0|8,0:0|0:0,0:0:0:0:
292,348,254392,5,0,0:0:0:0:
192,364,254798,1,8,0:0:0:0:
96,332,255203,2,0,P|92:280|96:240,1,90,0|8,0:0|0:0,0:0:0:0:
176,184,256014,1,0,0:0:0:0:
256,244,256419,1,8,0:0:0:0:
356,252,256825,1,0,0:0:0:0:
440,204,257230,1,8,0:0:0:0:
472,108,257636,37,4,0:0:0:0:
288,40,258447,1,4,0:2:0:0:
192,72,258852,1,0,0:0:0:0:
136,152,259257,2,0,P|132:196|136:248,1,90,4|0,0:0|0:0,0:0:0:0:
168,336,260068,2,0,P|148:361|130:377,2,45,6|4|0,0:2|0:2|0:0,0:0:0:0:
232,260,260879,21,4,0:0:0:0:
