osu file format v12

[General]
AudioFilename: 10 .mp3
AudioLeadIn: 1000
PreviewTime: 106393
Countdown: 0
SampleSet: Normal
StackLeniency: 0.7
Mode: 0
LetterboxInBreaks: 1

[Editor]
Bookmarks: 27773
DistanceSpacing: 0.9
BeatDivisor: 4
GridSize: 4

[Metadata]
Title:RI~Just dreamy~
TitleUnicode:理 ~Just dreamy~
Artist:EastNewSound
ArtistUnicode:EastNewSound
Creator:__Ag
Version:Ag style
Source:Touhou
Tags:
BeatmapID:230604
BeatmapSetID:83534

[Difficulty]
HPDrainRate:6
CircleSize:4
OverallDifficulty:7
ApproachRate:9
SliderMultiplier:1.8
SliderTickRate:1

[Events]
//Background and Video events
0,0,"reimu.jpg",1,1
//Break Periods
//Storyboard Layer 0 (Background)
//Storyboard Layer 1 (Fail)
//Storyboard Layer 2 (Pass)
//Storyboard Layer 3 (Foreground)
//Storyboard Sound Samples
//Background Colour Transformations
3,100,0,0,0

[TimingPoints]
12045,413.793103448276,4,1,0,40,1,0
13700,-200,4,1,0,20,0,0
20325,206.896551724138,4,1,0,40,1,0
20325,-100,4,1,0,50,0,0
25238,-100,4,1,0,20,0,0
26118,-166.666666666667,4,1,0,30,0,0
26376,-100,4,1,0,50,0,0

[Colours]
Combo1 : 255,255,128
Combo2 : 255,128,255
Combo3 : 128,255,255

[HitObjects]
176,184,13700,2,0,P|240:128|320:176,1,180,4|0,0:0|0:0,0:0:0:0:
308,284,15148,2,0,P|260:304|216:296,1,90
128,268,15769,2,0,L|80:240,1,45
124,180,16182,2,0,L|96:136,1,45
164,108,16596,2,0,L|164:60,1,45
252,32,17011,1,4,0:0:0:0:
368,124,18251,2,0,L|404:164,1,45
368,208,18665,2,0,P|336:280|268:292,1,135
164,288,19493,2,0,P|196:216|264:204,1,135
460,72,20325,2,0,P|388:84|364:108,1,90
320,208,20531,2,0,P|376:200|408:168,1,90
312,56,20738,2,0,P|324:112|356:144,1,90
480,216,20945,2,0,P|464:172|424:136,1,90
224,96,21152,2,0,P|168:96|128:116,1,90
56,212,21359,2,0,P|108:208|148:180,1,90
76,44,21566,2,0,P|76:100|100:144,1,90
208,248,21773,2,0,P|204:200|180:160,1,90
296,68,21980,2,0,P|280:120|288:164,1,90
380,292,22187,2,0,P|392:248|384:196,1,90
228,216,22393,2,0,P|280:228|320:216,1,90
440,144,22600,2,0,P|388:132|344:144,1,90
192,120,22807,2,0,P|156:80|96:68,1,90
116,148,23014,2,0,P|84:184|72:248,1,90
148,224,23221,2,0,P|184:260|232:272,1,90
220,196,23428,2,0,P|260:168|276:128,1,90
284,84,23635,1,0,0:0:0:0:
288,40,23738,1,0,0:0:0:0:
276,0,23842,1,0,0:0:0:0:
312,16,23945,1,0,0:0:0:0:
348,40,24049,1,0,0:0:0:0:
384,56,24152,1,0,0:0:0:0:
424,68,24256,1,0,0:0:0:0:
464,72,24359,1,0,0:0:0:0:
440,100,24462,1,0,0:0:0:0:
404,128,24566,1,0,0:0:0:0:
384,156,24669,1,0,0:0:0:0:
364,200,24773,1,0,0:0:0:0:
356,236,24876,1,0,0:0:0:0:
360,284,24980,1,0,0:0:0:0:
324,272,25083,1,0,0:0:0:0:
284,256,25187,1,0,0:0:0:0:
248,252,25290,2,0,L|200:252,15,45
172,288,26118,2,0,P|96:288|56:256,1,107.999996704102
44,196,26428,1,0,0:0:0:0:
36,116,26531,1,0,0:0:0:0:
72,44,26635,1,0,0:0:0:0:
148,24,26738,1,0,0:0:0:0:
148,24,26945,2,0,P|208:52|240:48,1,90
304,16,27152,2,0,P|316:76|300:120,1,90
172,220,27359,2,0,P|160:160|176:116,1,90
245,185,27566,2,0,P|268:184|328:212,1,90
364,284,27773,1,0,0:0:0:0:
200,284,27980,1,0,0:0:0:0:
420,120,28187,1,0,0:0:0:0:
128,120,28393,1,0,0:0:0:0:
352,56,28600,1,0,0:0:0:0:
288,104,28704,1,0,0:0:0:0:
216,72,28807,2,0,B|192:72|192:72|160:36|104:28|68:72|68:72|48:56,1,180
156,192,29221,1,0,0:0:0:0:
48,312,29428,1,0,0:0:0:0:
124,280,29531,1,0,0:0:0:0:
192,324,29635,2,0,B|248:332|264:304|264:304|300:324|300:324|324:292|364:312,1,180
468,196,30049,1,0,0:0:0:0:
408,144,30152,1,0,0:0:0:0:
372,216,30256,2,0,B|308:224|268:156|268:156|208:168,1,180
136,180,30566,1,0,0:0:0:0:
60,208,30669,2,0,P|72:260|60:304,1,90
256,340,30876,2,0,P|252:288|264:248,1,90
248,132,31083,2,0,P|192:128|152:108,1,90
92,348,31290,2,0,P|144:344|180:364,1,90
344,296,31497,2,0,P|348:248|380:208,1,90
352,92,31704,2,0,P|304:68|280:40,1,90
200,44,31911,1,0,0:0:0:0:
124,72,32014,1,0,0:0:0:0:
68,132,32118,1,0,0:0:0:0:
60,212,32221,1,0,0:0:0:0:
92,288,32325,2,0,B|136:296|192:260|192:260|240:260,1,135
352,160,32531,2,0,B|308:152|252:188|252:188|204:188,1,135
223,188,32738,1,0,0:0:0:0:
