osu file format v9

[General]
AudioFilename: 06.Tsubaki - PiPiPiPARU.mp3
AudioLeadIn: 1500
PreviewTime: 119190
Countdown: 0
SampleSet: Normal
StackLeniency: 0.7
Mode: 0
LetterboxInBreaks: 0

[Editor]
DistanceSpacing: 1
BeatDivisor: 4
GridSize: 4

[Metadata]
Title:PiPiPiPARU
Artist:EastNewSound
Creator:Komeiji Yuki
Version:PARUPARU!
Source:Touhou
Tags:Tsubaki Mizuhashi Parsee Split Theory C79 Chireiden Subterranean Animism Green-Eyed Jealousy Crouka Gezoda _Gezo_ Medi-chan

[Difficulty]
HPDrainRate:7
CircleSize:4
OverallDifficulty:8
ApproachRate:8
SliderMultiplier:1.4
SliderTickRate:2

[Events]
//Background and Video events
0,0,"bg0.jpg"
//Break Periods
2,45544,49902
//Storyboard Layer 0 (Background)
Sprite,Background,Centre,"SB\caution1.png",320,240 S,0,-1,,0.7952002 F,0,-1,344,0,1 F,0,344,3344,1 F,0,3344,3806,1,0
Sprite,Background,Centre,"SB\lyricparuparu.png",320,240 F,0,25729,25960,0,1 M,0,25729,27113,301,256,317,256 F,0,25960,26652,1 F,0,26652,27113,1,0
Sprite,Background,Centre,"SB\album pic.jpg",320,240 M,0,46729,,551,296 S,0,46729,,0.365 F,0,46729,47191,0,1 F,0,47191,57806,1 F,0,57864,58268,1,0
//Storyboard Layer 1 (Fail)
//Storyboard Layer 2 (Pass)
//Storyboard Layer 3 (Foreground)
Sprite,Foreground,Centre,"SB\song.png",320,240 M,0,47190,,313,86 F,0,47190,47652,0,1 F,0,47652,57806,1 F,0,57806,58267,1,0
Sprite,Foreground,Centre,"SB\club.png",320,240 M,0,47652,,313,135 F,0,47652,48113,0,1 F,0,48113,57806,1 F,0,57806,58267,1,0
Sprite,Foreground,Centre,"SB\original song.png",320,240 M,0,48113,,312,181 F,0,48113,48575,0,1 F,0,48575,57806,1 F,0,57806,58267,1,0
Sprite,Foreground,Centre,"SB\vocal.png",320,240 M,0,48575,,314,228 F,0,48575,49037,0,1 F,0,49037,57806,1 F,0,57806,58267,1,0
Sprite,Foreground,Centre,"SB\lyric.png",320,240 M,0,49037,,314,277 F,0,49037,49498,0,1 F,0,49498,57806,1 F,0,57806,58267,1,0
Sprite,Foreground,Centre,"SB\arrange.png",320,240 M,0,49498,,313,326 F,0,49498,49960,0,1 F,0,49960,57806,1 F,0,57806,58267,1,0
Sprite,Foreground,Centre,"SB\by.png",320,240 M,0,50421,,313,375 F,0,50421,51806,0,1 F,0,51806,57806,1 F,0,57806,58267,1,0
Sprite,Foreground,Centre,"SB\lyric1.png",320,240 M,0,806,,355,82 F,0,806,1037,0,1 F,0,1037,1729,1 F,0,1729,2190,1,0
Sprite,Foreground,Centre,"SB\lyric2.png",320,240 M,0,4267,,356,81 F,0,4267,4498,0,1 F,0,4498,5421,1 F,0,5421,5883,1,0
Sprite,Foreground,Centre,"SB\lyric3.png",320,240 M,0,7729,,372,83 F,0,7729,7960,0,1 F,0,7960,9113,1 F,0,9113,9575,1,0
Sprite,Foreground,Centre,"SB\lyric4.png",320,240 M,0,10960,,386,82 F,0,10960,11190,0,1 F,0,11190,13729,1 F,0,13729,14190,1,0
Sprite,Foreground,Centre,"SB\lyricparuparu.png",320,240 M,0,12806,,509,140 F,0,12806,13037,0,1 S,0,12806,14190,1,1.4 F,0,13037,13729,1 F,0,13729,14190,1,0
Sprite,Foreground,Centre,"SB\lyric5.png",320,240 F,0,16037,16267,0,1 M,0,16037,19729,341,84,309,84 F,0,16267,19267,1 F,0,19267,19729,1,0
Sprite,Foreground,Centre,"SB\lyricparuparu.png",320,240 F,0,18344,18575,0,1 M,0,18344,19729,503,84,523,84 F,0,18575,19267,1 F,0,19267,19729,1,0
Sprite,Foreground,Centre,"SB\lyric6.png",320,240 F,0,19729,19960,0,1 M,0,19729,23190,419,146,450,146 F,0,19960,22729,1 F,0,22729,23190,1,0
Sprite,Foreground,Centre,"SB\lyric7.png",320,240 F,0,23421,23652,0,1 M,0,23421,27113,420,209,388,210 F,0,23652,26652,1 F,0,26652,27113,1,0
Sprite,Foreground,Centre,"SB\caution2.png",320,240 M,0,-1,,318,285 S,0,-1,,0.805 F,0,-1,344,0,1 F,0,344,3344,1 F,0,3344,3806,1,0
Sprite,Foreground,Centre,"SB\lyric8.png",320,240 F,0,27113,27344,0,1 M,0,27113,30575,418,271,451,272 F,0,27344,30113,1 F,0,30113,30575,1,0
Sprite,Foreground,Centre,"SB\lyric9.png",320,240 F,0,30806,31037,0,1 M,0,30806,34498,394,84,395,114 F,0,31037,34037,1 F,0,34037,34498,1,0
Sprite,Foreground,Centre,"SB\lyricparuparu.png",320,240 F,0,33113,33344,0,1 M,0,33113,34498,506,172,507,161 F,0,33344,34037,1 F,0,34037,34498,1,0
Sprite,Foreground,Centre,"SB\lyric10_.png",320,240 F,0,34498,34729,0,1 M,0,34498,37960,419,211,419,241 F,0,34729,37498,1 F,0,37498,37960,1,0
Sprite,Foreground,Centre,"SB\lyric11.png",320,240 F,0,38190,38421,0,1 M,0,38190,41883,419,337,419,305 F,0,38421,41421,1 F,0,41421,41883,1,0
Sprite,Foreground,Centre,"SB\lyricparuparu.png",320,240 F,0,40498,40729,0,1 M,0,40498,41883,519,244,520,256 F,0,40729,41421,1 F,0,41421,41883,1,0
Sprite,Foreground,Centre,"SB\lyric12_1.png",320,240 F,0,41998,42113,0,1 S,0,41998,42113,1.15,1 M,0,41998,45806,366,133,366,163 F,0,42113,45344,1 F,0,45344,45806,1,0
Sprite,Foreground,Centre,"SB\lyric12_2.png",320,240 F,0,42460,42575,0,1 S,0,42460,42575,1.15,1 M,0,42460,45806,412,136,412,164 F,0,42575,45344,1 F,0,45344,45806,1,0
Sprite,Foreground,Centre,"SB\lyric12_3.png",320,240 F,0,42806,43037,0,1 M,0,42806,45806,531,139,532,167 F,0,43037,45344,1 F,0,45344,45806,1,0
Sprite,Foreground,Centre,"SB\lyric13.png",320,240 F,0,59883,60113,0,1 M,0,59883,63806,381,128,417,127 F,0,60113,63344,1 F,0,63344,63806,1,0
Sprite,Foreground,Centre,"SB\lyric14.png",320,240 F,0,63575,63806,0,1 M,0,63575,67498,441,199,410,200 F,0,63806,67037,1 F,0,67037,67498,1,0
Sprite,Foreground,Centre,"SB\lyric15.png",320,240 F,0,67267,67498,0,1 M,0,67267,71190,350,272,383,273 F,0,67498,70729,1 F,0,70729,71190,1,0
Sprite,Foreground,Centre,"SB\lyric16.png",320,240 F,0,70960,71190,0,1 M,0,70960,74883,346,355,311,355 F,0,71190,74421,1 F,0,74421,74883,1,0
Sprite,Foreground,Centre,"SB\lyric17.png",320,240 F,0,74652,74883,0,1 M,0,74652,78575,359,103,391,103 F,0,74883,78113,1 F,0,78113,78575,1,0
Sprite,Foreground,Centre,"SB\lyric18.png",320,240 F,0,78344,78575,0,1 M,0,78344,82267,395,181,360,181 F,0,78575,81806,1 F,0,81806,82267,1,0
Sprite,Foreground,Centre,"SB\lyric32_5.png",320,240 F,0,147575,147806,0,1 M,0,147806,,605,145 F,0,147806,148729,1 F,0,148729,149190,1,0
Sprite,Foreground,Centre,"SB\lyric19.png",320,240 F,0,82037,82267,0,1 M,0,82037,85960,325,277,359,278 F,0,82267,85498,1 F,0,85498,85960,1,0
Sprite,Foreground,Centre,"SB\lyric20_.png",320,240 F,0,85729,85960,0,1 M,0,85729,89652,339,375,307,376 F,0,85960,89190,1 F,0,89190,89652,1,0
Sprite,Foreground,Centre,"SB\lyric21and23_1.png",320,240 F,0,89421,89652,0,1 M,0,89421,96575,177,82,178,129 F,0,89652,96113,1 F,0,96113,96575,1,0
Sprite,Foreground,Centre,"SB\lyric21_2.png",320,240 F,0,90344,90575,0,1 M,0,90344,96575,403,207,404,173 F,0,90575,96113,1 F,0,96113,96575,1,0
Sprite,Foreground,Centre,"SB\lyric22and24_1.png",320,240 F,0,96806,97037,0,1 M,0,96806,103960,239,268,197,268 F,0,97037,103498,1 F,0,103498,103960,1,0
Sprite,Foreground,Centre,"SB\lyric22_2.png",320,240 F,0,97729,97960,0,1 M,0,97729,103960,359,320,390,320 F,0,97960,103498,1 F,0,103498,103960,1,0
Sprite,Foreground,Centre,"SB\lyric21and23_1.png",320,240 F,0,104190,104421,0,1 M,0,104190,111344,430,101,479,102 F,0,104421,110883,1 F,0,110883,111344,1,0
Sprite,Foreground,Centre,"SB\lyric23_2.png",320,240 F,0,105113,105344,0,1 M,0,105113,111344,395,156,284,156 F,0,105344,110883,1 F,0,110883,111344,1,0
Sprite,Foreground,Centre,"SB\lyric22and24_1.png",320,240 F,0,111575,111806,0,1 M,0,111575,119190,164,339,164,291 F,0,111806,118729,1 F,0,118729,119190,1,0
Sprite,Foreground,Centre,"SB\lyric24_2.png",320,240 F,0,112498,112729,0,1 M,0,112498,119190,401,225,398,251 F,0,112729,118729,1 F,0,118729,119190,1,0
Sprite,Foreground,Centre,"SB\lyric25.png",320,240 F,0,119421,119652,0,1 M,0,119421,123113,226,123,258,123 F,0,119652,122652,1 F,0,122652,123113,1,0
Sprite,Foreground,Centre,"SB\lyricparuparu.png",320,240 F,0,121729,121960,0,1 M,0,121729,123113,406,181,373,181 F,0,121960,122652,1 F,0,122652,123113,1,0
Sprite,Foreground,Centre,"SB\lyric26.png",320,240 F,0,123113,123344,0,1 M,0,123113,126575,429,245,472,245 F,0,123344,126113,1 F,0,126113,126575,1,0
Sprite,Foreground,Centre,"SB\lyric27.png",320,240 F,0,126806,127037,0,1 M,0,126806,130498,293,348,263,349 F,0,127037,130037,1 F,0,130037,130498,1,0
Sprite,Foreground,Centre,"SB\lyricparuparu.png",320,240 F,0,129113,129344,0,1 M,0,129113,130498,174,403,197,404 F,0,129344,130037,1 F,0,130037,130152,1 F,0,130152,130498,1,0
Sprite,Foreground,Centre,"SB\lyric28.png",320,240 F,0,130498,130729,0,1 M,0,130498,133960,377,445,410,445 F,0,130729,133498,1 F,0,133498,133960,1,0
Sprite,Foreground,Centre,"SB\lyric29.png",320,240 F,0,134190,134421,0,1 M,0,134190,137883,438,99,440,131 F,0,134421,137405,1 F,0,137405,137883,1,0
Sprite,Foreground,Centre,"SB\lyricparuparu.png",320,240 F,0,136498,136729,0,1 M,0,136498,137883,516,183,517,167 F,0,136729,137421,1 F,0,137421,137883,1,0
Sprite,Foreground,Centre,"SB\lyric30_.png",320,240 F,0,137883,138113,0,1 M,0,137883,141344,207,220,207,193 F,0,138113,140883,1 F,0,140883,141344,1,0
Sprite,Foreground,Centre,"SB\lyric31.png",320,240 F,0,141575,141806,0,1 M,0,141575,145267,387,357,387,332 F,0,141806,144806,1 F,0,144806,145267,1,0
Sprite,Foreground,Centre,"SB\lyricparuparu.png",320,240 F,0,143883,144113,0,1 M,0,143883,145267,516,377,516,393 F,0,144113,144806,1 F,0,144806,145267,1,0
Sprite,Foreground,Centre,"SB\lyric32_1.png",320,240 M,0,145383,,304,143 S,0,145383,145498,0.8,1.2 F,0,145383,145613,0,1 S,0,145498,145613,1.2,1 F,0,145498,148729,1 F,0,148729,149190,1,0
Sprite,Foreground,Centre,"SB\lyric32_2.png",320,240 M,0,145844,,410,142 S,0,145844,145960,0.8,1.2 F,0,145844,146075,0,1 S,0,145960,146075,1.2,1 F,0,145960,148729,1 F,0,148729,149190,1,0
Sprite,Foreground,Centre,"SB\lyric32_3.png",320,240 S,0,146306,146421,1.58,1.98 F,0,146306,146537,0,1 M,0,146421,,499,144 S,0,146421,146537,1.98,1.78 F,0,146537,148729,1 F,0,148729,149190,1,0
Sprite,Foreground,Centre,"SB\lyric32_4.png",320,240 M,0,147344,,546,146 F,0,147344,147575,0,1 F,0,147575,148729,1 F,0,148729,149190,1,0
//Storyboard Sound Samples
//Background Colour Transformations
3,100,163,162,255

[TimingPoints]
1037,461.538461538462,4,1,0,60,1,0
1960,-100,4,1,0,40,0,0
2421,-100,4,1,0,30,0,0
2883,-100,4,1,0,20,0,0
4498,-100,4,1,0,40,0,0
4729,-100,4,1,0,60,0,0
5652,-100,4,1,0,40,0,0
6113,-100,4,1,0,30,0,0
6575,-100,4,1,0,20,0,0
7960,-100,4,1,0,40,0,0
8421,-100,4,1,0,60,0,0
9344,-100,4,1,0,40,0,0
9806,-100,4,1,0,30,0,0
10267,-100,4,1,0,20,0,0
11190,-100,4,1,0,30,0,0
12113,-100,4,1,0,40,0,0
12337,-100,4,1,0,50,0,0
13960,-100,4,2,0,60,0,0
14883,-100,4,2,0,40,0,0
14998,-100,4,2,0,41,0,0
15113,-100,4,2,0,42,0,0
15229,-100,4,2,0,44,0,0
15344,-100,4,2,0,45,0,0
15460,-100,4,2,0,47,0,0
15575,-100,4,2,0,48,0,0
15690,-100,4,2,0,49,0,0
15806,-100,4,2,0,60,0,0
16267,-100,4,1,0,60,0,0
43037,-100,4,1,0,70,0,0
45344,-100,4,2,0,70,0,0
50652,-100,4,1,0,60,0,0
52729,-100,4,2,0,70,0,0
53421,-100,4,2,0,75,0,0
54344,-100,4,1,0,55,0,0
54575,-100,4,1,0,35,0,0
55267,-100,4,1,0,40,0,0
56421,-100,4,2,0,70,0,0
57113,-100,4,2,0,75,0,0
58037,-100,4,1,0,60,0,0
66460,-100,4,2,0,40,0,0
66921,-100,4,1,0,60,0,0
73844,-100,4,2,0,40,0,0
74306,-100,4,1,0,60,0,0
89190,-100,4,1,0,60,0,0
89421,-100,4,2,0,60,0,0
89652,-100,4,1,0,60,0,1
89767,-100,4,1,0,60,0,0
119190,-100,4,1,0,60,0,1
145960,-100,4,1,0,40,0,1
146883,-100,4,1,0,50,0,1
147113,-100,4,1,0,60,0,1
148729,-100,4,1,0,60,0,0

[Colours]
Combo1 : 201,201,201
Combo2 : 196,136,255
Combo3 : 150,186,226
Combo4 : 255,255,162
SliderBorder : 70,70,255

[HitObjects]
276,76,806,1,0
344,80,1037,2,0,B|436:88,3,70,8|0|8|0
484,92,1960,1,0
432,220,2421,1,0
328,128,2883,1,0
280,256,3344,1,0
176,160,3806,1,0
176,160,4037,1,0
152,224,4267,1,8
128,288,4498,5,8
56,288,4729,2,0,B|24:224,3,70,8|0|8|0
0,160,5652,1,0
124,96,6113,1,0
216,200,6575,1,0
344,136,7037,1,0
432,240,7498,2,0,B|400:308,1,70,0|8
368,368,7960,5,8
368,368,8190,1,8
336,304,8421,2,0,B|304:240,3,70,8|0|8|0
248,200,9344,1,0
208,336,9806,1,0
152,208,10267,1,0
112,344,10729,1,0
48,220,11190,6,0,B|24:324,2,105,8|8|8
56,184,11998,1,8
64,148,12113,2,0,B|84:56,3,70,8|0|8|0
184,148,13036,2,0,B|166:80,3,70,8|0|8|0
236,100,13960,5,12
300,68,14190,1,0
360,104,14421,1,8
300,140,14652,1,0
360,176,14883,5,12
348,188,14998,1,0
332,200,15113,1,8
316,208,15229,1,8
300,216,15344,1,12
284,220,15460,1,0
268,220,15575,1,12
252,220,15690,1,8
236,220,15806,1,12
104,180,16267,5,8
184,296,16729,1,0
316,340,17190,1,8
376,300,17421,2,0,B|453:263|454:167,1,140,0|0
456,120,18113,1,8
432,56,18344,1,0
432,56,18460,1,0
432,56,18575,2,0,B|344:96,1,70
80,56,19037,2,0,B|168:96,1,70,8|0
208,108,19498,1,4
128,220,19960,5,8
136,232,20421,1,0
148,240,20883,1,8
212,268,21113,2,0,B|288:264|320:344,1,140
388,340,21806,1,8
360,276,22037,1,0
360,276,22152,1,0
360,276,22267,1,8
472,192,22729,5,8
40,192,23190,1,4
168,136,23652,5,8
212,268,24113,1,0
344,280,24575,1,8
344,280,24806,2,0,B|248:272,1,70
416,280,25267,2,0,B|512:272,1,70,0|8
348,208,25729,1,0
348,208,25844,1,0
348,208,25960,2,0,B|276:200,1,70
416,208,26421,2,0,B|488:200,1,70,8|0
485,200,26883,1,4
328,100,27344,5,8
300,236,27806,1,0
192,144,28267,1,8
136,188,28498,2,0,B|172:236|172:236|164:264|164:264|200:308,1,140
144,348,29190,1,8
80,320,29421,1,0
80,320,29537,1,0
80,320,29652,2,0,B|40:256,1,70,8|0
40,192,30113,5,8
472,192,30575,1,4
336,136,31037,5,8
208,200,31498,1,0
336,264,31960,1,8
336,264,32190,2,0,B|288:296|288:296|256:296|256:296|184:328,1,140
208,248,32883,1,8
336,196,33113,5,0
336,196,33229,1,0
336,196,33344,2,0,B|400:224,1,70,0|0
464,192,33806,2,0,B|464:104,1,70,8|0
400,160,34267,1,4
280,96,34729,5,8
156,160,35190,1,0
48,248,35652,1,8
48,248,35883,2,0,B|84:276|84:276|124:276|124:276|164:312,1,140,0|0
204,252,36575,1,8
352,248,36806,1,0
352,248,36921,1,0
352,248,37037,2,0,B|312:284|312:284|272:284|272:284|220:324,1,140,0|8
204,176,37960,1,4
64,160,38421,5,8
112,288,38883,1,0
212,188,39344,1,8
280,176,39575,2,0,B|356:144,2,70
264,244,40267,1,8
332,264,40498,5,0
332,264,40613,1,0
332,264,40729,2,0,B|400:240,1,70,0|0
360,180,41190,2,0,B|428:156,1,70,8|0
392,96,41652,1,4
492,192,42113,5,12
20,192,42575,1,4
112,192,43037,6,0,B|200:192,1,70,0|0
400,192,43498,2,0,B|312:192,1,70
256,52,43960,2,0,B|256:140,1,70,8|0
256,336,44421,2,0,B|256:248,1,70,0|0
256,192,44883,5,8
256,192,45344,1,4
256,192,50652,12,4,52267
396,192,52729,2,2,B|472:192,2,70
372,124,53421,2,0,B|416:84,1,35,4|2
300,60,53883,1,4
256,192,54344,1,8
116,192,54575,6,2,B|40:192,2,70
140,260,55267,2,0,B|96:300,1,35,4|4
212,324,55729,1,4
256,192,56190,1,0
116,192,56421,6,2,B|40:192,2,70
140,124,57113,2,0,B|96:84,1,35,4|2
212,60,57575,1,4
256,192,58037,12,4,59652
80,120,60113,6,0,B|156:96,2,70,0|0|8
80,120,60806,1,0
112,184,61037,1,0
168,232,61267,1,0
232,264,61498,2,0,B|256:180,1,70,8|0
328,80,62190,6,0,B|408:80,2,70,0|8|0
184,80,62883,2,0,B|114:80,2,70,0|0|8
312,144,63806,5,0
264,192,64037,1,0
196,192,64267,2,0,B|172:264,2,70,8|0|8
108,84,65190,5,8
144,144,65421,2,0,B|72:208,2,70,0|0|0
196,192,66113,2,0,B|172:264,1,70,0|0
196,192,66575,1,2
324,140,67037,1,4
424,240,67498,6,0,B|480:304|480:304,1,70,0|0
264,240,67960,2,0,B|208:304|208:304,1,70,8|0
344,240,68421,1,8
304,104,68883,1,8
376,104,69113,1,0
192,248,69575,5,0
168,312,69806,2,0,B|229:353,3,70,8|0|0|0
248,288,70729,1,8
208,44,71190,6,0,B|202:128|134:111|69:109|75:205,1,210
76,184,72113,1,8
200,248,72575,1,8
200,248,72806,2,0,B|244:308,1,70,0|0
304,272,73267,1,0
368,240,73498,1,0
368,240,73729,1,0
368,240,73960,1,2
456,352,74421,1,4
456,208,74883,5,0
456,208,75113,1,0
448,136,75344,2,0,B|371:178|326:99,1,140,8|8
448,24,76267,1,8
380,44,76498,1,0
88,220,76960,6,0,B|4:192,2,70,0|8|0
156,244,77652,1,0
448,332,78113,1,8
344,208,78575,6,0,B|248:240,1,70,0|0
296,160,79037,2,0,B|216:152,1,70,8|0
160,120,79498,1,8
60,24,79960,1,8
128,44,80190,1,0
420,220,80652,6,0,B|504:192,2,70,0|8|0
352,244,81344,1,0
60,332,81806,1,8
160,192,82267,6,0,B|236:156,1,70,0|0
408,192,82729,2,0,B|344:162,1,70,8|0
284,136,83190,1,8
256,272,83652,1,8
328,272,83883,1,0
224,360,84344,2,0,B|160:330,1,70,0|8
352,360,84806,2,0,B|415:330,1,70,0|8
288,376,85498,1,0
256,240,85960,6,0,B|176:204,1,70,0|0
120,216,86421,2,0,B|129:146,1,70,8|0
200,152,86883,1,8
320,80,87344,2,0,B|288:176,1,70,0|8
256,280,88036,5,0
384,332,88267,1,8
128,228,88498,1,8
256,280,88729,5,8
128,332,88960,1,4
384,228,89190,1,8
256,280,89421,1,4
256,208,89652,5,6
164,104,90113,1,0
28,144,90575,2,0,B|41:69|118:88,2,105,8|0|0
68,200,91498,1,8
120,244,91729,2,0,B|152:204|152:204,2,35,0|8|0
188,264,92190,1,0
256,256,92421,1,8
372,180,92883,5,0
304,172,93113,1,0
304,172,93344,1,0
304,32,93806,1,4
304,32,94267,6,0,B|304:176,1,140,8|0
344,232,94960,1,0
360,240,95075,1,0
376,248,95190,2,0,B|416:264|416:264|432:312|432:312|496:332,1,140,8|0
148,328,95883,2,0,B|193:314|193:314|209:266|209:266|249:250,1,140,0|0
264,240,96460,1,0
280,232,96575,1,8
248,168,96806,1,0
192,124,97036,5,4
296,32,97498,1,0
336,168,97960,2,0,B|236:76,2,105,8|0|0
404,152,98883,1,8
388,220,99113,1,0
388,220,99229,1,8
388,220,99344,1,0
320,232,99575,2,0,B|272:288,1,70,0|8
148,220,100267,5,0
80,232,100498,2,0,B|37:287,1,70,0|8
108,164,101190,1,0
240,116,101652,1,8
368,168,102113,1,8
240,228,102575,2,0,B|240:312,3,70,0|0|8|0
240,368,103498,1,0
364,300,103960,1,8
400,164,104421,5,4
400,164,104883,1,0
276,100,105344,2,0,B|206:86|195:159|192:161,2,105,8|0|0
264,168,106267,1,8
284,236,106498,1,0
300,228,106613,1,8
316,220,106729,1,0
368,268,106960,2,0,B|284:312,1,70,0|8
168,292,107652,5,0
104,264,107883,1,0
72,200,108113,1,0
204,148,108575,1,4
308,52,109036,5,8
320,64,109152,1,0
332,76,109267,2,0,B|396:136,1,70,0|0
452,128,109729,1,0
400,176,109960,2,0,B|348:224,4,70,8|0|0|0|0
460,212,111113,1,0
448,224,111229,1,0
436,236,111344,1,8
384,284,111575,1,0
312,284,111806,5,4
208,192,112267,1,0
256,60,112729,2,0,B|168:128,2,105,8|0|0
292,120,113652,1,8
364,120,113883,2,0,B|400:120,2,35,0|8|0
332,60,114344,1,0
332,60,114575,1,8
220,148,115036,1,0
168,192,115267,6,0,B|132:216,2,35,0|8|0
84,252,115960,1,8
344,192,116421,6,0,B|380:216,2,35,0|8|0
428,252,116883,1,8
344,92,117344,6,0,B|380:116,2,35,0|8|0
160,92,117806,2,0,B|124:116,2,35,0|8|0
360,176,118267,1,0
252,280,118498,1,0
144,176,118729,1,8
360,176,119190,5,4
252,88,119652,1,8
144,176,120113,1,0
272,236,120575,1,8
272,236,120806,2,0,B|341:241,1,70
356,308,121267,2,0,B|289:328,1,70,0|8
228,292,121729,1,0
228,292,121844,1,0
228,292,121960,2,0,B|132:260,1,70,8|0
108,316,122421,2,0,B|52:256,1,70,8|0
116,220,122883,1,4
128,80,123344,5,8
264,48,123806,1,0
372,144,124267,1,8
372,144,124498,2,0,B|352:168|300:152|300:152|320:200|300:224,1,140
376,220,125190,1,8
376,292,125421,1,0
376,292,125536,1,0
376,292,125652,1,8
472,192,126113,5,8
40,192,126575,1,4
164,256,127036,5,8
300,216,127498,1,0
172,160,127960,1,8
236,188,128190,2,0,B|168:252|256:332,1,140,0|0
304,316,128883,1,8
368,288,129113,1,0
368,288,129229,1,0
368,288,129344,2,0,B|452:260,1,70,8|0
436,196,129806,2,0,B|348:164,1,70,8|8
372,104,130267,1,4
256,28,130729,5,8
256,352,131190,1,0
188,192,131652,1,8
324,192,131883,2,0,B|324:104|420:104,1,140
480,108,132575,1,8
444,168,132806,1,0
444,168,132921,1,0
444,168,133036,1,8
324,240,133498,1,8
432,328,133960,1,4
392,192,134421,6,0,B|392:92|280:88,1,140,8|0
172,92,135344,1,8
100,92,135575,2,0,B|24:92|24:216,1,140,0|0
24,260,136267,1,8
84,224,136498,1,0
100,216,136613,1,0
116,208,136729,2,0,B|192:160,1,70,8|0
396,208,137190,2,0,B|320:160,1,70,8|0
256,168,137652,1,4
164,60,138113,6,0,B|114:10,1,70,8|0
348,60,138575,2,0,B|397:10,1,70,8|0
256,168,139036,1,8
164,276,139267,2,0,B|96:332,2,70,0|0|0
256,168,139960,1,8
348,276,140190,1,0
348,276,140306,1,0
348,276,140421,2,0,B|404:340,1,70,8|0
256,168,140883,1,8
164,276,141344,1,4
68,172,141806,6,0,B|108:108|188:108,1,140,8|0
324,132,142729,1,8
320,200,142960,2,0,B|388:176,2,70,0|0|0
344,264,143652,1,8
384,320,143883,1,0
384,320,143998,1,0
384,320,144113,2,0,B|312:372,1,70,8|0
192,320,144575,2,0,B|264:372,1,70,8|8
288,304,145036,1,4
396,212,145498,6,0,B|341:167,1,70,4|0
136,124,145960,2,0,B|190:79,1,70,12|0
308,252,146421,2,0,B|362:296,1,70,0|0
160,232,146883,2,0,B|96:284,2,70,12|8|0
216,188,147575,5,4
424,40,147806,1,4
184,116,148036,1,0
436,116,148267,1,4
196,40,148498,1,4
404,188,148729,1,4
