osu file format v9

[General]
AudioFilename: 06.Tsubaki - PiPiPiPARU.mp3
AudioLeadIn: 0
PreviewTime: 119190
Countdown: 0
SampleSet: Normal
StackLeniency: 0.7
Mode: 0
LetterboxInBreaks: 0

[Editor]
DistanceSpacing: 1
BeatDivisor: 4
GridSize: 4

[Metadata]
Title:PiPiPiPARU
Artist:EastNewSound
Creator:Komeiji Yuki
Version:Jealousy...
Source:Touhou
Tags:Tsubaki Mizuhashi Parsee Split Theory C79 Chireiden Subterranean Animism Green-Eyed Jealousy Crouka Gezoda _Gezo_ Medi-chan

[Difficulty]
HPDrainRate:3
CircleSize:4
OverallDifficulty:4
ApproachRate:5
SliderMultiplier:1
SliderTickRate:1

[Events]
//Background and Video events
0,0,"bg2.jpg"
//Break Periods
2,45544,58913
//Storyboard Layer 0 (Background)
Sprite,Background,Centre,"SB\caution1.png",320,240 S,0,-1,,0.7952002 F,0,-1,344,0,1 F,0,344,3344,1 F,0,3344,3806,1,0
Sprite,Background,Centre,"SB\lyricparuparu.png",320,240 F,0,25729,25960,0,1 M,0,25729,27113,301,256,317,256 F,0,25960,26652,1 F,0,26652,27113,1,0
Sprite,Background,Centre,"SB\album pic.jpg",320,240 M,0,46729,,551,296 S,0,46729,,0.365 F,0,46729,47191,0,1 F,0,47191,57806,1 F,0,57864,58268,1,0
//Storyboard Layer 1 (Fail)
//Storyboard Layer 2 (Pass)
//Storyboard Layer 3 (Foreground)
Sprite,Foreground,Centre,"SB\song.png",320,240 M,0,47190,,313,86 F,0,47190,47652,0,1 F,0,47652,57806,1 F,0,57806,58267,1,0
Sprite,Foreground,Centre,"SB\club.png",320,240 M,0,47652,,313,135 F,0,47652,48113,0,1 F,0,48113,57806,1 F,0,57806,58267,1,0
Sprite,Foreground,Centre,"SB\original song.png",320,240 M,0,48113,,312,181 F,0,48113,48575,0,1 F,0,48575,57806,1 F,0,57806,58267,1,0
Sprite,Foreground,Centre,"SB\vocal.png",320,240 M,0,48575,,314,228 F,0,48575,49037,0,1 F,0,49037,57806,1 F,0,57806,58267,1,0
Sprite,Foreground,Centre,"SB\lyric.png",320,240 M,0,49037,,314,277 F,0,49037,49498,0,1 F,0,49498,57806,1 F,0,57806,58267,1,0
Sprite,Foreground,Centre,"SB\arrange.png",320,240 M,0,49498,,313,326 F,0,49498,49960,0,1 F,0,49960,57806,1 F,0,57806,58267,1,0
Sprite,Foreground,Centre,"SB\by.png",320,240 M,0,50421,,313,375 F,0,50421,51806,0,1 F,0,51806,57806,1 F,0,57806,58267,1,0
Sprite,Foreground,Centre,"SB\lyric1.png",320,240 M,0,806,,355,82 F,0,806,1037,0,1 F,0,1037,1729,1 F,0,1729,2190,1,0
Sprite,Foreground,Centre,"SB\lyric2.png",320,240 M,0,4267,,356,81 F,0,4267,4498,0,1 F,0,4498,5421,1 F,0,5421,5883,1,0
Sprite,Foreground,Centre,"SB\lyric3.png",320,240 M,0,7729,,372,83 F,0,7729,7960,0,1 F,0,7960,9113,1 F,0,9113,9575,1,0
Sprite,Foreground,Centre,"SB\lyric4.png",320,240 M,0,10960,,386,82 F,0,10960,11190,0,1 F,0,11190,13729,1 F,0,13729,14190,1,0
Sprite,Foreground,Centre,"SB\lyricparuparu.png",320,240 M,0,12806,,509,140 F,0,12806,13037,0,1 S,0,12806,14190,1,1.4 F,0,13037,13729,1 F,0,13729,14190,1,0
Sprite,Foreground,Centre,"SB\lyric5.png",320,240 F,0,16037,16267,0,1 M,0,16037,19729,341,84,309,84 F,0,16267,19267,1 F,0,19267,19729,1,0
Sprite,Foreground,Centre,"SB\lyricparuparu.png",320,240 F,0,18344,18575,0,1 M,0,18344,19729,503,84,523,84 F,0,18575,19267,1 F,0,19267,19729,1,0
Sprite,Foreground,Centre,"SB\lyric6.png",320,240 F,0,19729,19960,0,1 M,0,19729,23190,419,146,450,146 F,0,19960,22729,1 F,0,22729,23190,1,0
Sprite,Foreground,Centre,"SB\lyric7.png",320,240 F,0,23421,23652,0,1 M,0,23421,27113,420,209,388,210 F,0,23652,26652,1 F,0,26652,27113,1,0
Sprite,Foreground,Centre,"SB\caution2.png",320,240 M,0,-1,,318,285 S,0,-1,,0.805 F,0,-1,344,0,1 F,0,344,3344,1 F,0,3344,3806,1,0
Sprite,Foreground,Centre,"SB\lyric8.png",320,240 F,0,27113,27344,0,1 M,0,27113,30575,418,271,451,272 F,0,27344,30113,1 F,0,30113,30575,1,0
Sprite,Foreground,Centre,"SB\lyric9.png",320,240 F,0,30806,31037,0,1 M,0,30806,34498,394,84,395,114 F,0,31037,34037,1 F,0,34037,34498,1,0
Sprite,Foreground,Centre,"SB\lyricparuparu.png",320,240 F,0,33113,33344,0,1 M,0,33113,34498,506,172,507,161 F,0,33344,34037,1 F,0,34037,34498,1,0
Sprite,Foreground,Centre,"SB\lyric10_.png",320,240 F,0,34498,34729,0,1 M,0,34498,37960,419,211,419,241 F,0,34729,37498,1 F,0,37498,37960,1,0
Sprite,Foreground,Centre,"SB\lyric11.png",320,240 F,0,38190,38421,0,1 M,0,38190,41883,419,337,419,305 F,0,38421,41421,1 F,0,41421,41883,1,0
Sprite,Foreground,Centre,"SB\lyricparuparu.png",320,240 F,0,40498,40729,0,1 M,0,40498,41883,519,244,520,256 F,0,40729,41421,1 F,0,41421,41883,1,0
Sprite,Foreground,Centre,"SB\lyric12_1.png",320,240 F,0,41998,42113,0,1 S,0,41998,42113,1.15,1 M,0,41998,45806,366,133,366,163 F,0,42113,45344,1 F,0,45344,45806,1,0
Sprite,Foreground,Centre,"SB\lyric12_2.png",320,240 F,0,42460,42575,0,1 S,0,42460,42575,1.15,1 M,0,42460,45806,412,136,412,164 F,0,42575,45344,1 F,0,45344,45806,1,0
Sprite,Foreground,Centre,"SB\lyric12_3.png",320,240 F,0,42806,43037,0,1 M,0,42806,45806,531,139,532,167 F,0,43037,45344,1 F,0,45344,45806,1,0
Sprite,Foreground,Centre,"SB\lyric13.png",320,240 F,0,59883,60113,0,1 M,0,59883,63806,381,128,417,127 F,0,60113,63344,1 F,0,63344,63806,1,0
Sprite,Foreground,Centre,"SB\lyric14.png",320,240 F,0,63575,63806,0,1 M,0,63575,67498,441,199,410,200 F,0,63806,67037,1 F,0,67037,67498,1,0
Sprite,Foreground,Centre,"SB\lyric15.png",320,240 F,0,67267,67498,0,1 M,0,67267,71190,350,272,383,273 F,0,67498,70729,1 F,0,70729,71190,1,0
Sprite,Foreground,Centre,"SB\lyric16.png",320,240 F,0,70960,71190,0,1 M,0,70960,74883,346,355,311,355 F,0,71190,74421,1 F,0,74421,74883,1,0
Sprite,Foreground,Centre,"SB\lyric17.png",320,240 F,0,74652,74883,0,1 M,0,74652,78575,359,103,391,103 F,0,74883,78113,1 F,0,78113,78575,1,0
Sprite,Foreground,Centre,"SB\lyric18.png",320,240 F,0,78344,78575,0,1 M,0,78344,82267,395,181,360,181 F,0,78575,81806,1 F,0,81806,82267,1,0
Sprite,Foreground,Centre,"SB\lyric32_5.png",320,240 F,0,147575,147806,0,1 M,0,147806,,605,145 F,0,147806,148729,1 F,0,148729,149190,1,0
Sprite,Foreground,Centre,"SB\lyric19.png",320,240 F,0,82037,82267,0,1 M,0,82037,85960,325,277,359,278 F,0,82267,85498,1 F,0,85498,85960,1,0
Sprite,Foreground,Centre,"SB\lyric20_.png",320,240 F,0,85729,85960,0,1 M,0,85729,89652,339,375,307,376 F,0,85960,89190,1 F,0,89190,89652,1,0
Sprite,Foreground,Centre,"SB\lyric21and23_1.png",320,240 F,0,89421,89652,0,1 M,0,89421,96575,177,82,178,129 F,0,89652,96113,1 F,0,96113,96575,1,0
Sprite,Foreground,Centre,"SB\lyric21_2.png",320,240 F,0,90344,90575,0,1 M,0,90344,96575,403,207,404,173 F,0,90575,96113,1 F,0,96113,96575,1,0
Sprite,Foreground,Centre,"SB\lyric22and24_1.png",320,240 F,0,96806,97037,0,1 M,0,96806,103960,239,268,197,268 F,0,97037,103498,1 F,0,103498,103960,1,0
Sprite,Foreground,Centre,"SB\lyric22_2.png",320,240 F,0,97729,97960,0,1 M,0,97729,103960,359,320,390,320 F,0,97960,103498,1 F,0,103498,103960,1,0
Sprite,Foreground,Centre,"SB\lyric21and23_1.png",320,240 F,0,104190,104421,0,1 M,0,104190,111344,430,101,479,102 F,0,104421,110883,1 F,0,110883,111344,1,0
Sprite,Foreground,Centre,"SB\lyric23_2.png",320,240 F,0,105113,105344,0,1 M,0,105113,111344,395,156,284,156 F,0,105344,110883,1 F,0,110883,111344,1,0
Sprite,Foreground,Centre,"SB\lyric22and24_1.png",320,240 F,0,111575,111806,0,1 M,0,111575,119190,164,339,164,291 F,0,111806,118729,1 F,0,118729,119190,1,0
Sprite,Foreground,Centre,"SB\lyric24_2.png",320,240 F,0,112498,112729,0,1 M,0,112498,119190,401,225,398,251 F,0,112729,118729,1 F,0,118729,119190,1,0
Sprite,Foreground,Centre,"SB\lyric25.png",320,240 F,0,119421,119652,0,1 M,0,119421,123113,226,123,258,123 F,0,119652,122652,1 F,0,122652,123113,1,0
Sprite,Foreground,Centre,"SB\lyricparuparu.png",320,240 F,0,121729,121960,0,1 M,0,121729,123113,406,181,373,181 F,0,121960,122652,1 F,0,122652,123113,1,0
Sprite,Foreground,Centre,"SB\lyric26.png",320,240 F,0,123113,123344,0,1 M,0,123113,126575,429,245,472,245 F,0,123344,126113,1 F,0,126113,126575,1,0
Sprite,Foreground,Centre,"SB\lyric27.png",320,240 F,0,126806,127037,0,1 M,0,126806,130498,293,348,263,349 F,0,127037,130037,1 F,0,130037,130498,1,0
Sprite,Foreground,Centre,"SB\lyricparuparu.png",320,240 F,0,129113,129344,0,1 M,0,129113,130498,174,403,197,404 F,0,129344,130037,1 F,0,130037,130152,1 F,0,130152,130498,1,0
Sprite,Foreground,Centre,"SB\lyric28.png",320,240 F,0,130498,130729,0,1 M,0,130498,133960,377,445,410,445 F,0,130729,133498,1 F,0,133498,133960,1,0
Sprite,Foreground,Centre,"SB\lyric29.png",320,240 F,0,134190,134421,0,1 M,0,134190,137883,438,99,440,131 F,0,134421,137405,1 F,0,137405,137883,1,0
Sprite,Foreground,Centre,"SB\lyricparuparu.png",320,240 F,0,136498,136729,0,1 M,0,136498,137883,516,183,517,167 F,0,136729,137421,1 F,0,137421,137883,1,0
Sprite,Foreground,Centre,"SB\lyric30_.png",320,240 F,0,137883,138113,0,1 M,0,137883,141344,207,220,207,193 F,0,138113,140883,1 F,0,140883,141344,1,0
Sprite,Foreground,Centre,"SB\lyric31.png",320,240 F,0,141575,141806,0,1 M,0,141575,145267,387,357,387,332 F,0,141806,144806,1 F,0,144806,145267,1,0
Sprite,Foreground,Centre,"SB\lyricparuparu.png",320,240 F,0,143883,144113,0,1 M,0,143883,145267,516,377,516,393 F,0,144113,144806,1 F,0,144806,145267,1,0
Sprite,Foreground,Centre,"SB\lyric32_1.png",320,240 M,0,145383,,304,143 S,0,145383,145498,0.8,1.2 F,0,145383,145613,0,1 S,0,145498,145613,1.2,1 F,0,145498,148729,1 F,0,148729,149190,1,0
Sprite,Foreground,Centre,"SB\lyric32_2.png",320,240 M,0,145844,,410,142 S,0,145844,145960,0.8,1.2 F,0,145844,146075,0,1 S,0,145960,146075,1.2,1 F,0,145960,148729,1 F,0,148729,149190,1,0
Sprite,Foreground,Centre,"SB\lyric32_3.png",320,240 S,0,146306,146421,1.58,1.98 F,0,146306,146537,0,1 M,0,146421,,499,144 S,0,146421,146537,1.98,1.78 F,0,146537,148729,1 F,0,148729,149190,1,0
Sprite,Foreground,Centre,"SB\lyric32_4.png",320,240 M,0,147344,,546,146 F,0,147344,147575,0,1 F,0,147575,148729,1 F,0,148729,149190,1,0
//Storyboard Sound Samples
//Background Colour Transformations
3,100,163,162,255

[TimingPoints]
1037,461.538461538462,4,1,0,60,1,0
89652,-100,4,1,0,60,0,0
89652,-100,4,1,0,60,0,1
89767,-100,4,1,0,60,0,0
119190,-100,4,1,0,60,0,1
148729,-100,4,1,0,60,0,0

[Colours]
Combo1 : 201,201,201
Combo2 : 196,136,255
Combo3 : 150,186,226
Combo4 : 255,255,162
SliderBorder : 70,70,255

[HitObjects]
256,192,13960,12,4,15806
248,156,16267,5,8
192,72,16729,1,0
124,148,17190,1,0
124,148,17421,2,0,B|178:175|156:230,2,100,8|0|8
76,160,18575,2,0,B|28:175,4,50,0|0|8|0|4
168,204,19960,5,8
244,272,20421,1,0
288,184,20883,1,0
288,184,21113,2,0,B|346:203|369:148,2,100,8|0|8
288,184,22267,2,0,B|256:85,1,100,0|8
348,128,23190,1,4
404,212,23652,5,8
464,292,24113,1,0
364,280,24575,1,0
364,280,24806,2,0,B|306:299|283:244,2,100,8|0|8
384,236,25960,2,0,B|406:191,4,50,0|0|8|0|4
296,208,27344,5,8
224,140,27806,1,0
132,180,28267,1,0
132,180,28498,2,0,B|104:125|49:148,2,100,0|0|8
132,180,29652,2,0,B|224:228,1,100,0|8
288,152,30575,1,4
376,100,31037,6,0,B|344:208,1,100,8|0
316,292,31960,1,0
316,292,32190,2,0,B|258:311|235:256,2,100,8|0|8
316,292,33344,2,0,B|378:269,1,50,0|0
408,256,33806,2,0,B|470:233,2,50,8|0|4
384,160,34729,5,8
288,180,35190,1,0
192,204,35652,1,0
192,204,35883,2,0,B|215:258|160:286,2,100,0|0|8
192,204,37037,2,0,B|290:181,1,100,0|8
348,100,37960,1,4
432,44,38421,6,0,B|408:152,1,100,8|0
312,156,39344,1,0
312,156,39575,2,0,B|367:179|348:237,2,100,8|0|8
312,156,40729,2,0,B|267:178,1,50,0|0
224,200,41190,2,0,B|179:222,2,50,8|0|4
108,292,42113,5,0
152,320,42344,1,0
196,344,42575,1,8
292,320,43037,1,8
332,292,43267,2,0,B|391:311|414:255,1,100,0|8
416,156,44190,1,8
368,152,44421,2,0,B|309:133|286:189,1,100,4|8
256,92,45344,1,4
72,92,60113,5,4
148,156,60575,1,8
148,156,60806,1,0
148,156,61037,1,0
220,224,61498,2,8,B|260:188,1,50,8|0
316,108,62190,6,0,B|356:136,1,50,0|8
400,160,62652,1,8
400,160,62883,2,0,B|448:192,1,50
480,220,63344,1,8
384,240,63806,5,0
324,320,64267,2,0,B|372:352|368:352,2,50,8|0|0
300,224,65190,2,0,B|252:184,1,50,8|0
188,120,65883,1,0
188,120,66113,2,8,B|151:157,1,50
124,196,66575,1,0
124,196,67037,1,8
180,276,67498,5,4
276,244,67960,2,0,B|324:280,1,50,8|0
356,304,68421,1,0
384,208,68883,1,8
384,208,69113,1,0
388,108,69575,1,0
340,124,69806,2,0,B|296:88,3,50,8|8|0|0
312,44,70729,1,8
212,40,71190,6,0,B|172:88,3,50,0|0|8|0
180,128,72113,1,0
208,224,72575,1,8
208,224,72806,1,0
144,304,73267,5,0
144,304,73498,1,8
144,304,73729,2,0,B|88:272,1,50,8|0
28,208,74421,1,4
96,136,74883,6,0,B|147:118|197:158|197:158|207:99|264:78,1,200,8|0
345,68,76267,1,8
345,68,76498,1,0
355,167,76960,2,0,B|296:196,2,50,0|8|8
390,201,77652,1,0
441,286,78113,1,8
340,284,78575,6,0,B|284:300,4,50,0|8|0|0|0
284,200,79960,1,8
284,200,80190,1,0
192,164,80652,2,0,B|132:200,2,50,0|8|8
212,212,81344,1,0
256,300,81806,1,8
168,348,82267,5,4
80,304,82729,2,0,B|104:240,2,50,8|0|0
168,348,83652,1,8
168,348,83883,1,0
264,324,84344,2,0,B|236:268|240:268,3,50,0|8|8|0
300,196,85498,1,8
244,116,85960,6,0,B|196:152,1,50
168,112,86421,2,0,B|125:151,1,50,8|0
130,145,86883,1,0
88,236,87344,2,0,B|140:260|136:260,1,50,8|0
232,264,88036,5,0
256,308,88267,1,8
308,308,88498,1,8
332,264,88729,1,4
308,220,88960,1,4
256,220,89190,1,12
324,144,89652,5,4
136,76,90575,2,0,B|92:100|104:160,2,75,8|0|8
188,76,91498,2,0,B|232:100|220:160,2,75,0|8|0
160,32,92421,1,4
292,104,93113,5,0
292,104,93344,1,4
164,260,94267,6,0,B|64:260,1,100,0|8
64,208,94960,1,8
64,208,95190,2,0,B|64:152|112:116|172:128|196:176|180:228,1,200,0|4
260,140,96575,1,8
292,236,97036,5,4
488,276,97960,2,0,B|444:300|456:360,2,75,8|0|8
488,224,98883,2,0,B|445:201|455:163,2,75,0|8|0
448,256,99806,1,4
304,292,100498,5,0
304,292,100729,2,0,B|268:360|236:292,1,100
240,192,101652,1,0
340,196,102113,1,8
344,96,102575,2,0,B|244:96,1,100
244,96,103498,1,8
168,164,103960,1,8
92,232,104421,5,4
288,276,105344,2,0,B|244:300|256:360,2,75,8|0|8
340,276,106267,2,0,B|330:313|374:337,2,75,0|8|0
312,236,107190,1,4
284,88,107883,5,0
284,88,108113,1,4
248,284,109036,6,0,B|140:284,1,100,0|8
112,252,109729,1,8
112,252,109960,2,0,B|172:184|100:116|24:184,1,200,0|8
24,288,111344,1,0
24,188,111806,5,4
188,72,112729,6,0,B|272:140|276:140,2,100,0|0|8
148,40,113883,2,0,B|116:88,1,50
92,124,114344,1,0
92,124,114575,1,8
80,272,115267,6,0,B|112:232|112:236,1,50
212,224,115960,1,8
280,296,116421,2,0,B|320:328,1,50
360,360,116883,1,8
388,264,117344,2,8,B|452:276|484:212,1,100,0|8
432,136,118267,2,0,B|368:124|336:188,1,100,0|8
248,192,119190,1,4
172,260,119652,5,8
100,188,120113,1,0
200,172,120575,1,0
200,172,120806,2,0,B|257:152|280:207,2,100,8|0|8
164,136,121960,2,0,B|127:101,4,50,0|0|8|0|4
260,116,123344,5,8
324,40,123806,1,0
416,76,124267,1,0
416,76,124498,2,0,B|471:99|452:157,2,100,8|0|8
416,76,125652,2,0,B|361:99|356:160,1,100,0|8
304,236,126575,1,4
240,312,127036,5,8
240,212,127498,1,0
144,176,127960,1,0
144,176,128190,2,0,B|166:231|112:258,2,100,8|0|8
144,176,129344,2,0,B|96:159,1,50
96,108,129806,2,0,B|144:91,1,50,8|0
144,40,130267,1,4
240,72,130729,6,0,B|344:104,1,100,8|0
364,196,131652,1,0
364,196,131882,2,0,B|336:250|281:227,2,100,8|0|8
364,196,133037,2,0,B|460:236,1,100,0|8
428,140,133960,1,4
328,120,134421,6,0,B|293:116|313:65|253:57|253:57,1,100,8|0
224,144,135344,1,0
224,144,135575,2,0,B|246:199|192:226,2,100,8|0|8
224,144,136729,2,0,B|176:127,1,50
128,136,137190,2,0,B|82:157,1,50,8|0
36,176,137652,1,4
76,268,138113,5,8
176,280,138574,1,0
244,208,139037,1,0
244,208,139267,2,0,B|305:215|316:156,2,100,8|0|8
244,208,140421,2,0,B|192:304,1,100,0|8
124,224,141344,1,4
168,136,141807,5,8
268,136,142267,1,0
368,136,142729,1,0
368,136,142960,2,0,B|428:168|408:232|408:232,1,100,8|0
376,312,143883,1,8
332,288,144113,2,0,B|276:260,4,50,0|0|8|0|4
248,344,145498,6,0,B|216:284,1,50
184,268,145960,2,0,B|224:160,1,100
268,172,146652,2,0,B|224:64,1,100,4|4
324,112,147575,1,4
364,140,147806,5,0
416,228,148267,1,0
364,312,148729,1,4
