osu file format v12

[General]
AudioFilename: saaaaaa.mp3
AudioLeadIn: 1000
PreviewTime: 98504
Countdown: 0
SampleSet: Normal
StackLeniency: 0.7
Mode: 0
LetterboxInBreaks: 0

[Editor]
DistanceSpacing: 1.2
BeatDivisor: 4
GridSize: 4

[Metadata]
Title:Oueisaien
TitleUnicode:桜影彩艶
Artist:EastNewSound
ArtistUnicode:EastNewSound
Creator:hoLysoup
Version:Lunatic
Source:Touhou
Tags:Chata c80 solitude blossom yuyuko saigyouji
BeatmapID:158663
BeatmapSetID:46483

[Difficulty]
HPDrainRate:7
CircleSize:4
OverallDifficulty:7
ApproachRate:8
SliderMultiplier:1.6
SliderTickRate:1

[Events]
//Background and Video events
0,0,"BG.png",0,0
//Break Periods
2,99356,112319
//Storyboard Layer 0 (Background)
//Storyboard Layer 1 (Fail)
//Storyboard Layer 2 (Pass)
//Storyboard Layer 3 (Foreground)
//Storyboard Sound Samples
//Background Colour Transformations
3,100,163,162,255

[TimingPoints]
1765,434.782608695652,4,1,0,100,1,0
1765,-200,4,1,1,60,0,0
2634,-100,4,1,1,5,0,0
3504,-200,4,1,1,50,0,0
4373,-100,4,1,1,5,0,0
5243,-200,4,1,1,50,0,0
5678,-100,4,2,1,50,0,0
5895,-200,4,2,1,50,0,0
6112,-200,4,1,1,40,0,0
6221,-200,4,2,1,50,0,0
6764,-200,4,2,1,50,0,0
6982,-200,4,1,1,50,0,0
7091,-100,4,2,1,50,0,0
7417,-100,4,2,1,50,0,0
8721,-200,4,1,1,50,0,0
8830,-200,4,2,1,50,0,0
10460,-200,4,1,1,50,0,0
10569,-100,4,2,1,50,0,0
12199,-200,4,1,1,50,0,0
12308,-200,4,2,1,50,0,0
13069,-200,4,1,1,50,0,0
13178,-200,4,2,1,50,0,0
13938,-200,4,1,1,50,0,0
14046,-100,4,2,1,50,0,0
15460,-100,4,1,1,30,0,0
15678,-200,4,1,1,50,0,0
15786,-200,4,2,1,50,0,0
19156,-200,4,2,1,50,0,0
28069,-100,4,1,1,30,0,0
28504,-100,4,1,1,40,0,0
28938,-100,4,1,1,45,0,0
29156,-200,4,1,1,50,0,0
29591,-100,4,2,2,80,0,0
29699,-100,4,2,1,60,0,0
43504,-100,4,2,2,60,0,0
43830,-100,4,2,2,50,0,0
57417,-100,4,2,1,50,0,0
70460,-100,4,1,1,50,0,0
71330,-100,4,1,1,45,0,0
78721,-200,4,1,1,45,0,0
79047,-100,4,1,1,30,0,0
80895,-100,4,1,1,50,0,0
84373,-100,4,1,1,40,0,0
84482,-100,4,1,1,50,0,0
85243,-100,4,2,2,55,0,0
99156,-100,4,1,1,60,0,0
113069,-100,4,1,1,60,0,0
113178,-100,4,2,1,60,0,0
120025,-100,4,1,1,60,0,0
125243,-100,4,1,1,35,0,0
125678,-100,4,1,1,45,0,0
126112,-100,4,1,1,55,0,0
126546,-100,4,1,1,60,0,0
126982,-100,4,1,1,55,0,1
131764,-100,4,2,1,60,0,1
132199,-100,4,1,1,55,0,1
132851,-100,4,1,1,55,0,1
133938,-100,4,1,1,60,0,1
140460,-100,4,2,1,60,0,1
140786,-100,4,2,1,60,0,0
140895,-100,4,1,1,60,0,1
145678,-100,4,2,1,60,0,1
146112,-100,4,1,1,60,0,1
154808,-100,4,1,1,70,0,0

[Colours]
Combo1 : 240,81,81
Combo2 : 172,251,202
Combo3 : 175,210,254
Combo4 : 32,255,143

[HitObjects]
128,84,1765,2,0,B|208:64|288:84,1,160,4|0,0:0|0:0,0:0:0:0:
384,300,3504,2,0,B|304:320|224:300,1,160,0|0,0:0|0:0,0:0:0:0:
104,64,5243,6,0,B|88:100|96:152,1,80
128,224,5895,1,2,0:0:0:0:
128,224,6112,2,0,B|256:220,1,120,0|0,0:0|0:0,0:0:0:0:
328,264,6982,2,0,B|356:204|360:132,1,120,0|0,0:0|0:0,0:0:0:0:
144,56,8721,6,0,B|120:88|112:140,1,80,0|0,0:0|0:0,0:0:0:0:
200,136,9373,2,0,B|192:204|156:256,1,120
72,244,10243,1,0,0:0:0:0:
72,244,10460,2,0,B|92:304|144:344,1,120
304,336,11547,5,0,0:0:0:0:
396,304,11764,1,0,0:0:0:0:
364,216,11982,1,0,0:0:0:0:
272,248,12199,2,0,B|232:264,2,40
364,216,12851,1,0,0:0:0:0:
364,216,13069,2,0,B|372:144|364:88,1,120,0|0,0:0|0:0,0:0:0:0:
296,44,13938,2,0,B|220:32|132:44,1,160,0|0,0:0|0:0,0:0:0:0:
144,240,15460,5,0,0:0:0:0:
104,312,15678,2,0,B|152:316|192:344,1,80,4|0,0:0|0:0,0:0:0:0:
260,312,16330,2,0,B|256:240|292:184,1,120,2|0,0:0|0:0,0:0:0:0:
236,124,17199,1,0,0:0:0:0:
236,124,17417,2,0,B|164:116|112:128,1,120,2|0,0:0|0:0,0:0:0:0:
308,56,18938,5,0,0:0:0:0:
388,32,19156,2,0,B|428:24|472:40,1,80,2|0,0:0|0:0,0:0:0:0:
368,112,19808,2,0,B|344:172|360:232,1,120,2|0,0:0|0:0,0:0:0:0:
436,196,20678,2,0,B|456:256|444:316,1,120,2|0,0:0|0:0,0:0:0:0:
232,300,22199,6,0,B|200:324,1,40
232,300,22634,2,0,B|248:248|240:208,1,80,2|0,0:0|0:0,0:0:0:0:
268,148,23286,2,0,B|324:128|392:136,1,120,2|0,0:0|0:0,0:0:0:0:
420,212,24156,2,0,B|444:272|432:344,1,120,2|0,0:0|0:0,0:0:0:0:
156,192,25460,5,0,0:0:0:0:
84,128,25678,1,0,0:0:0:0:
148,60,25895,1,0,0:0:0:0:
220,124,26112,2,0,B|264:120,2,40,2|0|0,0:0|0:0|0:0,0:0:0:0:
156,192,26764,2,0,B|152:232|160:288,1,80
176,352,27417,1,0,0:0:0:0:
256,336,27634,2,0,B|312:336|348:324,1,80
412,268,28286,5,0,0:0:0:0:
340,200,28504,1,0,0:0:0:0:
420,124,28721,1,0,0:0:0:0:
312,40,28938,1,0,0:0:0:0:
184,112,29156,1,0,0:0:0:0:
164,112,29264,1,0,0:0:0:0:
144,112,29373,1,0,0:0:0:0:
124,112,29482,1,0,0:0:0:0:
104,112,29591,6,0,B|64:184|64:268,1,160,4|8,0:0|0:0,0:0:0:0:
408,272,30460,2,0,B|448:200|448:116,1,160,0|8,0:0|0:0,0:0:0:0:
372,60,31112,2,0,B|292:44,1,80,0|2,0:0|0:0,0:0:0:0:
172,84,31547,2,0,B|236:132,1,80,0|8,0:0|0:0,0:0:0:0:
332,148,31982,2,0,B|352:232|348:312,1,160
456,272,32634,1,8,0:0:0:0:
348,308,32851,1,0,0:0:0:0:
348,308,32960,2,0,B|284:304|232:328,1,120,2|0,0:0|0:0,0:0:0:0:
240,232,33504,6,0,B|272:148|272:72,1,160,8|0,0:0|0:0,0:0:0:0:
352,152,34156,1,0,0:0:0:0:
172,40,34373,1,8,0:0:0:0:
172,40,34482,1,0,0:0:0:0:
96,116,34699,1,0,0:0:0:0:
96,116,34808,2,0,B|95:187|127:271,1,160,2|8,0:0|0:0,0:0:0:0:
224,332,35460,6,0,B|280:332|308:312,1,80
364,196,35895,2,0,B|308:196|280:216,1,80,0|8,0:0|0:0,0:0:0:0:
184,236,36330,1,0,0:0:0:0:
184,236,36438,1,0,0:0:0:0:
184,236,36547,2,0,B|164:156|172:68,1,160,2|8,0:0|0:0,0:0:0:0:
256,32,37199,5,0,0:0:0:0:
256,32,37308,1,0,0:0:0:0:
256,32,37417,2,0,B|296:16|340:16,1,80
424,56,37851,1,8,0:0:0:0:
384,272,38069,2,0,B|376:232|384:188,1,80,0|2,0:0|0:0,0:0:0:0:
296,176,38504,2,0,B|272:140|208:124,2,80,0|8|0,0:0|0:0|0:0,0:0:0:0:
40,200,39156,6,0,B|20:240|44:280,1,80,2|0,0:0|0:0,0:0:0:0:
104,160,39482,2,0,B|79:122|32:123,1,80,2|0,0:0|0:0,0:0:0:0:
104,236,39808,2,0,B|148:233|171:192,1,80,2|0,0:0|0:0,0:0:0:0:
268,72,40351,6,0,B|328:56|388:56,2,120,2|0|0,0:0|0:0|0:0,0:0:0:0:
172,180,41330,2,0,B|116:156|80:100,2,120,2|0|0,0:0|0:0|0:0,0:0:0:0:
320,168,42308,2,0,B|340:228|344:312,2,120,2|0|0,0:0|0:0|0:0,0:0:0:0:
328,136,43069,2,2,B|352:124,7,20
296,104,43504,6,0,B|268:72|208:52,1,80,4|0,0:0|0:0,0:0:0:0:
229,60,43830,1,0,0:0:0:0:
229,60,43938,1,8,0:0:0:0:
76,88,44156,2,0,B|108:124|168:140,1,80,0|2,0:0|0:0,0:0:0:0:
142,132,44482,1,0,0:0:0:0:
142,132,44590,1,0,0:0:0:0:
220,204,44808,2,0,B|220:252|204:288,1,80,8|0,0:0|0:0,0:0:0:0:
272,352,45243,6,0,B|316:364|360:356,1,80,2|0,0:0|0:0,0:0:0:0:
351,357,45569,1,0,0:0:0:0:
351,357,45678,1,8,0:0:0:0:
496,272,45895,2,0,B|452:260|408:268,1,80,0|2,0:0|0:0,0:0:0:0:
416,266,46221,1,0,0:0:0:0:
416,266,46330,1,0,0:0:0:0:
308,264,46547,2,0,B|300:220|304:176,1,80,8|0,0:0|0:0,0:0:0:0:
416,173,46982,6,0,B|419:121|411:93,1,80,2|0,0:0|0:0,0:0:0:0:
327,45,47417,2,0,B|290:60|245:64,1,80,8|0,0:0|0:0,0:0:0:0:
249,63,47743,1,0,0:0:0:0:
249,63,47851,1,2,0:0:0:0:
138,89,48069,2,0,B|157:121|196:144,1,80,0|8,0:0|0:0,0:0:0:0:
285,178,48504,1,0,0:0:0:0:
285,178,48612,2,0,B|286:237|264:300,1,120,2|0,0:0|0:0,0:0:0:0:
180,340,49156,6,0,B|115:285|36:257,1,160,8|2,0:0|0:0,0:0:0:0:
118,199,49808,1,0,0:0:0:0:
120,52,50025,1,8,0:0:0:0:
120,52,50134,1,0,0:0:0:0:
248,144,50351,1,0,0:0:0:0:
248,144,50460,2,0,B|280:118|326:107,1,80,2|0,0:0|0:0,0:0:0:0:
452,165,50895,6,0,B|419:88|365:26,1,160,8|2,0:0|0:0,0:0:0:0:
359,204,51547,1,0,0:0:0:0:
442,321,51764,1,8,0:0:0:0:
442,321,51873,1,0,0:0:0:0:
270,267,52091,1,0,0:0:0:0:
270,267,52199,2,0,B|241:291|193:300,1,80,2|0,0:0|0:0,0:0:0:0:
104,280,52634,6,0,B|56:216|44:128,1,160,8|0,0:0|0:0,0:0:0:0:
116,40,53286,2,0,B|152:60|168:100,1,80,0|8,0:0|0:0,0:0:0:0:
228,200,53721,1,0,0:0:0:0:
228,200,53830,2,0,B|284:180|324:132,1,120,2|0,0:0|0:0,0:0:0:0:
260,60,54373,5,8,0:0:0:0:
344,248,54591,1,0,0:0:0:0:
192,124,54808,1,2,0:0:0:0:
416,184,55025,1,0,0:0:0:0:
368,80,55243,5,8,0:0:0:0:
368,80,55351,1,0,0:0:0:0:
368,80,55460,1,0,0:0:0:0:
368,80,55569,2,0,B|312:112|280:184,2,120,2|0|0,0:0|0:0|0:0,0:0:0:0:
220,148,56547,2,0,B|276:180|308:252,2,120,2|0|0,0:0|0:0|0:0,0:0:0:0:
220,148,57417,5,4,0:0:0:0:
140,96,57634,1,0,0:0:0:0:
80,172,57851,2,0,B|56:208|48:248,1,80,2|0,0:0|0:0,0:0:0:0:
160,368,58286,2,0,B|184:332|192:292,1,80
216,184,58721,1,2,0:0:0:0:
284,80,58938,5,0,0:0:0:0:
284,80,59047,1,0,0:0:0:0:
284,80,59156,2,0,B|320:104|348:140,1,80
216,184,59591,1,2,0:0:0:0:
144,116,59808,1,0,0:0:0:0:
144,116,59917,2,0,B|88:100|20:104,1,120
96,228,60460,6,0,B|120:264|120:308,1,80,2|0,0:0|0:0,0:0:0:0:
164,324,60786,2,0,B|304:340,1,120
368,292,61330,2,0,B|416:224|436:140,1,160,2|0,0:0|0:0,0:0:0:0:
372,72,61982,1,0,0:0:0:0:
232,108,62199,1,2,0:0:0:0:
232,108,62308,1,0,0:0:0:0:
360,188,62525,1,0,0:0:0:0:
360,188,62634,2,0,B|316:184|280:208,1,80
436,120,63069,6,0,B|472:196|476:280,1,160,2|0,0:0|0:0,0:0:0:0:
408,344,63721,1,0,0:0:0:0:
408,344,63830,1,0,0:0:0:0:
408,344,63938,1,2,0:0:0:0:
324,296,64156,1,0,0:0:0:0:
352,204,64373,1,0,0:0:0:0:
104,80,66112,6,0,B|88:120|88:164,1,80,4|0,0:0|0:0,0:0:0:0:
164,244,66547,1,2,0:0:0:0:
164,244,66656,2,0,B|180:204|180:160,1,80
216,132,66982,1,0,0:0:0:0:
404,88,67199,2,0,B|376:68,4,20
460,168,67634,1,0,0:0:0:0:
444,344,67851,6,0,B|460:304|460:260,1,80
384,180,68286,1,2,0:0:0:0:
384,180,68395,2,0,B|368:220|368:264,1,80
332,292,68721,1,0,0:0:0:0:
264,208,68938,1,0,0:0:0:0:
188,360,69156,1,2,0:0:0:0:
120,276,69373,1,0,0:0:0:0:
120,276,69591,2,0,B|88:204|108:120,1,160,0|2,0:0|0:0,0:0:0:0:
400,84,70460,5,0,0:0:0:0:
460,184,70678,1,0,0:0:0:0:
364,248,70895,1,8,0:0:0:0:
344,236,71004,1,0,0:0:0:0:
324,224,71112,1,0,0:0:0:0:
304,212,71221,1,0,0:0:0:0:
284,200,71330,6,0,B|252:168|216:156,1,80,4|0,0:0|0:0,0:0:0:0:
192,28,71764,2,0,B|224:60|260:72,1,80,12|0,0:0|0:0,0:0:0:0:
128,112,72199,1,0,0:0:0:0:
192,264,72417,1,0,0:0:0:0:
272,108,72634,2,0,B|304:80|348:72,1,80,8|0,0:0|0:0,0:0:0:0:
342,72,72960,1,0,0:0:0:0:
342,72,73069,1,0,0:0:0:0:
448,196,73286,2,0,B|452:236|472:272,2,80,0|8|0,0:0|0:0|0:0,0:0:0:0:
448,196,73830,1,0,0:0:0:0:
448,196,73938,1,0,0:0:0:0:
360,156,74156,6,0,B|320:148|288:124,1,80,0|8,0:0|0:0,0:0:0:0:
340,264,74591,1,0,0:0:0:0:
340,264,74699,2,0,B|280:264|208:288,1,120
276,184,75243,2,0,B|224:116|208:32,1,160,8|0,0:0|0:0,0:0:0:0:
120,80,75895,1,0,0:0:0:0:
364,120,76112,2,0,B|396:144|416:180,1,80,8|0,0:0|0:0,0:0:0:0:
424,276,76547,5,0,0:0:0:0:
352,340,76764,1,0,0:0:0:0:
264,264,76982,1,8,0:0:0:0:
264,264,77091,2,0,B|224:256|176:264,2,80
308,248,77634,1,0,0:0:0:0:
392,88,77851,1,8,0:0:0:0:
300,116,78069,1,0,0:0:0:0:
300,116,78178,1,0,0:0:0:0:
300,116,78286,2,0,B|272:88|260:48,1,80
376,176,78721,6,0,B|400:212|408:248,1,80,8|0,0:0|0:0,0:0:0:0:
380,216,80895,5,0,0:0:0:0:
312,152,81112,1,0,0:0:0:0:
228,200,81330,2,0,B|220:232,7,20
228,200,81764,6,0,B|192:164|152:156,1,80,4|0,0:0|0:0,0:0:0:0:
48,240,82199,2,0,B|84:276|124:284,1,80,12|0,0:0|0:0,0:0:0:0:
76,160,82634,2,0,B|68:112|76:76,1,80
204,288,83069,2,0,B|212:336|204:372,1,80,8|0,0:0|0:0,0:0:0:0:
132,224,83504,5,0,0:0:0:0:
224,68,83938,1,0,0:0:0:0:
380,160,84373,1,0,0:0:0:0:
288,316,84808,1,0,0:0:0:0:
288,316,85025,1,0,0:0:0:0:
196,296,85243,6,0,B|160:308|116:308,1,80,6|0,0:0|0:0,0:0:0:0:
316,88,85678,2,0,B|352:76|396:76,1,80,8|0,0:0|0:0,0:0:0:0:
152,132,86112,2,0,B|140:96|140:52,1,80,2|0,0:0|0:0,0:0:0:0:
360,252,86547,2,0,B|372:288|372:332,1,80,8|0,0:0|0:0,0:0:0:0:
276,308,86982,5,2,0:0:0:0:
224,228,87199,1,0,0:0:0:0:
144,284,87417,2,0,B|112:304|68:304,1,80,8|0,0:0|0:0,0:0:0:0:
112,172,87851,2,0,B|144:152|188:152,1,80,2|0,0:0|0:0,0:0:0:0:
292,244,88286,2,0,B|260:264|216:264,1,80,8|0,0:0|0:0,0:0:0:0:
268,168,88721,6,0,B|292:88|280:8,1,160,2|8,0:0|0:0,0:0:0:0:
192,52,89373,1,0,0:0:0:0:
152,140,89591,2,0,B|124:172|80:192,1,80,2|0,0:0|0:0,0:0:0:0:
360,244,90025,2,0,B|388:212|432:192,1,80,8|0,0:0|0:0,0:0:0:0:
416,44,90460,2,0,B|400:128|320:168,1,160,2|8,0:0|0:0,0:0:0:0:
244,108,91112,2,0,B|204:100|160:112,1,80,0|2,0:0|0:0,0:0:0:0:
44,208,91547,2,0,B|84:216|128:204,1,80,0|8,0:0|0:0,0:0:0:0:
220,196,91982,6,0,B|260:264|276:352,1,160,2|0,0:0|0:0,0:0:0:0:
300,160,92634,1,8,0:0:0:0:
300,160,92851,2,0,B|324:200|336:240,1,80,0|2,0:0|0:0,0:0:0:0:
264,80,93286,2,0,B|304:56|344:44,1,80,0|8,0:0|0:0,0:0:0:0:
212,148,93721,2,0,B|132:136|72:76,1,160,2|0,0:0|0:0,0:0:0:0:
72,76,94373,1,8,0:0:0:0:
208,328,94808,6,0,B|252:308|288:304,1,80,2|0,0:0|0:0,0:0:0:0:
376,332,95243,1,8,0:0:0:0:
384,236,95460,2,0,B|352:160|360:76,1,160
359,79,96112,1,8,0:0:0:0:
128,148,96330,2,0,B|160:224|152:308,1,160,2|0,0:0|0:0,0:0:0:0:
152,304,96982,1,8,0:0:0:0:
68,248,97199,6,0,B|152:212|236:220,1,160,2|0,0:0|0:0,0:0:0:0:
223,219,97743,1,0,0:0:0:0:
223,219,97851,1,8,0:0:0:0:
304,268,98069,1,0,0:0:0:0:
304,184,98286,2,0,B|348:168,6,26.6666666666667
304,184,99156,5,4,0:0:0:0:
96,80,113069,6,0,B|176:56|260:68,1,160,4|8,0:0|0:0,0:0:0:0:
416,304,113938,2,0,B|336:328|252:316,1,160,0|8,0:0|0:0,0:0:0:0:
416,176,114808,2,0,B|432:92|424:12,1,160,0|8,0:0|0:0,0:0:0:0:
96,208,115678,2,0,B|80:292|88:372,1,160,0|8,0:0|0:0,0:0:0:0:
260,128,116547,6,0,B|188:80|104:76,1,160,0|8,0:0|0:0,0:0:0:0:
252,304,117417,2,0,B|324:256|408:252,1,160,0|8,0:0|0:0,0:0:0:0:
168,176,118286,2,0,B|148:260|80:312,1,160,0|8,0:0|0:0,0:0:0:0:
352,208,119156,2,0,B|372:124|440:72,1,160,0|8,0:0|0:0,0:0:0:0:
256,192,120025,5,4,0:0:0:0:
256,192,121764,5,0,0:0:0:0:
256,192,123504,5,0,0:0:0:0:
256,192,124373,1,0,0:0:0:0:
372,336,125243,5,0,0:0:0:0:
372,336,125460,1,0,0:0:0:0:
460,192,125678,1,0,0:0:0:0:
460,192,125895,1,0,0:0:0:0:
372,48,126112,1,0,0:0:0:0:
372,48,126329,1,0,0:0:0:0:
288,192,126547,1,0,0:0:0:0:
268,192,126656,1,0,0:0:0:0:
248,192,126764,1,0,0:0:0:0:
228,192,126873,1,0,0:0:0:0:
208,192,126982,6,0,B|164:184|136:144,1,80,4|0,0:0|0:0,0:0:0:0:
228,40,127417,2,0,B|272:48|300:88,1,80,8|0,0:0|0:0,0:0:0:0:
332,344,127851,2,0,B|288:336|260:296,1,80,0|0,0:0|0:0,0:0:0:0:
388,204,128286,2,0,B|432:212|460:252,1,80,8|0,0:0|0:0,0:0:0:0:
304,152,128721,1,0,0:0:0:0:
236,84,128938,2,0,B|280:56|328:56,1,80,0|8,0:0|0:0,0:0:0:0:
208,180,129373,2,0,B|164:172|136:124,2,80
288,240,130025,1,8,0:0:0:0:
336,128,130243,5,0,0:0:0:0:
336,128,130351,1,0,0:0:0:0:
336,128,130460,2,0,B|312:88|312:48,1,80
452,96,130895,1,8,0:0:0:0:
464,136,131004,1,0,0:0:0:0:
468,176,131112,1,0,0:0:0:0:
464,216,131221,1,0,0:0:0:0:
448,252,131330,2,0,B|420:288|424:336,1,80
184,300,131764,2,2,B|152:312,4,26.6666666666667,8|2|2|2|2,0:0|0:0|0:0|0:0|0:0,0:0:0:0:
208,272,132199,6,0,B|292:244|376:248,1,160,6|10,0:0|0:0,0:0:0:0:
416,112,132851,1,0,0:0:0:0:
416,112,133069,2,2,B|420:153|440:189,1,80,0|2,0:0|0:0,0:0:0:0:
284,52,133504,1,8,0:0:0:0:
212,112,133721,1,2,0:0:0:0:
128,68,133938,6,0,B|88:80|64:120,1,80,4|0,0:0|0:0,0:0:0:0:
88,244,134373,2,0,B|128:232|152:192,1,80,8|0,0:0|0:0,0:0:0:0:
280,172,134808,2,0,B|301:135|341:123,1,80,0|0,0:0|0:0,0:0:0:0:
420,276,135243,2,0,B|398:312|358:324,1,80,8|0,0:0|0:0,0:0:0:0:
244,288,135678,2,0,B|176:248,2,80,0|0|8,0:0|0:0|0:0,0:0:0:0:
328,224,136330,2,0,B|372:208|420:208,2,80
260,156,136982,2,0,B|248:108|256:72,1,80,8|0,0:0|0:0,0:0:0:0:
140,48,137417,6,2,B|176:24,2,40
64,108,137851,2,2,B|28:184|28:268,1,160,8|2,0:0|0:0,0:0:0:0:
282,250,138504,2,2,B|204:240|124:260,1,160,2|2,0:0|0:0,0:0:0:0:
228,31,139156,2,2,B|224:116|176:180,1,160,2|10,0:0|0:0,0:0:0:0:
200,292,139808,5,2,0:0:0:0:
320,340,140025,1,0,0:0:0:0:
352,304,140134,1,0,0:0:0:0:
396,284,140243,1,2,0:0:0:0:
424,248,140351,1,0,0:0:0:0:
428,200,140460,2,2,B|456:188,7,20,8|0|0|0|0|0|0|0,0:0|0:0|0:0|0:0|0:0|0:0|0:0|0:0,0:0:0:0:
392,152,140895,6,0,B|396:108|388:68,1,80,6|0,0:0|0:0,0:0:0:0:
120,188,141330,2,0,B|116:144|124:104,1,80,8|0,0:0|0:0,0:0:0:0:
392,232,141764,2,0,B|396:276|388:316,1,80,2|0,0:0|0:0,0:0:0:0:
120,188,142199,2,0,B|116:232|124:272,1,80,8|0,0:0|0:0,0:0:0:0:
276,68,142634,6,0,B|316:48|352:48,1,80,2|0,0:0|0:0,0:0:0:0:
236,316,143069,2,0,B|196:336|160:336,1,80,8|0,0:0|0:0,0:0:0:0:
364,224,143504,2,0,B|380:264|404:292,1,80,2|0,0:0|0:0,0:0:0:0:
148,160,143938,2,0,B|132:120|108:92,1,80,8|0,0:0|0:0,0:0:0:0:
120,64,144264,1,0,0:0:0:0:
148,44,144373,5,2,0:0:0:0:
232,208,144591,1,0,0:0:0:0:
364,224,144808,1,8,0:0:0:0:
392,184,144917,1,0,0:0:0:0:
404,136,145025,1,0,0:0:0:0:
400,88,145134,1,0,0:0:0:0:
388,40,145243,2,0,B|348:16|312:8,1,80,2|0,0:0|0:0,0:0:0:0:
112,144,145678,2,2,B|80:168,5,26.6666666666667
136,112,146112,6,2,B|192:96|300:100,1,160,2|2,0:0|0:0,0:0:0:0:
448,164,146764,2,0,B|476:196|484:240,1,80,2|0,0:0|0:0,0:0:0:0:
384,104,147199,2,0,B|356:72|348:28,1,80,2|8,0:0|0:0,0:0:0:0:
320,184,147634,1,2,0:0:0:0:
320,184,147743,1,0,0:0:0:0:
320,184,147851,2,0,B|316:272|348:344,1,160,6|8,0:0|0:0,0:0:0:0:
232,156,148504,2,0,B|224:200|232:240,1,80,0|2,0:0|0:0,0:0:0:0:
260,72,148938,2,0,B|216:64|176:72,1,80,0|8,0:0|0:0,0:0:0:0:
348,104,149373,5,0,0:0:0:0:
348,104,149482,1,0,0:0:0:0:
348,104,149591,2,0,B|428:136|488:192,1,160,2|8,0:0|0:0,0:0:0:0:
328,328,150243,2,0,B|376:304|400:276,1,80,0|2,0:0|0:0,0:0:0:0:
264,240,150678,2,0,B|216:264|192:292,1,80,0|8,0:0|0:0,0:0:0:0:
352,208,151112,5,0,0:0:0:0:
352,208,151221,1,0,0:0:0:0:
352,208,151330,2,0,B|360:165|340:124,1,80,6|0,0:0|0:0,0:0:0:0:
136,48,151764,2,0,B|127:90|148:132,1,80,8|0,0:0|0:0,0:0:0:0:
208,208,152199,2,0,B|132:232,1,80,2|0,0:0|0:0,0:0:0:0:
48,184,152634,1,8,0:0:0:0:
288,92,152851,5,0,0:0:0:0:
288,92,152960,1,0,0:0:0:0:
288,92,153069,2,0,B|348:32,1,80,6|0,0:0|0:0,0:0:0:0:
472,96,153504,2,0,B|392:128,1,80,10|0,0:0|0:0,0:0:0:0:
380,220,153938,2,2,B|456:244,1,80,0|2,0:0|0:0,0:0:0:0:
328,352,154373,2,0,B|288:280,1,80,8|2,0:0|0:0,0:0:0:0:
256,192,154808,5,4,0:0:0:0:
