osu file format v12

[General]
AudioFilename: saaaaaa.mp3
AudioLeadIn: 1000
PreviewTime: 98504
Countdown: 0
SampleSet: Normal
StackLeniency: 0.7
Mode: 0
LetterboxInBreaks: 0

[Editor]
DistanceSpacing: 1
BeatDivisor: 4
GridSize: 4

[Metadata]
Title:Oueisaien
TitleUnicode:桜影彩艶
Artist:EastNewSound
ArtistUnicode:EastNewSound
Creator:hoLysoup
Version:Hard
Source:Touhou
Tags:Chata c80 solitude blossom yuyuko saigyouji
BeatmapID:145055
BeatmapSetID:46483

[Difficulty]
HPDrainRate:5
CircleSize:4
OverallDifficulty:5
ApproachRate:7
SliderMultiplier:1.4
SliderTickRate:1

[Events]
//Background and Video events
0,0,"BG.png",0,0
//Break Periods
2,99356,112169
//Storyboard Layer 0 (Background)
//Storyboard Layer 1 (Fail)
//Storyboard Layer 2 (Pass)
//Storyboard Layer 3 (Foreground)
//Storyboard Sound Samples
//Background Colour Transformations
3,100,163,162,255

[TimingPoints]
1765,434.782608695652,4,1,0,100,1,0
1765,-200,4,1,1,60,0,0
2634,-100,4,1,1,5,0,0
3504,-200,4,1,1,50,0,0
4373,-100,4,1,1,5,0,0
5243,-200,4,1,1,50,0,0
5678,-100,4,2,1,50,0,0
5895,-200,4,2,1,50,0,0
6112,-200,4,1,1,40,0,0
6221,-200,4,2,1,50,0,0
6982,-200,4,1,1,50,0,0
7091,-100,4,2,1,50,0,0
8721,-200,4,1,1,50,0,0
8830,-200,4,2,1,50,0,0
10460,-200,4,1,1,50,0,0
10569,-200,4,2,1,50,0,0
12199,-200,4,1,1,50,0,0
12308,-200,4,2,1,50,0,0
13069,-200,4,1,1,50,0,0
13504,-100,4,2,1,50,0,0
13938,-200,4,1,1,50,0,0
14156,-100,4,2,1,50,0,0
15678,-200,4,1,1,50,0,0
15786,-200,4,2,1,50,0,0
19156,-200,4,2,1,50,0,0
27851,-100,4,2,1,50,0,0
28069,-100,4,1,1,30,0,0
28504,-100,4,1,1,40,0,0
28938,-100,4,1,1,45,0,0
29156,-100,4,1,1,50,0,0
29591,-100,4,2,2,80,0,0
29699,-100,4,2,1,60,0,0
43504,-100,4,2,2,60,0,0
43830,-100,4,2,2,50,0,0
57417,-100,4,2,1,50,0,0
70460,-100,4,1,1,50,0,0
71330,-100,4,1,1,45,0,0
78938,-200,4,1,1,45,0,0
80895,-100,4,1,1,50,0,0
84373,-100,4,1,1,40,0,0
84482,-100,4,1,1,50,0,0
85243,-100,4,2,2,55,0,0
99156,-100,4,1,1,60,0,0
113069,-100,4,1,1,60,0,0
113178,-100,4,2,1,60,0,0
120025,-100,4,1,1,60,0,0
125243,-100,4,1,1,35,0,0
125678,-100,4,1,1,45,0,0
126112,-100,4,1,1,55,0,0
126546,-100,4,1,1,60,0,0
126982,-100,4,1,1,55,0,1
132199,-100,4,1,1,55,0,1
132851,-100,4,1,1,55,0,1
133938,-100,4,1,1,60,0,1
140460,-100,4,2,1,60,0,1
140786,-100,4,2,1,60,0,0
140895,-100,4,1,1,60,0,1
145678,-100,4,2,1,60,0,1
146112,-100,4,1,1,60,0,1
154808,-100,4,1,1,70,0,0

[Colours]
Combo1 : 240,81,81
Combo2 : 172,251,202
Combo3 : 175,210,254
Combo4 : 32,255,143

[HitObjects]
316,108,1765,2,0,B|364:156|360:248,1,140,4|0,0:0|0:0,0:0:0:0:
200,288,3504,2,0,B|152:240|156:148,1,140
316,108,5243,6,0,B|464:108,2,140
224,312,8721,6,0,B|144:312,1,70
172,244,9373,2,0,B|60:244,1,105
36,184,10243,2,0,B|12:112|40:44,1,140
236,88,11547,6,0,B|256:76|264:48,2,35
176,120,12199,2,0,B|148:168|152:224,1,105
176,276,13069,2,0,B|220:304|280:312,1,105
332,292,13938,2,0,B|372:244|380:192,1,105
196,140,15678,6,0,B|84:168,2,105
268,180,17417,2,0,B|300:128|316:72,2,105
208,316,19156,6,0,B|96:316,1,105
68,256,20025,2,0,B|180:256,1,105
236,264,20895,2,0,B|268:192|260:116,1,140
416,192,22634,6,0,B|448:144|456:80,2,105
332,208,24373,2,0,B|364:256|372:320,2,105
312,128,26112,2,0,B|232:100,1,70
172,64,26982,2,0,B|108:96,1,70
100,180,27851,6,0,B|72:248,1,70
168,236,28286,2,0,B|168:308,1,70
252,312,28721,1,0,0:0:0:0:
252,312,28938,1,0,0:0:0:0:
336,260,29156,2,0,B|364:280,3,35
336,260,29591,6,0,B|364:184|360:120,1,140,4|8,0:0|0:0,0:0:0:0:
212,48,30460,2,0,B|184:124|188:188,1,140,0|8,0:0|0:0,0:0:0:0:
132,248,31112,1,0,0:0:0:0:
132,248,31330,2,0,B|92:232|76:200,1,70
164,168,31764,2,0,B|236:156|316:164,2,140,8|0|8,0:0|0:0|0:0,0:0:0:0:
212,328,33069,6,0,B|140:340|60:332,2,140,0|8|0,0:0|0:0|0:0,0:0:0:0:
264,260,34156,1,0,0:0:0:0:
328,316,34373,2,0,B|360:256|372:180,1,140,8|0,0:0|0:0,0:0:0:0:
316,80,35025,1,0,0:0:0:0:
292,156,35243,2,0,B|228:184|152:184,2,140,8|0|8,0:0|0:0|0:0,0:0:0:0:
396,96,36330,5,0,0:0:0:0:
396,96,36547,2,0,B|444:148|460:228,1,140,0|8,0:0|0:0,0:0:0:0:
304,340,37417,2,0,B|256:288|240:208,1,140,0|8,0:0|0:0,0:0:0:0:
276,140,38069,1,0,0:0:0:0:
200,108,38286,2,0,B|212:72|212:40,2,70,0|0|8,0:0|0:0|0:0,0:0:0:0:
136,160,38938,1,0,0:0:0:0:
136,160,39156,2,0,B|124:240|152:304,1,140,0|8,0:0|0:0,0:0:0:0:
256,336,39808,5,0,0:0:0:0:
256,336,40025,2,0,B|236:284|240:232,2,105,2|0|0,0:0|0:0|0:0,0:0:0:0:
372,284,41004,2,0,B|432:272|480:252,2,105,2|0|0,0:0|0:0|0:0,0:0:0:0:
308,176,41982,2,0,B|280:132|228:100,2,105,2|0|0,0:0|0:0|0:0,0:0:0:0:
164,308,43069,2,2,B|160:336,7,17.5
164,308,43504,6,0,B|112:260|100:176,1,140,4|8,0:0|0:0,0:0:0:0:
152,120,44156,1,0,0:0:0:0:
152,120,44373,2,0,B|156:80|148:48,2,70,0|0|8,0:0|0:0|0:0,0:0:0:0:
224,164,45025,2,0,B|308:176|376:160,1,140,2|0,0:0|0:0,0:0:0:0:
363,162,45678,1,8,0:0:0:0:
280,308,46112,6,0,B|312:328|352:324,2,70,0|0|8,0:0|0:0|0:0,0:0:0:0:
224,244,46764,2,0,B|168:200|80:184,1,140,2|0,0:0|0:0,0:0:0:0:
97,187,47417,1,8,0:0:0:0:
240,96,47851,6,0,B|220:60|216:28,2,70,0|0|8,0:0|0:0|0:0,0:0:0:0:
312,140,48504,2,0,B|356:200|360:280,1,140,2|0,0:0|0:0,0:0:0:0:
359,269,49156,1,8,0:0:0:0:
196,308,49591,5,0,0:0:0:0:
196,308,49808,1,0,0:0:0:0:
116,328,50025,1,8,0:0:0:0:
76,252,50243,2,0,B|88:168|72:104,1,140,2|0,0:0|0:0,0:0:0:0:
140,60,50895,2,0,B|280:88,1,140,8|0,0:0|0:0,0:0:0:0:
320,160,51547,1,0,0:0:0:0:
392,120,51764,1,8,0:0:0:0:
392,120,51982,6,0,B|384:200|408:264,1,140,2|0,0:0|0:0,0:0:0:0:
405,258,52634,1,8,0:0:0:0:
192,292,53069,2,0,B|132:336,1,70
124,240,53504,1,8,0:0:0:0:
200,208,53721,2,0,B|172:140|180:64,1,140,2|0,0:0|0:0,0:0:0:0:
179,70,54373,1,8,0:0:0:0:
392,92,54808,6,0,B|428:84|456:56,2,70,0|0|8,0:0|0:0|0:0,0:0:0:0:
324,144,55460,2,0,B|304:224|324:296,1,140,2|0,0:0|0:0,0:0:0:0:
248,324,56112,2,0,B|188:266|116:248,1,140,8|0,0:0|0:0,0:0:0:0:
144,132,56764,1,0,0:0:0:0:
244,72,56982,2,2,B|232:36,5,23.3333333333333
244,72,57417,6,0,B|392:72,1,140,4|2,0:0|0:0,0:0:0:0:
316,268,58286,2,0,B|168:268,1,140,0|2,0:0|0:0,0:0:0:0:
120,204,58938,1,0,0:0:0:0:
160,128,59156,2,0,B|152:84|160:56,2,70,0|0|2,0:0|0:0|0:0,0:0:0:0:
292,216,60025,5,0,0:0:0:0:
256,296,60243,2,0,B|264:340|256:368,2,70,0|2|0,0:0|0:0|0:0,0:0:0:0:
204,236,60895,2,0,B|148:196|76:176,1,140,0|2,0:0|0:0,0:0:0:0:
208,68,61764,1,0,0:0:0:0:
356,144,62199,6,0,B|344:104|352:76,2,70,2|0|0,0:0|0:0|0:0,0:0:0:0:
376,228,62851,1,0,0:0:0:0:
376,228,63069,2,0,B|312:196|232:188,1,140,2|0,0:0|0:0,0:0:0:0:
184,248,63721,2,0,B|192:284|184:320,2,70,0|2|0,0:0|0:0|0:0,0:0:0:0:
184,248,64373,1,0,0:0:0:0:
392,84,66112,6,0,B|324:56|252:64,1,140,4|2,0:0|0:0,0:0:0:0:
188,116,66764,1,0,0:0:0:0:
188,116,66982,2,0,B|112:128,2,70,0|0|2,0:0|0:0|0:0,0:0:0:0:
260,160,67634,2,0,B|292:220|304:296,1,140
303,292,68286,1,2,0:0:0:0:
92,332,68721,2,0,B|60:272|48:196,1,140,0|2,0:0|0:0,0:0:0:0:
48,199,69373,1,0,0:0:0:0:
84,124,69591,2,0,B|228:112,1,140,0|2,0:0|0:0,0:0:0:0:
412,232,70460,5,0,0:0:0:0:
396,148,70678,1,0,0:0:0:0:
336,88,70895,2,0,B|352:56,3,35
336,88,71330,6,0,B|300:104|280:132,1,70,4|0,0:0|0:0,0:0:0:0:
280,216,71764,2,0,B|261:242|225:258,1,70,8|0,0:0|0:0,0:0:0:0:
208,172,72199,2,0,B|181:153|165:117,1,70
352,176,72633,2,8,B|378:194|394:230,1,70,8|0,0:0|0:0,0:0:0:0:
348,300,73069,6,0,B|284:340,1,70
204,336,73504,2,0,B|144:298,1,70,8|0,0:0|0:0,0:0:0:0:
204,240,73938,2,0,B|180:168,2,70,0|0|8,0:0|0:0|0:0,0:0:0:0:
284,216,74591,6,0,B|352:184|440:172,1,140
416,176,75243,1,8,0:0:0:0:
296,60,75678,2,0,B|228:92|152:100,1,140,0|8,0:0|0:0,0:0:0:0:
162,98,76330,1,0,0:0:0:0:
108,164,76547,2,0,P|128:228|140:304,2,140,0|8|0,0:0|0:0|0:0,0:0:0:0:
162,98,77634,5,0,0:0:0:0:
244,188,77851,1,8,0:0:0:0:
300,124,78069,1,0,0:0:0:0:
300,124,78286,2,0,B|284:88|284:52,2,70,0|0|8,0:0|0:0|0:0,0:0:0:0:
356,188,78938,1,0,0:0:0:0:
356,188,79156,6,0,B|372:224|372:260,1,70
124,92,80895,5,0,0:0:0:0:
32,160,81112,1,0,0:0:0:0:
124,208,81330,2,0,B|144:192,7,17.5
124,208,81764,6,0,B|108:280,1,70,4|0,0:0|0:0,0:0:0:0:
200,276,82199,2,0,B|200:344,1,70,8|0,0:0|0:0,0:0:0:0:
296,276,82634,2,0,B|272:208,1,70
384,240,83069,2,0,B|376:316,1,70,8|0,0:0|0:0,0:0:0:0:
376,309,83504,5,0,0:0:0:0:
436,152,83938,1,0,0:0:0:0:
280,88,84373,1,0,0:0:0:0:
220,245,84807,1,0,0:0:0:0:
220,245,85025,1,0,0:0:0:0:
136,260,85243,6,0,B|96:252|76:216,1,70,6|0,0:0|0:0,0:0:0:0:
144,172,85678,2,0,B|128:100|152:28,1,140,8|2,0:0|0:0,0:0:0:0:
312,80,86547,1,8,0:0:0:0:
312,80,86764,2,0,B|328:152|304:224,1,140,2|0,0:0|0:0,0:0:0:0:
305,218,87417,1,8,0:0:0:0:
152,288,87851,6,0,B|120:308|80:312,2,70,2|0|8,0:0|0:0|0:0,0:0:0:0:
220,236,88504,2,0,B|296:208|376:220,1,140,2|0,0:0|0:0,0:0:0:0:
357,217,89156,1,8,0:0:0:0:
236,104,89591,1,2,0:0:0:0:
100,200,90025,1,8,0:0:0:0:
100,200,90243,1,0,0:0:0:0:
100,200,90460,2,0,B|96:236|104:272,2,70,2|0|8,0:0|0:0|0:0,0:0:0:0:
196,60,91330,5,2,0:0:0:0:
356,104,91764,1,8,0:0:0:0:
356,104,91982,1,0,0:0:0:0:
404,172,92199,2,0,B|412:244|384:316,2,140,2|8|2,0:0|0:0|0:0,0:0:0:0:
248,236,93504,1,8,0:0:0:0:
248,236,93721,2,0,B|240:164|268:92,1,140,2|0,0:0|0:0,0:0:0:0:
265,98,94373,1,8,0:0:0:0:
100,64,94808,5,2,0:0:0:0:
100,64,95025,1,0,0:0:0:0:
56,136,95243,1,8,0:0:0:0:
56,136,95460,2,0,B|81:201|73:273,1,140,2|0,0:0|0:0,0:0:0:0:
148,316,96112,1,8,0:0:0:0:
148,316,96330,2,0,B|208:280|288:284,1,140,2|0,0:0|0:0,0:0:0:0:
336,220,96982,1,8,0:0:0:0:
336,220,97199,2,0,B|296:164|284:88,1,140,2|0,0:0|0:0,0:0:0:0:
136,152,97851,6,0,B|165:149|169:152|205:152,1,70,8|0,0:0|0:0,0:0:0:0:
228,236,98286,2,2,B|216:272,6,23.3333333333333
228,236,99156,1,4,0:0:0:0:
324,280,113069,6,0,B|256:300|180:280,1,140,4|8,0:0|0:0,0:0:0:0:
188,112,113938,2,0,B|256:92|332:112,1,140,0|8,0:0|0:0,0:0:0:0:
184,304,114808,2,0,B|132:256|128:176,1,140,0|8,0:0|0:0,0:0:0:0:
328,80,115678,2,0,B|380:128|384:208,1,140,0|8,0:0|0:0,0:0:0:0:
244,112,116547,6,0,B|92:112,1,140,0|8,0:0|0:0,0:0:0:0:
268,272,117417,2,0,B|420:272,1,140,0|8,0:0|0:0,0:0:0:0:
176,204,118286,2,0,B|176:356,1,140,0|8,0:0|0:0,0:0:0:0:
336,180,119156,2,0,B|336:28,1,140,0|8,0:0|0:0,0:0:0:0:
256,192,120025,5,4,0:0:0:0:
256,192,121764,1,0,0:0:0:0:
256,192,123504,5,0,0:0:0:0:
256,192,124373,1,0,0:0:0:0:
76,64,125243,6,0,B|76:140,1,70
148,232,125678,2,0,B|148:156,1,70
204,100,126112,1,0,0:0:0:0:
204,100,126330,1,0,0:0:0:0:
288,116,126547,2,0,B|300:84,3,35
288,116,126982,6,0,B|328:116|356:148,1,70,4|0,0:0|0:0,0:0:0:0:
352,228,127417,2,0,B|376:260|424:264,1,70,8|0,0:0|0:0,0:0:0:0:
424,184,127851,2,0,B|456:160|460:112,1,70
276,196,128286,2,0,B|249:218|249:258,1,70,8|0,0:0|0:0,0:0:0:0:
208,136,128721,6,0,B|200:64,1,70
120,148,129156,2,0,B|76:84,1,70,8|0,0:0|0:0,0:0:0:0:
88,232,129591,2,0,B|20:192,2,70,0|0|8,0:0|0:0|0:0,0:0:0:0:
128,308,130243,1,0,0:0:0:0:
208,284,130460,6,0,B|268:328|344:336,1,140,0|8,0:0|0:0,0:0:0:0:
332,168,131330,2,0,B|272:124|196:116,1,140,0|8,0:0|0:0,0:0:0:0:
60,208,132199,6,0,B|48:248|64:280,2,70,2|0|10,0:0|0:0|0:0,0:0:0:0:
120,148,132851,1,0,0:0:0:0:
120,148,133069,2,2,B|91:117|55:115,2,70,0|2|8,0:0|0:0|0:0,0:0:0:0:
152,228,133721,5,2,0:0:0:0:
152,228,133938,2,0,B|164:272|200:288,1,70,4|0,0:0|0:0,0:0:0:0:
228,208,134373,2,0,B|216:164|180:148,1,70,8|0,0:0|0:0,0:0:0:0:
268,272,134808,2,0,B|300:296|348:292,1,70
396,236,135243,2,0,B|364:212|316:216,1,70,8|0,0:0|0:0,0:0:0:0:
248,120,135678,6,0,B|284:56,1,70
168,88,136112,2,0,B|104:52,1,70,8|0,0:0|0:0,0:0:0:0:
132,168,136547,2,0,B|96:232,1,70
212,200,136981,2,0,B|276:236,1,70,8|0,0:0|0:0,0:0:0:0:
368,176,137417,6,0,B|408:156,2,35,2|0|0,0:0|0:0|0:0,0:0:0:0:
384,252,137851,2,0,B|368:284|332:312,1,70,10|0,0:0|0:0,0:0:0:0:
216,308,138286,2,2,B|192:348,2,35,0|0|2,0:0|0:0|0:0,0:0:0:0:
232,224,138721,2,0,B|204:196|160:192,1,70,8|2,0:0|0:0,0:0:0:0:
84,224,139156,6,2,B|52:160|48:76,1,140,0|10,0:0|0:0,0:0:0:0:
148,32,139808,1,0,0:0:0:0:
148,32,140025,1,2,0:0:0:0:
224,140,140243,1,2,0:0:0:0:
288,84,140460,2,2,B|280:56,7,17.5
288,84,140895,6,0,B|324:96|356:116,1,70,6|0,0:0|0:0,0:0:0:0:
380,192,141330,2,0,B|368:228|348:260,1,70,8|0,0:0|0:0,0:0:0:0:
272,284,141764,2,0,B|236:272|204:252,1,70,2|0,0:0|0:0,0:0:0:0:
180,176,142199,2,0,B|192:140|212:108,1,70,8|0,0:0|0:0,0:0:0:0:
132,80,142634,6,0,B|96:72|72:48,1,70,2|0,0:0|0:0,0:0:0:0:
88,164,143069,2,0,B|80:200|56:224,1,70,8|0,0:0|0:0,0:0:0:0:
172,200,143504,2,0,B|208:208|232:232,1,70,2|0,0:0|0:0,0:0:0:0:
216,116,143939,2,0,B|224:80|248:56,1,70,8|0,0:0|0:0,0:0:0:0:
376,64,144373,5,2,0:0:0:0:
376,64,144591,1,0,0:0:0:0:
424,132,144808,2,0,B|468:148,3,35,8|0|0|0,0:0|0:0|0:0|0:0,0:0:0:0:
424,132,145243,2,0,B|388:192,1,70,2|0,0:0|0:0,0:0:0:0:
316,236,145678,2,2,B|320:276,5,23.3333333333333
316,236,146112,6,0,B|296:200|272:180,1,70,2|0,0:0|0:0,0:0:0:0:
260,96,146547,2,0,B|220:80|204:48,1,70,8|0,0:0|0:0,0:0:0:0:
124,64,146982,2,0,B|112:104|84:120,1,70,2|0,0:0|0:0,0:0:0:0:
116,200,147417,2,0,B|156:212|172:240,1,70,8|0,0:0|0:0,0:0:0:0:
232,300,147851,6,0,B|224:372,1,70,6|0,0:0|0:0,0:0:0:0:
304,248,148286,2,0,B|332:312,1,70,8|0,0:0|0:0,0:0:0:0:
400,260,148721,2,0,B|456:312,1,70,2|0,0:0|0:0,0:0:0:0:
404,176,149156,2,0,B|472:144,1,70,8|0,0:0|0:0,0:0:0:0:
336,120,149591,6,0,B|360:92|368:56,2,70,2|0|8,0:0|0:0|0:0,0:0:0:0:
260,160,150243,2,0,B|280:200|312:216,2,70,0|2|0,0:0|0:0|0:0,0:0:0:0:
200,100,150895,1,8,0:0:0:0:
116,104,151112,1,0,0:0:0:0:
72,176,151330,6,0,B|36:160,2,35,2|0|0,0:0|0:0|0:0,0:0:0:0:
60,260,151764,2,0,B|72:296|104:324,1,70,10|0,0:0|0:0,0:0:0:0:
216,300,152199,2,2,B|228:336,2,35,0|0|2,0:0|0:0|0:0,0:0:0:0:
208,216,152634,2,0,B|236:192|284:192,1,70,8|2,0:0|0:0,0:0:0:0:
332,260,153069,6,0,B|404:284,1,70,2|0,0:0|0:0,0:0:0:0:
460,192,153504,2,0,B|388:200,1,70,10|0,0:0|0:0,0:0:0:0:
332,136,153938,2,2,B|396:100,1,70,0|2,0:0|0:0,0:0:0:0:
292,44,154373,2,0,B|256:104,1,70,8|2,0:0|0:0,0:0:0:0:
256,192,154808,5,4,0:0:0:0:
