osu file format v9

[General]
AudioFilename: 03..mp3
AudioLeadIn: 0
PreviewTime: 116495
Countdown: 0
SampleSet: Soft
StackLeniency: 0.7
Mode: 0
LetterboxInBreaks: 1

[Editor]
DistanceSpacing: 2
BeatDivisor: 4
GridSize: 8

[Metadata]
Title:Muenbuyou Not equal Junkan
Artist:EastNewSound
Creator:suntimunin
Version:Lunatic
Source:touhou
Tags:okuu nayuta

[Difficulty]
HPDrainRate:8
CircleSize:4
OverallDifficulty:8
ApproachRate:9
SliderMultiplier:1.8
SliderTickRate:1

[Events]
//Background and Video events
0,0,"Konachan.com - 71004 asakura_masatoki black_hair cape long_hair red_eyes reiuji_utsuho ribbons skirt stars touhou weapon yellow_eyes.jpg"
//Break Periods
//Storyboard Layer 0 (Background)
//Storyboard Layer 1 (Fail)
//Storyboard Layer 2 (Pass)
//Storyboard Layer 3 (Foreground)
//Storyboard Sound Samples
//Background Colour Transformations
3,100,163,162,255

[TimingPoints]
23669,363.636363636364,4,2,2,100,1,0
24032,-100,4,1,1,70,0,0
24759,-100,4,2,1,70,0,0
24941,-100,4,1,1,70,0,0
29850,-100,4,2,1,70,0,0
30214,-100,4,1,1,70,0,0
33487,-100,4,2,1,70,0,0
33850,-100,4,1,1,70,0,0
34759,-100,4,2,2,70,0,0
35487,-100,4,1,2,70,0,0
43123,-100,4,2,2,70,0,0
43487,-100,4,1,2,70,0,0
46032,-100,4,2,2,50,0,0
46214,-200,4,2,2,50,0,0
46941,-100,4,2,2,100,0,0
47123,-100,4,2,2,50,0,0
58396,-100,4,1,2,100,0,0
58578,-100,4,2,2,100,0,0
58759,-100,4,1,2,70,0,0
58941,-100,4,2,2,70,0,0
59123,-100,4,1,2,70,0,0
59669,-100,4,2,2,70,0,0
59850,-100,4,1,2,70,0,0
60396,-100,4,2,2,70,0,0
60578,-100,4,1,2,70,0,0
61123,-100,4,2,2,70,0,0
61305,-100,4,1,2,70,0,0
61850,-100,4,2,2,70,0,0
62032,-100,4,1,2,70,0,0
62578,-100,4,2,2,70,0,0
62759,-100,4,1,2,70,0,0
63305,-100,4,2,2,70,0,0
63487,-100,4,1,2,70,0,0
64032,-100,4,2,2,70,0,0
64214,-100,4,1,2,70,0,0
64759,-100,4,2,2,70,0,0
64941,-100,4,1,2,70,0,0
65487,-100,4,2,2,70,0,0
65669,-100,4,1,2,70,0,0
66214,-100,4,2,2,70,0,0
66396,-100,4,1,2,70,0,0
66941,-100,4,2,2,70,0,0
67123,-100,4,1,2,70,0,0
67669,-100,4,2,2,70,0,0
67850,-100,4,1,2,70,0,0
68396,-100,4,2,2,70,0,0
68578,-100,4,1,2,70,0,0
69123,-100,4,2,2,70,0,0
69305,-100,4,1,2,70,0,0
69850,-100,4,1,2,40,0,0
70214,-100,4,2,2,100,0,0
70396,-100,4,1,2,70,0,0
75487,-100,4,2,2,70,0,0
75850,-100,4,1,2,70,0,0
80759,-100,4,2,2,70,0,0
81123,-100,4,1,2,100,0,0
81305,-100,4,2,2,40,0,0
81850,-100,4,2,2,100,0,0
82032,-100,4,2,2,70,0,0
93305,-100,4,1,2,100,0,0
93487,-100,4,2,2,100,0,0
93669,-100,4,2,2,70,0,0
96032,-100,4,2,2,60,0,0
96578,-100,4,2,2,70,0,0
104396,-100,4,1,2,100,0,0
104759,-100,4,2,2,40,0,0
105123,-100,4,2,2,100,0,0
105305,-100,4,1,2,70,0,0
106396,-100,4,2,2,70,0,0
106578,-200,4,2,2,100,0,0
106759,-100,4,1,2,70,0,0
107123,-100,4,2,2,100,0,0
107669,-100,4,2,2,100,0,0
108032,-100,4,2,2,100,0,0
108214,-100,4,1,2,70,0,0
110941,-100,4,2,2,100,0,0
111123,-100,4,1,2,70,0,0
113850,-100,4,1,2,100,0,0
114032,-133.333333333333,4,1,2,70,0,0
114578,-100,4,1,2,100,0,0
114759,-100,4,1,2,70,0,0
115123,-100,4,1,2,100,0,0
115669,-100,4,2,2,100,0,0
116759,-100,4,2,2,100,0,1
116941,-100,4,1,2,70,0,1
121850,-100,4,2,2,100,0,1
122578,-100,4,2,2,100,0,1
122759,-100,4,1,2,70,0,1
122941,-100,4,2,2,100,0,1
123123,-100,4,1,2,70,0,1
126941,-100,4,2,2,100,0,1
127123,-100,4,2,2,60,0,1
127305,-100,4,2,2,100,0,1
127396,-100,4,2,2,60,0,1
127487,-100,4,2,2,100,0,1
127578,-100,4,2,2,60,0,1
127669,-100,4,2,2,100,0,1
127759,-100,4,2,2,60,0,1
127850,-100,4,2,2,100,0,1
127941,-100,4,2,2,60,0,1
128032,-100,4,2,2,100,0,1
128214,-100,4,1,2,100,0,1
132770,-100,4,2,2,70,0,1
134214,-100,4,1,2,70,0,1
137123,-100,4,2,2,100,0,1
137305,-100,4,1,2,70,0,1
137850,-100,4,2,2,100,0,1
138032,-100,4,1,2,70,0,1
138578,-100,4,2,2,100,0,1
138759,-100,4,1,2,70,0,1
138941,-100,4,2,2,100,0,1
140032,-100,4,2,2,70,0,0

[Colours]
Combo1 : 207,82,239
Combo2 : 70,249,141
Combo3 : 62,172,253

[HitObjects]
136,80,23669,1,0
160,176,23850,1,0
256,200,24032,1,0
272,96,24214,2,0,B|312:128|360:96,1,90
432,176,24578,1,0
304,296,24759,1,0
264,312,24850,1,0
224,304,24941,2,0,B|176:288|160:232,2,90
320,152,25487,2,0,B|352:112|352:64,1,90
192,152,25850,2,0,B|152:184|168:240,1,90
184,264,26123,1,0
208,288,26214,1,0
336,248,26396,2,0,B|360:200|416:216,1,90
264,112,26759,2,0,B|168:112,1,90
264,264,27123,2,0,B|360:264,1,90
192,192,27487,5,0
224,192,27578,1,0
256,192,27669,2,0,B|304:168|304:112,1,90
464,256,28032,2,0,B|400:328,1,90
288,56,28396,1,0
288,56,28487,1,0
288,56,28578,2,0,B|240:72|240:128,1,90
416,144,28941,1,0
296,280,29123,1,0
296,280,29214,1,0
296,280,29305,1,0
208,232,29487,1,0
296,184,29669,2,0,B|272:136|216:120,1,90
200,112,29941,1,0
168,104,30032,1,0
72,256,30214,6,0,B|112:272|152:320,1,90
240,160,30578,2,0,B|272:152|256:128|256:128|304:104,1,90
328,112,30850,1,0
360,120,30941,1,0
432,256,31123,2,0,B|416:288|416:288|392:288|392:288|376:320|376:320,1,90
120,128,31487,2,0,B|136:96|136:96|160:96|160:96|176:64|176:64,1,90
256,232,31850,2,0,B|248:240|248:240|264:240|264:240|256:248|256:248|256:304,1,90
344,192,32214,2,0,B|344:136|296:120,1,90
176,192,32578,2,0,B|176:136|224:120,1,90
256,8,32941,2,0,B|264:16|264:16|248:16|248:16|256:24|256:24|256:80,1,90
256,376,33305,2,0,B|264:368|264:368|248:368|248:368|256:360|256:360|256:304,1,90
256,280,33578,1,0
256,248,33669,1,0
80,240,33850,2,0,B|80:144,1,90
424,144,34214,2,0,B|424:232,1,90
256,160,34578,5,0
256,160,34669,1,0
256,160,34759,1,0
200,88,34941,1,0
168,88,35032,1,0
136,88,35123,1,0
304,88,35305,1,0
336,88,35396,1,0
368,88,35487,1,0
432,208,35669,5,0
432,208,35759,1,0
432,208,35850,2,0,B|424:264|368:264,1,90
304,208,36214,1,0
248,288,36396,1,0
248,288,36578,1,0
184,200,36759,1,0
128,304,36941,1,0
128,304,37123,1,0
64,192,37305,1,0
104,88,37487,2,0,B|120:40|176:40,1,90
272,72,37850,5,0
360,128,38032,1,0
272,192,38214,1,0
272,72,38396,1,0
320,168,38578,2,0,B|320:176|320:176|328:168|328:168|328:176|328:176|376:224,1,90
408,352,38941,2,0,B|400:352|400:352|408:344|408:344|400:344|352:296,1,90
192,224,39305,2,0,B|192:232|192:232|200:224|200:224|200:232|200:232|248:280,1,90
136,168,39669,2,0,B|128:168|128:168|136:160|136:160|128:160|128:160|80:112,1,90
240,120,40032,2,0,B|288:88|320:120|320:120|408:88,1,180
440,104,40487,1,0
456,136,40578,1,0
456,168,40669,1,0
440,192,40759,6,0,B|424:192|424:192|440:208|440:208|424:208|424:208|328:288,1,180
296,304,41214,1,0
264,320,41305,1,0
232,328,41396,1,0
208,312,41487,1,0
184,296,41578,2,0,B|152:256,1,45
168,96,41850,5,0
328,64,42032,1,0
288,224,42214,1,0
168,96,42396,1,0
328,64,42578,1,0
416,104,42759,2,0,B|448:136|400:152|400:152|384:272,1,180
360,280,43214,1,0
328,288,43305,1,0
296,296,43396,1,0
264,304,43487,1,0
104,136,43669,1,0
240,128,43850,1,0
184,248,44032,1,0
104,136,44214,1,0
176,8,44396,6,0,B|264:8,1,90
384,88,44759,2,0,B|288:88,1,90
176,168,45123,2,0,B|264:168,1,90
384,248,45487,2,0,B|288:248,1,90
152,272,45850,1,0
136,248,45941,1,0
128,216,46032,1,0
96,136,46214,2,0,B|128:64|176:48|256:80,1,180
272,256,47123,6,0,B|344:200,1,90
224,64,47487,2,0,B|144:120,1,90
128,200,47850,1,0
128,200,47941,1,0
128,200,48032,1,0
216,256,48214,1,0
320,296,48396,2,0,B|400:248|400:144,1,180
80,320,49123,1,0
80,320,49305,1,0
344,80,49669,1,0
344,80,49759,1,0
344,80,49850,2,0,B|344:88|344:88|352:80|352:80|352:88|352:88|400:128,1,90
416,224,50214,5,0
336,168,50396,1,0
296,256,50578,1,0
336,168,50759,1,0
416,224,50941,1,0
368,312,51123,2,0,B|344:352|288:352,1,90
72,200,51669,1,0
320,96,52032,1,0
320,96,52214,1,0
192,336,52578,5,0
320,288,52759,1,0
432,208,52941,1,0
432,208,53123,1,0
432,208,53305,2,0,B|448:256|408:304,1,90
128,144,53850,1,0
440,56,54214,1,0
304,352,54578,1,0
232,40,54941,1,0
232,40,55123,1,0
144,256,55487,5,0
168,272,55578,1,0
200,288,55669,2,0,B|248:288|272:232,1,90
408,352,56032,1,0
408,168,56214,1,0
344,88,56396,1,0
80,328,56759,1,0
296,40,57123,1,0
472,352,57487,1,0
176,152,57850,1,0
176,152,57941,1,0
176,152,58032,1,0
416,168,58396,5,4
288,296,58578,1,0
240,120,58759,1,4
416,168,58941,1,0
288,296,59123,1,0
240,120,59305,1,0
296,40,59487,1,0
200,24,59669,2,0,B|152:48|152:96,1,90,8|0
152,192,60032,1,0
80,264,60214,1,0
248,328,60396,5,8
344,296,60578,2,0,B|344:200,2,90
432,336,61123,1,8
432,56,61305,6,0,B|392:96|352:56,1,90
280,112,61669,1,0
344,176,61850,1,8
416,120,62032,2,0,B|504:120,2,90
232,112,62578,2,0,B|144:112,2,90,8|0|0
224,208,63123,1,0
144,272,63305,1,8
216,336,63487,2,0,B|312:336,1,90
416,256,63850,2,0,B|320:256,1,90,0|8
224,168,64214,2,0,B|312:168,1,90
424,88,64578,6,0,B|328:88,1,90,0|8
88,88,64941,2,0,B|176:88,1,90
104,208,65305,2,0,B|136:160|200:160,1,90,0|8
408,208,65669,2,0,B|368:160|328:160,1,90
256,264,66032,2,0,B|256:352,1,90,0|8
184,208,66396,1,0
328,208,66578,1,0
352,112,66759,1,0
432,168,66941,1,8
432,72,67123,2,0,B|416:24|352:24,1,90
216,128,67487,6,0,B|192:176|232:216,1,90,0|8
248,240,67759,1,0
272,264,67850,1,0
368,352,68032,1,0
232,352,68214,1,0
120,280,68396,1,8
56,160,68578,2,0,B|64:152|64:152|64:168|64:168|72:160|72:160|128:160,1,90
184,80,68941,1,0
248,152,69123,1,8
248,152,69305,1,0
320,72,69487,1,0
376,176,69669,1,0
376,176,69850,1,0
448,72,70032,1,0
448,72,70123,1,0
448,72,70214,1,4
488,192,70396,1,0
488,192,70578,2,0,B|488:240|448:280,1,90
280,304,70941,5,0
280,208,71123,1,0
280,208,71305,2,0,B|192:208,1,90
192,112,71669,1,0
192,112,71850,2,0,B|96:112,1,90,0|4
168,280,72214,1,0
168,280,72305,1,0
168,280,72396,1,0
224,352,72578,2,0,B|296:288,2,90,0|4|0
224,264,73123,1,0
224,352,73305,1,0
280,280,73487,1,4
224,352,73669,1,0
312,320,73850,1,0
408,168,74032,6,0,B|408:256,1,90,0|4
408,80,74396,1,0
408,80,74578,1,0
312,80,74759,2,0,B|312:168,1,90,0|4
312,200,75032,1,0
312,232,75123,1,0
312,264,75214,1,0
288,288,75305,2,0,B|264:328|208:304,1,90
184,288,75578,1,0
160,264,75669,1,0
136,240,75759,2,0,B|112:192,1,45
200,40,76032,5,0
296,40,76214,1,0
392,40,76396,1,4
392,136,76578,1,0
392,40,76759,1,0
392,136,76941,1,0
392,232,77123,1,4
384,264,77214,1,0
360,288,77305,1,0
336,304,77396,1,0
304,304,77487,2,0,B|256:288|232:248,1,90
168,128,77850,6,0,B|256:128,1,90,4|0
360,40,78214,2,0,B|264:40,1,90
360,136,78578,1,4
288,208,78759,1,0
368,272,78941,1,0
440,208,79123,2,0,B|440:112,1,90,0|4
376,40,79487,1,0
312,112,79669,1,0
312,112,79850,1,0
248,40,80032,1,4
176,112,80214,2,0,B|176:200,2,90
128,88,80759,1,0
48,144,80941,1,0
64,264,81123,1,4
160,328,81305,2,0,B|240:368|408:240,1,270,0|4
296,96,82032,5,0
400,136,82214,2,0,B|416:184|392:232,1,90,8|0
448,320,82578,1,0
352,272,82759,2,0,B|304:240|264:272,1,90,0|8
176,320,83123,1,0
176,320,83305,1,0
176,208,83487,2,0,B|176:120,1,90,0|8
432,56,83850,5,0
432,152,84032,1,0
432,152,84214,2,0,B|336:152,1,90,0|8
272,224,84578,1,0
344,296,84759,1,0
264,352,84941,2,0,B|208:352|176:320,1,90,0|8
176,224,85305,1,0
176,224,85487,2,0,B|136:192|88:224,1,90
160,56,85850,5,8
160,56,86032,2,0,B|184:96|240:88,1,90
416,88,86396,2,0,B|416:176,2,90,0|8|0
264,184,86941,1,0
336,256,87123,1,0
400,184,87305,1,8
336,352,87487,5,0
304,352,87578,1,0
272,352,87669,1,0
240,352,87759,1,0
208,352,87850,2,0,B|120:352,1,90,0|8
152,112,88214,5,0
152,112,88396,2,0,B|192:88|248:96,1,90
288,176,88759,1,8
376,224,88941,1,0
376,224,89123,1,0
280,280,89305,1,0
184,208,89487,2,0,B|176:160|200:120,1,90,8|0
272,32,89850,1,0
336,128,90032,2,0,B|384:152|432:120,1,90,0|8
416,240,90396,1,0
344,336,90578,2,0,B|296:304|248:328,1,90
176,240,90941,1,8
200,128,91123,1,0
288,208,91305,1,0
176,240,91487,1,0
200,128,91669,1,8
440,88,91850,6,0,B|440:176,1,90
304,296,92214,1,0
432,296,92396,1,8
248,296,92578,1,0
392,296,92759,1,0
352,160,92941,2,0,B|344:160|344:160|352:152|352:152|344:152|344:152|296:104,1,90,0|8
152,96,93305,5,4
72,256,93487,1,4
248,240,93669,1,0
152,96,93850,1,8
336,88,94032,5,0
432,128,94214,1,0
432,128,94396,2,0,B|432:176|400:216,1,90,0|8
376,232,94669,1,0
344,248,94759,1,0
256,288,94941,2,0,B|280:240|256:192,1,90
120,248,95305,2,0,B|96:200|128:160,1,90,8|0
264,136,95669,2,0,B|288:88|264:48,1,90
408,160,96032,5,8
432,184,96123,1,0
448,216,96214,1,0
456,248,96305,1,0
456,280,96396,2,0,B|408:360,1,90
376,360,96669,2,0,B|320:360,1,45,0|8
280,320,96941,1,0
232,224,97123,1,0
232,224,97305,2,0,B|232:136,1,90,0|8
136,176,97669,1,0
136,176,97850,2,0,B|136:88,1,90
248,32,98214,1,8
352,64,98396,1,0
424,144,98578,5,0
424,144,98759,2,0,B|416:152|416:152|432:152|432:152|424:160|424:160|424:216,1,90,0|8
416,240,99032,1,0
392,264,99123,1,0
216,216,99305,1,0
392,176,99487,1,0
216,144,99669,1,8
392,104,99850,1,0
216,72,100032,1,0
64,160,100214,6,0,B|64:248,1,90,0|8
144,96,100578,2,0,B|144:8,1,90
240,40,100941,1,0
312,112,101123,1,8
384,184,101305,1,0
288,200,101487,2,0,B|304:248|360:264,1,90
472,152,101850,2,0,B|448:104|392:96,1,90,8|0
456,256,102214,2,0,B|456:304|400:328,1,90
248,280,102578,1,8
136,160,102759,1,0
176,280,102941,1,0
64,160,103123,1,0
224,160,103305,5,8
256,168,103396,1,0
280,184,103487,1,0
304,208,103578,1,0
328,232,103669,2,0,B|360:272|336:320,1,90
408,152,104032,1,8
64,48,104396,5,0
160,72,104578,1,0
256,104,104759,2,0,B|256:152,4,45,0|0|0|0|4
256,104,105305,2,0,B|280:56|344:56,1,90
376,176,105669,1,0
152,288,106032,1,0
152,288,106214,1,0
336,296,106578,1,4
440,72,107123,1,4
80,184,107669,1,4
80,184,108032,1,4
160,88,108214,5,0
192,72,108305,1,0
224,72,108396,2,0,B|272:80|304:112,1,90
224,184,108759,2,0,B|264:224|312:208,1,90
384,128,109123,1,0
408,152,109214,1,0
416,184,109305,1,0
368,304,109487,1,0
368,304,109669,2,0,B|328:336|280:320,1,90
176,264,110032,1,0
152,240,110123,1,0
128,216,110214,1,0
208,136,110396,2,0,B|272:72,2,90
368,216,110941,5,4
448,280,111123,1,0
352,312,111305,1,0
352,312,111487,1,0
256,248,111669,2,0,B|208:248|168:288,1,90
88,200,112032,1,0
408,72,112396,1,0
88,64,112941,1,0
368,224,113487,1,0
168,152,113850,1,0
232,64,114032,2,0,B|344:56|416:144,1,202.49999396503
411,138,114759,1,0
136,272,115123,5,0
240,160,115305,1,0
296,272,115487,1,0
416,336,115669,1,4
376,216,115850,1,4
280,296,116032,1,4
248,176,116214,1,4
104,104,116759,5,4
200,88,116941,1,0
176,184,117123,1,0
176,184,117305,2,0,B|208:216|264:208,1,90
344,152,117669,2,0,B|344:64,2,90
352,328,118214,5,0
304,240,118396,2,0,B|256:256|232:296,1,90
233,293,118759,1,0
144,256,118941,1,0
144,256,119123,2,0,B|152:248|152:248|136:248|136:248|144:240|144:240|144:184,1,90
144,8,119487,2,0,B|136:16|136:16|152:16|152:16|144:24|144:24|144:80,1,90
312,136,119850,1,0
336,152,119941,1,0
352,184,120032,2,0,B|352:232|336:280,1,90
160,272,120396,2,0,B|248:272,2,90
432,272,120941,2,0,B|344:272,2,90
408,168,121487,1,0
376,160,121578,1,0
344,152,121669,2,0,B|296:136|240:136,1,90,0|4
112,248,122214,1,4
184,80,122578,5,4
216,72,122669,1,0
248,64,122759,2,0,B|296:56|336:88,1,90,0|4
376,128,123123,2,0,B|376:216,2,90
248,160,123669,1,0
168,208,123850,1,0
240,264,124032,1,0
328,272,124214,2,0,B|384:264|392:208,1,90
390,216,124578,1,0
392,40,124759,6,0,B|304:40,1,90
272,56,125032,1,0
248,80,125123,1,0
88,168,125305,2,0,B|88:120|128:88,1,90
224,120,125669,2,0,B|224:168|192:208,1,90
120,264,126032,1,0
200,320,126214,1,0
296,288,126396,1,0
296,104,126578,5,0
296,104,126669,1,0
296,104,126759,2,0,B|352:104|384:128,1,90,0|4
432,232,127123,1,0
344,312,127305,1,0
312,312,127396,1,0
280,312,127487,1,4
248,312,127578,1,0
216,304,127669,1,4
192,288,127759,1,0
168,272,127850,1,4
144,256,127941,1,0
120,240,128032,1,4
376,80,128396,5,0
280,80,128578,1,0
280,176,128759,1,0
184,176,128941,2,0,B|88:176,2,90
232,264,129487,1,0
320,304,129669,1,0
320,304,129850,2,0,B|376:304|400:264,1,90
392,88,130214,5,0
392,120,130305,1,0
384,152,130396,1,0
232,48,130578,2,0,B|192:72|136:48,1,90
80,136,130941,1,0
136,224,131123,1,0
200,136,131305,1,0
200,136,131396,1,0
200,136,131487,1,0
352,232,131669,6,0,B|408:160,2,90
176,200,132214,2,0,B|104:264,2,90
320,96,132759,1,0
408,304,133123,1,4
120,232,133487,1,0
472,152,133850,1,4
120,96,134214,5,0
176,168,134396,1,0
240,96,134578,1,0
304,184,134759,1,0
376,96,134941,1,0
440,208,135123,1,0
440,208,135214,1,0
440,208,135305,1,0
360,304,135487,2,0,B|264:304,1,90
270,304,135850,1,0
152,264,136032,1,0
152,264,136123,1,0
152,264,136214,1,0
152,136,136396,6,0,B|152:48,2,90
240,152,136941,1,0
296,224,137123,1,4
296,312,137305,2,0,B|384:312,2,90
296,312,137850,1,4
216,272,138032,1,0
200,184,138214,2,0,B|200:96,1,90
280,56,138578,1,4
448,120,138759,2,0,B|408:160|360:160,1,90
240,288,139123,5,4
232,112,139305,1,4
392,192,139487,1,4
240,288,139669,1,4
232,112,139850,1,4
392,192,140032,1,4
