osu file format v9

[General]
AudioFilename: 03. Muenbuyou Juunkan.ogg
AudioLeadIn: 0
PreviewTime: 115969
Countdown: 0
SampleSet: Soft
StackLeniency: 0.7
Mode: 0
LetterboxInBreaks: 1

[Editor]
Bookmarks: 23242,46515,93060,116333,139606,162878
DistanceSpacing: 1
BeatDivisor: 4
GridSize: 8

[Metadata]
Title:Muenbuyou =/= Juunkan (Short Ver.)
Artist:EastNewSound
Creator:Kotek-
Version:Nuclear Collab
Source:Touhou
Tags:EvilElvis femaleLogic Split Theory Nayuta Subterranean Animism Solar Sect of Mystic Wisdom Nuclear Fusion Utsuho Reiuji Okuu

[Difficulty]
HPDrainRate:7
CircleSize:4
OverallDifficulty:7
ApproachRate:9
SliderMultiplier:1.8
SliderTickRate:1

[Events]
//Background and Video events
0,0,"770366.jpg"
//Break Periods
//Storyboard Layer 0 (Background)
//Storyboard Layer 1 (Fail)
//Storyboard Layer 2 (Pass)
//Storyboard Layer 3 (Foreground)
Sprite,Foreground,Centre,"Kotek-.png",320,240 M,0,23242,,517,434 F,0,23242,23424,0,1 F,0,23424,45787,1 F,0,45787,45969,1,0 F,0,45969,93060,0 F,0,93060,93242,0,1 F,0,93242,115606,1 F,0,115606,115787,1,0 F,0,115787,139606,0 F,0,139606,139787,0,1 F,0,139787,162878,1 F,0,162878,163060,1,0
Sprite,Foreground,Centre,"EvilElvis.png",320,240 M,0,46515,,516,434 F,0,46515,46696,0,1 F,0,46696,92333,1 F,0,92333,92515,1,0 F,0,92515,116333,0,0.04945058 F,0,116333,116515,0.04945058,1 F,0,116515,138878,1 F,0,138878,139060,1,0
//Storyboard Sound Samples
//Background Colour Transformations
3,100,163,162,255

[TimingPoints]
11606,363.636363636364,4,2,0,100,1,0
116333,-100,4,2,0,100,0,1
139242,-100,4,2,0,100,0,0
139606,-100,4,2,0,100,0,1
162878,-100,4,2,0,100,0,0

[Colours]
Combo1 : 255,150,0
Combo2 : 3,167,3
Combo3 : 240,240,0
Combo4 : 240,5,5

[HitObjects]
168,192,23242,1,0
344,192,23424,1,0
256,192,23606,1,0
300,114,23787,1,0
320,96,23878,1,0
336,80,23969,1,0
176,80,24151,1,0
192,96,24242,1,0
212,114,24333,1,0
256,280,24515,1,0
184,328,24696,6,0,B|136:328,2,45
136,256,25060,2,0,B|96:224,1,45
100,227,25242,1,0
16,192,25424,1,0
88,136,25606,1,0
96,112,25696,1,0
88,88,25787,1,0
176,112,25969,1,0
256,64,26151,5,0
280,56,26242,1,0
304,56,26333,1,0
328,56,26424,1,0
352,64,26515,1,0
304,144,26696,2,0,B|264:168,2,45
304,144,27060,2,0,B|344:168,2,45
304,232,27424,1,0
392,280,27606,6,0,B|480:280,1,90
216,280,27969,2,0,B|128:280,1,90
32,280,28333,1,0
78,200,28515,1,0
78,200,28606,1,0
78,200,28696,1,0
168,192,28878,1,0
256,160,29060,6,0,B|256:104,2,45
344,192,29424,1,0
168,192,29606,1,0
344,192,29787,1,0
434,200,29969,1,0
448,224,30060,1,0
472,240,30151,1,0
448,328,30333,1,0
360,336,30515,6,0,B|328:328|328:328|320:296|320:296|296:280,1,90
152,336,30878,2,0,B|184:328|184:328|192:296|192:296|216:280,1,90
256,192,31242,1,0
256,56,31424,1,0
256,80,31515,1,0
256,104,31606,1,0
256,192,31787,1,0
168,192,31969,5,0
152,176,32060,1,0
136,192,32151,1,0
120,176,32242,1,0
104,192,32333,1,0
40,120,32515,1,0
40,120,32606,1,0
40,120,32696,1,0
40,264,32878,1,0
40,264,32969,1,0
40,264,33059,1,0
120,312,33242,1,0
200,264,33424,6,0,B|216:296|216:296|216:320|200:352,1,90
312,264,33787,2,0,B|296:296|296:296|296:320|312:352,1,90
392,312,34151,1,0
472,264,34334,1,0
472,264,34424,1,0
472,264,34515,2,0,B|472:224,4,22.5
392,216,34878,6,0,B|392:128,1,90
392,104,35151,1,0
392,80,35242,1,0
312,48,35424,1,0
312,48,35515,1,0
312,48,35606,1,0
200,48,35787,1,0
200,48,35878,1,0
200,48,35969,1,0
120,80,36151,6,0,B|120:170,1,90
120,192,36424,1,0
120,216,36515,1,0
192,272,36696,2,0,B|168:312,2,45
320,272,37060,2,0,B|344:312,4,45
256,192,37606,1,0
256,104,37787,5,0
256,104,37878,1,0
256,104,37969,1,0
256,104,38060,1,0
256,104,38151,1,0
184,48,38333,2,0,B|141:71|131:117,1,90
27,261,38696,2,0,B|70:238|80:192,1,90
80,192,39060,1,0
136,264,39242,5,0
136,264,39333,1,0
136,264,39424,1,0
232,288,39606,1,0
256,296,39696,1,0
280,288,39787,1,0
376,264,39969,1,0
440,192,40151,2,0,B|496:192,2,45
440,192,40515,1,0
376,120,40696,6,0,B|376:72,2,45
312,192,41060,1,0
256,112,41242,1,0
256,112,41333,1,0
256,112,41424,1,0
200,192,41606,1,0
200,192,41696,1,0
200,192,41787,1,0
144,112,41969,1,0
88,192,42151,6,0,B|104:240|88:288,1,90
196,360,42515,2,0,B|182:319|198:271,1,90
272,320,42878,1,0
344,272,43060,1,0
368,272,43151,1,0
392,272,43242,1,0
480,272,43424,1,0
440,192,43606,5,0
432,168,43696,1,0
416,152,43787,1,0
392,144,43878,1,0
368,144,43969,1,0
304,80,44151,2,0,B|336:48,2,45
208,80,44515,2,0,B|176:48,2,45
256,192,44878,1,0
208,304,45060,6,0,B|144:368,1,90
304,304,45424,2,0,B|368:368,1,90
304,304,45787,1,0
208,304,45969,1,0
256,192,46151,1,0
256,192,46515,5,0
256,104,46696,2,0,B|304:88|320:40,1,90
424,56,47060,1,0
432,232,47424,1,0
432,208,47515,1,0
432,184,47606,1,0
432,272,47787,1,0
344,272,47969,2,0,B|288:216|288:152,1,135
288,152,48333,2,0,B|223:222,1,90
160,152,48696,2,0,B|232:80,1,90
224,224,49060,1,0
144,328,49242,5,0
96,254,49424,2,0,B|160:222|176:150,1,135
175,150,49788,2,0,B|232:238,2,90
320,56,50515,2,0,B|368:136,1,90
288,176,50878,2,0,B|360:296,1,135
357,291,51242,2,0,B|312:280|256:312,1,90
488,304,51606,1,0
488,304,51787,1,0
256,192,52333,5,0
256,192,52696,2,0,B|224:128|224:48,1,135
224,61,53060,2,0,B|144:128,1,90
336,120,53424,2,0,B|366:157|414:157,1,90
415,157,53787,2,0,B|377:187|377:235,1,90
377,235,54151,2,0,B|346:197|298:197,1,90
120,192,54515,1,0
224,344,54696,1,0
120,296,55060,6,0,B|64:336,2,45
264,184,55606,1,0
192,240,55787,1,0
392,56,56333,1,0
392,56,56696,2,0,B|344:96|256:96,1,135
265,95,57060,2,0,B|304:184,1,90
301,178,57333,1,0
301,178,57424,1,0
384,144,57606,1,0
384,320,57969,5,0
384,320,58151,2,0,B|336:272|248:272,1,135
261,272,58515,2,0,B|200:192,1,90
128,240,58878,1,0
32,352,59060,1,0
48,336,59151,1,0
64,320,59242,1,0
72,160,59424,2,0,B|112:176|160:176,1,90
176,48,59787,2,0,B|136:32|88:32,1,90
264,32,60151,1,0
264,32,60333,2,0,B|352:48,1,90
320,136,60696,5,0
440,168,60878,1,0
400,288,61060,1,0
280,240,61242,1,0
320,136,61424,1,0
320,136,61606,2,0,B|280:112|216:96,1,90
320,136,61969,2,0,B|296:176|280:240,2,90
408,152,62515,1,0
392,192,62606,1,0
384,240,62696,1,0
472,248,62878,6,0,B|440:304|336:328,1,135
363,321,63242,2,0,B|456:368,2,90
288,272,63787,1,0
216,216,63969,1,0
216,216,64060,2,0,B|248:160|248:80,1,135
247,86,64515,2,0,B|152:72,1,90
152,160,64878,1,0
72,200,65060,1,0
136,264,65242,1,0
208,224,65424,5,0
208,224,65515,2,0,B|240:272|336:288,1,135
344,200,65969,2,0,B|400:200|440:160,1,90
427,171,66333,1,0
472,344,66696,1,0
448,304,66787,1,0
416,272,66878,1,0
344,232,67060,5,0
256,216,67242,1,0
168,232,67424,1,0
96,280,67606,1,0
96,280,67969,2,0,B|112:224|112:144,1,135
111,146,68333,2,0,B|200:112,1,90
264,176,68696,2,0,B|312:160|336:112,1,90
408,216,69060,2,0,B|360:232|336:280,1,90
256,32,69787,6,0,B|240:72|200:104,1,90
288,160,70151,1,0
336,232,70333,1,0
288,160,70515,1,0
336,232,70696,1,0
344,280,70787,1,0
336,328,70878,1,0
424,328,71060,5,0
216,328,71242,1,0
208,280,71333,1,0
216,232,71424,1,0
136,272,71606,1,0
128,224,71697,1,0
136,176,71788,1,0
48,168,71969,5,0
216,176,72151,1,0
216,176,72242,1,0
216,176,72333,2,0,B|264:176|288:128,1,90
232,48,72696,1,0
232,48,72787,1,0
232,48,72878,2,0,B|184:48|160:96,2,90
120,32,73424,6,0,B|72:32|48:80,1,90
48,78,73696,1,0
48,78,73787,1,0
40,168,73969,1,0
96,240,74151,1,0
136,264,74242,1,0
184,272,74333,1,0
208,184,74515,5,0
160,176,74606,1,0
120,152,74697,1,0
280,160,74878,1,0
368,160,75060,1,0
384,200,75151,1,0
368,240,75242,1,0
280,160,75424,5,0
280,72,75606,1,0
280,72,75696,1,0
280,72,75787,2,0,B|328:72|368:104,2,90
280,288,76333,1,0
280,288,76515,1,0
328,296,76606,1,0
376,288,76696,1,0
376,144,76878,5,0
376,288,77060,1,0
328,296,77150,1,0
280,288,77241,1,0
184,352,77424,1,0
232,360,77515,1,0
280,352,77605,1,0
88,352,77787,5,0
88,352,77969,1,0
88,352,78060,1,0
88,352,78151,2,0,B|48:320|48:264,1,90
48,184,78515,1,0
48,184,78606,1,0
48,184,78696,2,0,B|80:216|144:216,2,90
224,264,79242,6,0,B|200:304|200:352,1,90
200,349,79515,1,0
200,349,79606,1,0
200,192,79787,1,0
200,192,79969,1,0
176,152,80060,1,0
160,112,80151,1,0
264,88,80333,1,0
288,128,80424,1,0
304,168,80515,1,0
360,304,80696,5,0
464,208,80878,1,0
464,208,81060,2,0,B|432:120|432:32,1,180
352,40,81606,1,0
264,56,81787,1,0
176,72,81969,1,0
88,88,82151,1,0
96,248,82515,6,0,B|144:288|240:288,1,135
222,287,82878,2,0,B|168:360,1,90
288,352,83242,2,0,B|352:256,1,90
352,184,83606,2,0,B|424:192|480:152,1,135
479,152,83969,2,0,B|472:248,1,90
472,241,84242,1,0
472,241,84333,1,0
384,248,84515,5,0
296,256,84696,1,0
208,264,84878,1,0
208,264,84969,1,0
208,40,85424,2,0,B|208:112|144:160,1,135
149,156,85787,2,0,B|240:144,1,90
328,136,86151,1,0
336,240,86515,1,0
296,256,86606,1,0
256,272,86696,1,0
256,16,87242,5,0
184,72,87424,1,0
112,128,87606,1,0
184,72,87787,1,0
32,184,87969,1,0
208,184,88333,2,0,B|248:128|320:112,1,135
318,112,88696,2,0,B|240:16,1,90
360,160,89060,2,0,B|432:248,1,90
336,264,89424,2,0,B|280:184,1,90
168,256,89787,1,0
285,190,89969,1,0
256,192,90151,12,0,92696
256,192,93060,6,0,B|304:176|328:136,1,90
256,192,93424,2,0,B|208:208|184:248,1,90
272,280,93787,1,0
240,104,93969,1,0
144,104,94151,6,0,B|40:104,1,90
368,280,94515,2,0,B|472:280,1,90
256,192,94878,1,0
272,280,95060,1,0
272,280,95151,1,0
272,280,95242,1,0
368,280,95424,1,0
440,232,95606,2,0,B|472:200|464:144,1,90
376,168,95969,6,0,B|376:72,1,90
376,78,96333,1,0
296,32,96515,1,0
256,112,96696,1,0
216,32,96878,1,0
136,78,97060,6,0,B|136:168,1,90
136,168,97424,2,0,B|132:221|88:240,1,90
89,239,97787,2,0,B|84:291|122:318,1,90
216,320,98151,1,0
216,320,98242,1,0
216,320,98333,1,0
256,240,98515,2,0,B|344:240,1,90
346,240,98878,6,0,B|398:240|416:192,1,90
415,193,99242,2,0,B|468:194|488:144,2,90
415,193,99787,1,0
416,104,99969,6,0,B|392:64|392:64|352:48,1,90
96,104,100333,2,0,B|120:64|120:64|160:48,1,90
256,48,100696,1,0
256,48,100878,2,0,B|256:152,1,90
256,138,101242,1,0
256,232,101424,1,0
328,288,101606,5,0
328,288,101696,1,0
328,288,101787,1,0
256,344,101969,1,0
184,288,102151,1,0
96,288,102333,1,0
256,72,102878,5,0
272,72,103242,1,0
288,72,103606,1,0
304,72,103969,1,0
392,72,104151,1,0
256,304,104696,5,0
112,192,105060,1,0
400,192,105606,1,0
256,80,106151,5,0
256,96,106696,5,0
256,112,107242,5,0
256,128,107606,6,0,B|264:176|320:200,1,90
256,256,107969,2,0,B|248:208|192:184,1,90
333,122,108333,1,0
179,262,108515,1,0
136,192,108696,2,0,B|88:192|48:232,1,90
54,225,109060,5,0
24,144,109242,1,0
104,104,109424,1,0
192,128,109606,1,0
256,64,109787,1,0
320,128,109969,1,0
408,104,110151,1,0
488,144,110333,1,0
457,225,110515,5,0
256,296,110878,1,0
256,296,111424,1,0
56,224,111969,5,0
72,224,112515,5,0
88,224,113060,5,0
104,224,113424,6,0,B|152:224|192:184,1,90
408,224,113787,2,0,B|360:224|320:184,1,90
256,136,114151,6,0,B|256:40,1,90
256,248,114515,2,0,B|256:344,1,90
185,190,114878,5,0
326,190,115060,1,0
154,162,115242,1,0
359,217,115424,1,0
256,136,115606,5,0
256,248,115788,1,0
256,48,115969,5,0
256,48,116151,1,0
256,360,116333,6,0,B|192:232,1,135
195,239,116696,2,0,B|168:272|112:272,1,90
120,360,117060,1,0
104,192,117242,1,0
104,192,117424,2,0,B|176:160|176:80,1,135
175,86,117787,2,0,B|256:160,1,90
312,200,118151,1,0
384,248,118333,1,0
464,288,118515,2,0,B|496:216|496:88,1,180
336,104,119060,5,0
336,104,119242,1,0
216,240,119424,1,0
144,72,119606,1,0
144,72,119787,1,0
288,184,119969,1,0
144,160,120151,5,0
144,160,120333,2,0,B|216:160|256:80,1,135
176,40,120696,1,0
176,40,120878,2,0,B|288:8,1,90
224,136,121242,1,0
320,152,121424,2,0,B|416:240,1,90
386,213,121787,2,0,B|338:213|303:248,1,90
232,304,122151,5,0
176,232,122333,1,0
232,304,122515,1,0
128,160,122696,1,0
128,160,122878,2,0,B|208:136|240:16,1,180
237,26,123333,1,0
237,26,123424,2,0,B|320:80,1,90
352,160,123787,1,0
296,232,123969,1,0
384,248,124151,1,0
328,320,124333,1,0
416,328,124515,5,0
416,328,124696,2,0,B|496:200,1,135
487,213,125060,2,0,B|440:184|424:152,1,90
423,151,125333,1,0
416,24,125606,2,0,B|304:48,1,90
232,56,125969,1,0
96,80,126151,1,0
120,216,126333,1,0
256,192,126515,1,0
256,192,126878,5,0
256,192,126969,1,0
256,192,127060,2,0,B|272:280,2,90
240,56,127606,1,0
272,328,127787,1,0
272,328,127969,2,0,B|352:328|400:256,1,135
389,270,128333,6,0,B|464:344,1,90
464,248,128696,1,0
456,160,128878,1,0
440,72,129060,2,0,B|400:104|344:104,1,90
264,112,129424,2,0,B|304:224,1,90
208,224,129787,1,0
208,224,129878,2,0,B|160:296|72:304,1,135
176,344,130333,1,0
264,344,130515,5,0
328,280,130696,1,0
328,280,130878,1,0
328,280,130969,2,0,B|376:224|376:144,1,135
375,156,131424,2,0,B|456:216,2,90
296,112,131969,2,0,B|264:176|184:192,1,135
191,190,132333,2,0,B|144:288,1,90
72,224,132696,1,0
72,136,132878,1,0
72,48,133060,5,0
72,48,133151,1,0
192,112,133333,1,0
192,112,133424,1,0
304,176,133606,1,0
304,176,133787,2,0,B|320:224|304:272,1,90
168,256,134151,2,0,B|152:208|168:160,1,90
24,168,134515,1,0
168,256,134696,5,0
168,256,134787,1,0
168,256,134878,2,0,B|248:296,1,90
320,320,135242,1,0
408,344,135424,1,0
320,320,135606,1,0
320,320,135696,2,0,B|360:256|360:184,1,135
359,192,136060,1,0
359,192,136151,1,0
272,192,136333,5,0
208,128,136515,1,0
272,192,136696,1,0
208,256,136878,1,0
216,264,137242,1,0
384,88,137787,6,0,B|360:152|280:176,1,135
287,174,138151,2,0,B|351:263,1,90
200,304,138515,6,0,B|144:216,1,90
88,64,138878,37,0
248,152,139060,1,0
88,232,139242,1,0
240,328,139424,1,0
344,328,139606,5,0
416,280,139787,1,0
368,192,139969,2,0,B|424:192|440:144,1,90
424,56,140333,1,0
312,40,140515,6,0,B|312:88|312:88|360:112,2,90
162,106,141060,2,0,B|200:88|200:88|200:40,1,90
256,144,141424,1,0
256,232,141606,1,0
256,320,141787,1,0
256,320,141878,1,0
256,320,141969,1,0
336,272,142151,6,0,B|368:312|416:328,1,90
176,272,142515,2,0,B|144:312|96:328,1,90
96,240,142878,1,0
24,192,143060,1,0
96,144,143242,1,0
96,144,143333,1,0
96,144,143424,1,0
488,192,143606,5,0
416,240,143787,1,0
416,144,143969,2,0,B|388:103|340:95,1,90
96,144,144333,2,0,B|124:103|172:95,1,90
256,64,144696,2,0,B|256:168,1,90
256,320,145060,2,0,B|256:216,1,90
96,144,145424,5,0
416,240,145606,1,0
344,192,145787,2,0,B|368:150|418:144,1,90
416,144,146060,1,0
416,144,146151,1,0
336,96,146333,1,0
256,64,146515,6,0,B|152:64,1,90
96,144,146878,2,0,B|72:192|96:240,1,90
168,280,147242,2,0,B|192:232|168:184,1,90
172,192,147515,1,0
172,192,147605,1,0
172,192,147696,1,0
172,192,147787,1,0
256,152,147969,5,0
339,192,148151,1,0
424,152,148333,2,0,B|464:184|464:184|464:224,1,90
464,224,148696,2,0,B|424:256|424:256|424:294,2,90
424,152,149242,1,0
464,80,149424,2,0,B|437:40|328:40|299:80,1,180
256,160,149969,5,0
299,78,150151,1,0
212,78,150333,1,0
256,160,150515,2,0,B|256:208,2,45
212,78,150878,1,0
299,78,151060,1,0
344,160,151242,6,0,B|380:192|427:192,2,90
256,160,151787,1,0
256,160,151969,1,0
256,160,152151,1,0
168,160,152333,6,0,B|132:192|85:192,2,90
100,112,152878,2,0,B|68:76|20:80,1,90
19,303,153242,2,0,B|68:308|100:272,1,90
100,271,153515,1,0
100,271,153606,1,0
184,304,153787,5,0
256,248,153969,1,0
328,304,154151,2,0,B|416:304,1,90
472,232,154515,2,0,B|384:232,2,90
472,232,155060,1,0
424,152,155242,6,0,B|424:110|400:56|344:48|301:48,1,180
336,136,155787,1,0
256,192,155969,2,0,B|256:280,2,90
176,136,156515,1,0
256,192,156696,2,0,B|256:280,1,90
256,282,157060,5,0
328,336,157242,1,0
184,336,157424,1,0
120,272,157606,1,0
120,272,157696,1,0
120,272,157787,1,0
32,272,157969,1,0
80,192,158151,6,0,B|32:192|0:152,2,90
72,104,158696,1,0
152,72,158878,1,0
208,136,159060,1,0
256,64,159242,1,0
256,64,159333,1,0
256,64,159424,1,0
304,136,159606,5,0
360,72,159788,1,0
440,104,159969,2,0,B|440:200,1,90
440,284,160333,2,0,B|396:266|351:282,1,90
304,352,160696,2,0,B|257:369|214:350,1,90
71,281,161060,2,0,B|116:266|160:281,1,90
256,280,161424,1,0
256,240,161787,1,0
256,64,162151,5,0
128,192,162333,1,0
384,192,162515,1,0
256,192,162696,1,0
256,192,162878,12,0,163969
