osu file format v9

[General]
AudioFilename: Lucid Dream.mp3
AudioLeadIn: 0
PreviewTime: 161167
Countdown: 0
SampleSet: Soft
StackLeniency: 0.4
Mode: 0
LetterboxInBreaks: 0

[Editor]
Bookmarks: 25638,116331,240566
DistanceSpacing: 1
BeatDivisor: 4
GridSize: 4

[Metadata]
Title:Lucid Dream
Artist:EastNewSound
Creator:eveless
Version:Normal
Source:Touhou
Tags:Pokedigi Pokie Leorda C77 ENS Sacred Factor Kokucho Chata Idumin Izumin Hijiri Byakuren Fires of Hokkai

[Difficulty]
HPDrainRate:3
CircleSize:4
OverallDifficulty:4
ApproachRate:5
SliderMultiplier:1.2
SliderTickRate:0.5

[Events]
//Background and Video events
0,0,"Lucid Dream.jpg"
//Break Periods
2,37472,45954
2,116531,126425
2,161706,171601
//Storyboard Layer 0 (Background)
//Storyboard Layer 1 (Fail)
//Storyboard Layer 2 (Pass)
//Storyboard Layer 3 (Foreground)
//Storyboard Sound Samples
//Background Colour Transformations
3,100,163,162,255

[TimingPoints]
3390,352.941176470588,4,2,1,50,1,0

[Colours]
Combo1 : 255,128,192
Combo2 : 251,205,111
Combo3 : 54,121,222
Combo4 : 180,122,250

[HitObjects]
40,192,14684,1,8
40,192,15213,1,8
460,192,16448,2,0,B|348:260,1,120,8|0
256,32,17507,5,8
256,32,18037,1,8
0,356,19272,2,0,B|44:236,1,120,8|0
256,340,20331,5,8
256,340,20860,1,8
508,4,22095,2,0,B|476:132,1,120,8|0
256,30,23154,5,8
256,30,23684,1,8
512,352,24919,2,0,B|388:296,1,120,8|0
284,304,25625,1,8
192,228,25978,6,0,B|60:180,2,120,4|8|0
228,180,26860,2,0,B|200:112,1,60,0|8
324,152,27390,1,0
392,52,27742,1,8
480,132,28095,2,0,B|496:180|452:236|396:196,1,120,0|8
384,324,28801,6,0,B|456:352,1,60,0|8
376,244,29331,2,0,B|312:272,1,60,8|0
380,164,29860,1,8
260,148,30213,2,0,B|192:144|152:68,1,120,0|8
124,40,30742,2,0,B|140:132|84:156,1,120
40,172,31272,1,8
84,284,31625,5,0
200,256,31978,1,8
276,164,32331,2,0,B|296:84|256:40,1,120,0|8
372,96,33037,2,0,B|352:160|376:224,1,120,0|8
424,244,33566,1,0
312,288,33919,1,0
256,264,34095,2,0,B|180:256|132:324,1,120,8|0
108,192,34801,5,8
320,84,35507,1,8
232,168,35860,1,0
348,200,36213,2,0,B|404:252|412:328,1,120,8|0
288,292,36919,1,8
172,268,37272,5,4
196,196,47154,6,0,B|332:180,4,120,4|0|0|0|4
112,112,48919,1,8
56,212,49272,2,0,B|100:328,1,120,0|8
168,228,49978,2,0,B|260:316,2,120,0|8|0
280,188,51037,1,8
392,144,51389,6,0,B|312:32,1,120,0|8
216,100,52095,2,0,B|88:52,1,120,0|8
108,184,52801,6,0,B|60:236|64:296|136:356|224:272,1,240
244,172,53860,1,8
364,180,54213,2,0,B|424:136|400:52,2,120,0|8|0
340,300,55272,1,8
220,284,55625,6,0,B|148:264,1,60,0|8
180,148,56154,2,0,B|200:212,1,60,8|0
236,92,56684,1,8
340,148,57037,6,0,B|392:184|388:252,1,120,0|8
268,236,57742,2,0,B|248:304|180:320,1,120,0|8
148,204,58448,6,0,B|108:204|64:168|40:128,1,120,0|8
28,84,58978,1,0
152,76,59331,2,0,B|176:96|208:92,2,60,0|8|0
192,32,59860,6,0,B|256:36|316:16,1,120,4|8
360,48,60389,1,0
372,168,60742,2,0,B|360:200|364:240,1,60,0|8
376,348,61272,6,0,B|316:324|248:352,1,120,0|8
200,360,61801,2,0,B|236:304|224:232,1,120
212,188,62331,1,8
316,124,62684,6,0,B|280:68|216:52,1,120,0|8
236,112,63213,2,0,B|176:84|100:120,1,120
64,136,63742,1,8
100,252,64095,6,0,B|120:316|88:368,1,120,0|8
148,368,64625,2,0,B|196:336|284:356,1,120
244,296,65154,2,0,B|252:228|300:180,1,120,8|0
412,188,65860,5,8
464,80,66213,2,0,B|432:60|392:60,1,60,0|8
292,100,66742,2,0,B|252:92|224:96,1,60,8|0
168,191,67272,2,0,B|194:202|228:200,1,60,8|0
124,260,67801,2,0,B|96:243|65:248,1,60,0|8
404,264,68331,6,0,B|408:200|460:164,1,120,0|8
388,68,69037,1,0
328,68,69213,2,0,B|296:60|268:60,1,60,0|8
256,180,69742,6,0,B|232:224|272:256|256:312,3,120,0|8|0|8
144,348,71154,6,0,B|112:292|36:280,1,120,4|8
60,224,71684,2,0,B|128:228|164:160,1,120
208,200,72213,2,0,B|184:256|192:320,1,120,8|0
292,252,72919,2,0,B|312:220|304:180,1,60,8|0
256,84,73448,2,0,B|248:120|256:156,1,60,0|8
372,152,73978,6,0,B|432:188|456:256,1,120,0|8
392,224,74507,2,0,B|424:284|396:344,1,120
364,292,75037,2,0,B|340:352|264:356,1,120,8|0
152,328,75742,1,8
152,328,75919,1,0
248,176,76448,2,0,B|220:144|184:136,1,60,8|0
148,112,76801,6,0,B|124:176|40:192,1,120,0|8
56,128,77331,2,0,B|120:168|132:232,1,120
188,220,77860,2,0,B|252:192|316:228,1,120,8|0
404,288,78566,1,8
404,288,78742,1,0
424,168,79095,2,0,B|440:132|480:132,1,60,0|8
376,56,79625,6,0,B|272:36|208:128,1,180,0|8
100,88,80507,1,0
100,88,80684,1,8
84,208,81037,6,0,B|116:252|96:352|24:368,1,180,0|8
160,356,81919,1,0
220,344,82095,1,8
276,320,82272,1,0
320,280,82448,6,0,B|316:212|368:152,1,120,4|0
376,224,82978,2,0,B|424:160|496:160,1,120
504,212,83507,2,0,B|504:140|432:100,1,120,8|0
332,136,84213,2,0,B|292:124|256:128,1,60,8|0
172,188,84742,2,0,B|196:212|240:212,1,60,0|8
256,328,85272,5,0
200,308,85448,1,0
140,312,85625,1,8
88,340,85801,2,0,B|44:284|48:216,2,120,0|8|0
140,312,86684,6,0,B|156:224|128:92|104:68,1,240
228,100,87742,1,8
300,196,88095,6,0,B|384:164|456:208|488:272|448:336|344:344|288:296,1,360,0|8
200,232,89507,2,0,B|136:168|128:92|256:-24|360:84,1,360,0|8
292,184,90919,2,0,B|340:292|256:368|172:364|104:360|60:304,1,360,0|8
70,315,92331,5,4
140,88,93037,2,0,B|80:132,3,60,0|8|0|8
152,132,93742,6,0,B|204:84|272:80,1,120,4|8
236,136,94272,2,0,B|320:136|376:176,1,120
296,180,94801,2,0,B|368:224|392:272,1,120,8|0
300,344,95507,2,0,B|260:344|228:360,1,60,8|0
124,328,96037,2,0,B|144:304|184:296,1,60,0|8
260,212,96566,6,0,B|192:196|120:208,1,120,0|8
80,212,97095,1,0
28,240,97272,2,0,B|84:188|84:124,1,120,0|8
84,76,97801,1,0
56,24,97978,6,0,B|112:52|184:48,1,120,0|8
228,28,98507,2,0,B|280:12|368:44,1,120
400,60,99037,1,8
437,108,99213,1,0
436,108,99389,6,0,B|400:160|320:172,1,120,0|8
388,200,99919,2,0,B|328:216|288:300,1,120
284,336,100448,2,0,B|276:264|200:240,1,120,8|0
96,224,101154,2,0,B|84:196|88:156,1,60,8|0
160,68,101684,2,0,B|176:96|172:136,1,60,0|8
228,152,102037,1,0
280,124,102213,6,0,B|332:92|420:112,1,120,0|8
348,220,102919,2,0,B|388:252|384:284,2,60,0|8|0
256,296,103625,6,0,B|208:336|124:328,1,120,0|8
180,280,104154,2,0,B|104:268|72:204,1,120
52,168,104684,1,8
27,111,104860,1,0
28,112,105037,6,0,B|112:36|204:12|128:72|128:72|176:152|304:108,1,360,4|8
488,144,106448,2,0,B|380:160|341:264|341:264|220:248|168:212,1,360,0|8
88,288,107860,5,0
196,344,108213,1,8
316,348,108566,1,0
428,308,108919,1,8
484,204,109272,6,0,B|472:136|396:100,1,120,0|8
424,168,109801,2,0,B|368:120|304:132,1,120
256,140,110331,1,8
256,140,110507,1,0
208,176,110684,6,0,B|168:228|88:204,1,120,0|8
48,180,111213,2,0,B|80:236|64:300,1,120
22,338,111742,1,8
142,338,112095,6,0,B|199:320|258:346,1,120,0|8
315,325,112625,1,0
428,284,112978,2,0,B|448:316|444:356,2,60,0|8|0
392,236,113507,6,0,B|324:208|292:160,1,120,0|8
260,120,114037,1,0
176,32,114389,2,0,B|144:56|100:56,1,60,0|8
196,148,114919,5,4
368,316,115625,2,0,B|328:336|288:320,1,60,0|8
328,268,115978,2,0,B|364:256|404:264,1,60,0|8
368,316,116331,5,4
92,192,127625,6,0,B|168:160,3,60,4|0|8|0
256,220,128507,2,0,B|284:196|352:204|376:220,1,120,8|8
324,252,129037,2,0,B|384:280|408:344,1,120,0|8
344,332,129566,1,0
224,328,129919,2,0,B|172:332|156:348,1,60,0|8
48,368,130448,6,0,B|56:328|48:300,3,60,0|0|8|0
164,272,131331,2,0,B|184:200|156:132,1,120,8|8
184,96,131860,6,0,B|152:156|68:172,1,120,0|8
33,148,132389,2,0,B|8:84|33:4,1,120
84,12,132919,2,0,B|112:20|144:16,1,60,8|0
200,40,133272,6,0,B|236:40|264:52,1,60
320,48,133625,2,0,B|372:52|400:48,1,60,8|0
320,156,134154,2,0,B|284:180|272:220,2,60,0|8|0
332,216,134684,6,0,B|300:244|304:308|360:328,1,120,0|8
404,312,135213,2,0,B|436:280|428:224|404:208|368:200,1,120
368,264,135742,1,8
272,336,136095,6,0,B|236:336|208:324,1,60
152,328,136448,2,0,B|100:324|72:328,1,60,8|0
152,220,136977,2,0,B|188:196|200:156,2,60,0|8|0
140,160,137507,6,0,B|172:132|168:68|112:48,1,120
68,64,138036,2,0,B|36:96|44:152|68:168|104:176,1,120
104,112,138565,1,0
220,136,138919,6,0,B|300:132|360:172,1,120,4|8
280,176,139448,2,0,B|352:212|364:276,1,120
308,232,139978,2,0,B|336:312|312:368,1,120,8|0
200,340,140684,2,0,B|164:332|120:356,1,60,8|0
36,292,141213,2,0,B|60:268|96:272,1,60,0|8
184,196,141742,6,0,B|152:144|180:72,1,120,0|8
232,52,142272,1,0
336,116,142625,2,0,B|380:112|412:124,1,60,0|8
443,229,143154,6,0,B|371:253|303:225,1,120,0|8
348,288,143684,2,0,B|280:272|208:288,1,120
170,297,144213,1,8
112,192,144566,6,0,B|108:156|68:148,3,60,0|0|8|0
192,168,145448,2,0,B|244:156|288:168|328:196,1,120,8|0
252,208,145978,2,0,B|320:244|332:320,1,120,0|8
268,288,146507,2,0,B|232:332|148:348,1,120
104,352,147037,5,8
84,236,147389,2,0,B|56:216|52:184,3,60,0|0|8|0
168,148,148272,2,0,B|172:88|236:40,1,120,8|0
240,104,148801,6,0,B|296:64|380:88,1,120,0|8
308,120,149331,2,0,B|380:132|428:172,1,120
359,178,149860,1,8
406,288,150213,5,4
291,324,150566,1,8
172,310,150919,1,0
140,196,151272,2,0,B|68:180|48:112,1,120,8|0
168,96,151978,6,0,B|232:100|284:152,1,120,8|0
384,192,152684,1,8
404,312,153037,6,0,B|472:332|536:324,2,120,0|8|0
284,328,154095,1,8
188,260,154448,2,0,B|128:276,1,60,0|8
24,220,154978,2,0,B|88:196,1,60,8|0
92,80,155507,1,8
212,68,155860,6,0,B|304:64|400:96,2,180,0|8|0
292,160,157272,2,0,B|328:172|348:204,1,60,0|8
248,272,157801,2,0,B|276:304|280:344,1,60,8|0
156,320,158331,1,8
40,292,158684,6,0,B|68:232|36:160,2,120,0|8|0
155,270,159742,2,0,B|227:254|275:210,1,120,8|0
304,107,160448,1,8
196,52,160801,2,0,B|160:68|128:72|94:67|64:44,2,120,0|8|4
84,192,172801,6,0,B|148:128|264:168,2,180,4|0|0
184,264,174213,2,0,B|272:288|380:264,2,180
72,296,175625,6,0,B|28:208|64:108,2,180
152,204,177037,2,0,B|232:148|344:156,2,180
256,268,178448,6,0,B|368:316|472:280|508:188|504:84,1,360,4|0
388,156,179860,2,0,B|276:112|168:144|132:232|120:312,1,360,4|0
256,192,181272,12,0,184095
116,196,184801,6,0,B|212:156|308:196,1,180,0|2
456,112,185860,2,0,B|416:52|336:52,2,120,0|2|0
456,232,186919,2,0,B|456:296|384:348,1,120,0|2
312,252,187625,2,0,B|240:280|180:268,1,120,2|0
84,208,188331,2,0,B|64:136|108:80,2,120,0|2|0
192,156,189389,1,2
256,56,189742,6,0,B|328:48|396:80,1,120,0|2
320,100,190272,2,0,B|392:132|428:184,1,120,0|2
356,169,190801,2,0,B|400:213|408:281,1,120,2|0
288,272,191507,2,0,B|252:272|224:284,1,60,2|0
116,340,192037,2,0,B|152:352|196:348,2,60,0|2|0
56,332,192566,6,0,B|92:272|64:200,1,120,0|2
128,112,193272,2,0,B|176:152|176:232,1,120,0|2
288,180,193978,2,0,B|332:108,3,60,0|0|2|0
336,188,194684,2,0,B|364:244|432:260,1,120,0|2
468,144,195389,5,4
360,92,195742,1,2
360,92,195919,1,0
192,156,196448,1,2
260,256,196801,5,0
140,268,197154,1,2
140,268,197331,1,0
60,108,197860,1,2
172,60,198213,6,0,B|252:16|364:64,2,180,0|2|0
260,144,199625,2,0,B|340:176|396:280,2,180,0|2|0
248,264,201037,6,0,B|176:288|108:272,1,120,0|2
68,268,201566,1,0
80,148,201919,2,0,B|72:108|36:80,2,60,0|2|0
140,136,202448,6,0,B|240:96|364:132|400:176|440:224|440:284,1,360,0|2
256,192,203860,12,0,206331
256,192,206684,6,0,B|324:172|368:112,1,120,4|8
260,56,207389,2,0,B|196:60|148:128,1,120,0|8
120,228,208095,1,0
216,300,208448,1,8
328,264,208801,1,0
436,316,209154,1,8
436,316,209507,6,0,B|464:200,1,120,0|8
348,168,210213,2,0,B|412:64,1,120,0|8
292,60,210919,2,0,B|216:96,3,60,0|0|8|0
120,68,211801,2,0,B|40:96,1,60,0|8
40,208,212331,6,0,B|120:220|128:288,1,120,0|8
228,212,213037,2,0,B|216:288|288:308,1,120,0|8
400,284,213742,6,0,B|452:228|392:160,1,120,0|8
500,104,214448,2,0,B|436:92|416:24,1,120,0|8
304,68,215154,5,0
184,56,215507,1,8
240,164,215860,1,0
120,184,216213,1,8
172,292,216566,2,0,B|132:348,3,60,0|0|8|0
304,268,217625,2,0,B|336:216,1,60,8|0
368,164,217978,5,0
256,124,218331,2,0,B|256:48,1,60,8|0
124,188,219037,1,8
236,236,219389,6,0,B|308:348,1,120,0|8
420,340,220095,2,0,B|500:232,1,120,0|8
468,124,220801,5,0
356,80,221154,1,8
244,124,221507,1,0
224,244,221860,1,8
104,252,222213,5,0
188,168,222566,1,8
308,188,222919,1,0
336,304,223272,1,8
216,324,223625,6,0,B|92:348,2,120,0|8|0
336,304,224684,1,8
452,272,225037,2,0,B|484:152,2,120,0|8|0
336,304,226095,1,8
312,188,226448,6,0,B|204:144|88:192|64:272|96:372,1,360,0|8
188,288,227860,2,0,B|164:160|212:64|336:68|404:88,1,360,4|8
508,128,229272,5,4
