osu file format v9

[General]
AudioFilename: Lucid Dream.mp3
AudioLeadIn: 0
PreviewTime: 161167
Countdown: 0
SampleSet: Normal
StackLeniency: 0.4
Mode: 0
LetterboxInBreaks: 0

[Editor]
Bookmarks: 25638,116331,130095,240566
DistanceSpacing: 0.8
BeatDivisor: 4
GridSize: 4

[Metadata]
Title:Lucid Dream
Artist:EastNewSound
Creator:eveless
Version:Leorda
Source:Touhou
Tags:Pokedigi Pokie Leorda C77 ENS Sacred Factor Kokucho Chata Idumin Izumin Hijiri Byakuren Fires of Hokkai

[Difficulty]
HPDrainRate:2
CircleSize:3
OverallDifficulty:2
ApproachRate:3
SliderMultiplier:1.1
SliderTickRate:0.5

[Events]
//Background and Video events
0,0,"Lucid Dream.jpg"
//Break Periods
2,37472,41479
2,116530,126185
2,161707,177008
//Storyboard Layer 0 (Background)
//Storyboard Layer 1 (Fail)
//Storyboard Layer 2 (Pass)
//Storyboard Layer 3 (Foreground)
//Storyboard Sound Samples
//Background Colour Transformations
3,100,163,162,255

[TimingPoints]
3390,352.941176470588,4,2,1,80,1,0
93742,-100,4,1,1,80,0,1
116331,-100,4,2,1,80,0,0
206684,-100,4,1,1,80,0,1
229272,-100,4,1,1,80,0,0

[Colours]
Combo1 : 255,128,192
Combo2 : 251,205,111
Combo3 : 54,121,222
Combo4 : 180,122,250

[HitObjects]
160,56,25978,1,4
116,68,26154,1,0
86,101,26331,1,8
0,116,26684,2,0,B|18:184|83:197|137:177,1,165
216,164,27566,6,0,B|280:184|272:296|192:300,1,165
164,224,28448,1,8
104,280,28801,5,0
60,276,28978,1,0
28,244,29154,1,8
92,184,29507,2,0,B|76:104|168:124|104:20,1,165
200,32,30389,6,0,B|214:92|216:135|171:149|165:193,1,165
128,264,31272,1,8
208,300,31625,6,0,B|179:342|137:369|71:350|45:315|43:245,2,220
268,236,33389,1,8
292,152,33742,1,0
356,92,34095,1,8
428,144,34448,6,0,B|472:143|507:169|530:231|510:289|460:310,2,220
412,232,36213,1,8
328,260,36566,1,0
244,288,36919,1,8
160,316,37272,1,4
256,192,42919,12,4,46978
132,184,48566,6,0,B|108:8|369:6|334:185,1,385,4|0
236,272,50331,1,8
236,183,50684,1,0
236,272,51037,1,8
236,358,51389,6,0,B|196:352|162:333|151:282,2,110,0|8|0
236,358,52448,2,0,B|276:352|310:333|321:282,1,110,8|0
332,208,53154,1,8
304,124,53507,1,0
220,92,53860,1,8
144,140,54213,6,0,B|-68:76|-64:412|164:340,4,440,0|0|0|0|4
208,80,60213,5,8
296,80,60566,1,0
360,140,60919,2,8,B|572:76|568:412|340:340,2,440
292,196,64095,5,0
232,260,64448,1,8
172,196,64801,1,0
232,132,65154,1,8
320,132,65507,2,0,B|320:48|296:8|232:-4|160:20|136:56|145:138,4,330,0|0|0|0|0
100,276,70801,5,0
100,364,71154,2,0,B|64:360|36:348|16:320|8:288|12:256|28:224,2,165,4|0|8
180,328,72566,2,0,B|236:300|236:352|300:320,1,110,0|8
256,244,73272,2,0,B|316:232|364:256|396:312|352:392,1,220
288,328,74331,5,8
200,316,74684,1,0
168,232,75037,1,8
224,164,75389,2,0,B|288:148|336:160|384:180|432:199|458:266|456:352,1,330,0|8
367,329,76801,6,0,B|363:273|308:232|240:256,2,165
280,340,78213,2,0,B|236:344|180:333|160:296|152:240|178:198,1,220
348,240,79625,6,0,B|525:274|523:13|347:37,1,385,0|0
276,148,81389,2,8,B|160:104|188:196|56:144,1,220
120,80,82448,6,0,B|180:44|252:48|296:72,2,165,4|0|0
84,160,83860,2,0,B|48:220|52:292|76:336,2,165,0|0|0
172,152,85272,2,0,B|232:116|304:120|348:144,2,165,0|0|0
144,236,86684,2,0,B|100:272|112:368|164:380,2,165,0|0|0
200,304,88095,6,0,B|408:370|412:34|200:98,1,440
64,196,90213,1,0
256,192,90919,12,4,92331
128,188,93742,6,0,B|96:80|264:88|232:188,1,220,4|8
264,56,94978,2,0,B|200:20|144:24|92:36|64:76|48:116|40:160,1,275,0|0
52,224,96213,1,8
140,236,96566,6,0,B|128:284|112:304|76:320|22:324|-6:300|-36:248,2,220,0|8|0
160,152,98331,1,8
236,108,98684,1,0
312,148,99037,1,8
332,232,99390,6,0,B|344:280|360:300|396:316|450:320|478:296|508:244,2,220,0|8|0
420,220,101154,2,8,B|400:176|381:159|348:140|300:140|264:164|248:220,1,220
212,128,102213,6,0,B|256:88|296:64|364:68|396:92|428:104,2,220,0|8|0
176,208,103978,1,8
104,260,104331,1,0
60,184,104684,1,8
128,124,105037,6,0,B|140:63|188:36|232:11|309:-4,1,220,4|8
428,112,106448,2,0,B|416:174|391:218|364:266|303:278,1,220,0|8
148,192,107860,5,0
188,116,108213,1,8
256,58,108566,1,0
338,26,108919,1,8
395,94,109272,1,0
354,170,109625,1,8
286,227,109978,1,0
204,259,110331,1,8
272,316,110684,6,0,B|232:344|192:356|143:329|121:307|120:235,1,220,0|8
40,200,111742,1,0
116,156,112095,2,0,B|88:116|76:76|103:27|125:5|197:4,1,220,0|8
180,92,113154,5,0
200,180,113507,2,0,B|132:384|468:384|406:180,2,440,0|4|4
116,188,127625,6,0,B|88:88|252:88|228:188,1,220,4|8
316,188,128684,2,0,B|324:132|312:72|268:40|236:24|196:8|124:12|88:32|48:48|24:104|32:148,1,440,0|8
32,216,130448,6,0,B|24:352|172:336,1,220,0|8
212,256,131507,1,0
252,336,131860,2,0,B|399:351|391:215,1,220,0|8
391,127,132919,1,0
308,100,133272,2,0,B|369:302|33:302|101:98,3,440,0|0|0|4
380,316,138919,6,0,B|551:335|551:75|379:95,1,385,4|0
300,196,140684,1,8
211,196,141037,1,0
122,196,141390,1,8
72,124,141742,6,0,B|32:160|32:204|36:232|80:276,2,165,0|0|8
140,68,143154,1,0
220,32,143507,1,8
308,32,143860,1,0
388,72,144213,1,8
460,124,144566,6,0,B|500:160|500:204|496:232|452:276,2,165,0|0|8
408,196,145978,2,0,B|368:232|368:276|372:304|416:348,2,165,0|0|8
460,268,147389,2,0,B|497:230|501:202|501:158|461:123,2,165,0|0|8
408,196,148801,2,0,B|370:158|366:130|366:86|406:50,2,165,0|0|8
456,272,150213,6,0,B|396:336|280:372|180:336|100:272,1,385,4|0
232,248,151978,2,0,B|287:281|359:239,3,110,8|0|8|0
284,180,153389,2,8,B|220:128|289:99|289:99|352:76|276:20,1,220
187,19,154448,6,0,B|51:19|51:239|207:239,1,330,0|8
188,148,155860,2,0,B|324:148|324:368|168:368,1,330,0|8
184,280,157272,2,0,B|54:280|54:60|192:61,1,330,0|8
277,61,158684,2,0,B|411:59|411:279|282:279,1,330,0|8
256,192,160095,12,4,161507
256,192,178448,12,4,182684
140,172,184095,6,0,B|84:-16|372:-12|308:180,2,385
228,172,186919,1,0
228,260,187272,2,0,B|228:384,2,110
228,172,188331,1,0
144,148,188684,2,0,B|164:96|212:68|272:76|304:120|308:152,1,220
396,156,189742,6,0,B|393:118|369:70|321:10|240:4,1,220
144,80,190978,2,0,B|77:84|29:144|5:192|2:230,2,220
276,64,192919,5,0
364,64,193272,1,0
426,126,193625,1,0
364,188,193978,2,0,B|408:392|100:396|142:185,1,440,0|4
252,264,195919,6,0,B|252:44,2,220
360,72,198213,2,0,B|404:276|96:280|138:69,2,440
256,192,201125,12,4,205272
384,188,206684,6,0,B|416:80|248:88|280:188,1,220,4|8
248,56,207920,2,0,B|312:20|368:24|420:36|448:76|464:116|472:160,1,275,0|0
460,224,209155,1,8
372,236,209508,6,0,B|384:284|400:304|436:320|490:324|518:300|548:248,2,220,0|8|0
352,152,211273,1,8
276,108,211626,1,0
200,148,211979,1,8
180,232,212332,6,0,B|168:280|152:300|116:316|62:320|34:296|4:244,2,220,0|8|0
92,220,214096,2,8,B|112:176|131:159|164:140|212:140|248:164|264:220,1,220
300,128,215155,6,0,B|256:88|216:64|148:68|116:92|84:104,2,220,0|8|0
336,208,216920,1,8
408,260,217273,1,0
452,184,217626,1,8
384,124,217979,6,0,B|372:63|324:36|280:11|203:-4,1,220,4|8
84,112,219390,2,0,B|96:174|121:218|148:266|209:278,1,220,0|8
364,192,220802,5,0
324,116,221155,1,8
256,58,221508,1,0
174,26,221861,1,8
117,94,222214,1,0
158,170,222567,1,8
226,227,222920,1,0
308,259,223273,1,8
240,316,223626,6,0,B|280:344|320:356|369:329|391:307|392:235,1,220,0|8
472,200,224684,1,0
396,156,225037,2,0,B|424:116|436:76|409:27|387:5|315:4,1,220,0|8
332,92,226096,5,0
312,180,226449,2,0,B|380:384|44:384|106:180,2,440,0|4|4
