osu file format v9

[General]
AudioFilename: Lucid Dream.mp3
AudioLeadIn: 0
PreviewTime: 161167
Countdown: 0
SampleSet: Soft
StackLeniency: 0.7
Mode: 0
LetterboxInBreaks: 0

[Editor]
Bookmarks: 25638,116331,127625
DistanceSpacing: 1.01
BeatDivisor: 4
GridSize: 8

[Metadata]
Title:Lucid Dream
Artist:EastNewSound
Creator:eveless
Version:Insane
Source:Touhou
Tags:Pokedigi Pokie Leorda C77 ENS Sacred Factor Kokucho Chata Idumin Izumin Hijiri Byakuren Fires of Hokkai

[Difficulty]
HPDrainRate:6
CircleSize:4
OverallDifficulty:6
ApproachRate:8
SliderMultiplier:1.8
SliderTickRate:1

[Events]
//Background and Video events
0,0,"Lucid Dream.jpg"
//Break Periods
2,37471,46404
2,116531,126875
2,184295,194639
2,240766,248287
//Storyboard Layer 0 (Background)
//Storyboard Layer 1 (Fail)
//Storyboard Layer 2 (Pass)
//Storyboard Layer 3 (Foreground)
//Storyboard Sound Samples
//Background Colour Transformations
3,100,163,162,255

[TimingPoints]
3390,352.941176470588,4,2,0,100,1,0
14684,-200,4,2,1,50,0,0
25447,-100,4,2,1,50,0,0
25978,-100,4,2,2,70,0,0
28713,-100,4,2,1,70,0,0
28889,-100,4,2,2,70,0,0
36124,-100,4,1,1,100,0,0
46978,-100,4,1,1,89,0,0
48654,-100,4,2,1,80,0,0
79448,-200,4,2,1,80,0,0
80595,-100,4,2,1,80,0,0
82184,-100,4,1,1,60,0,0
82448,-100,4,2,1,80,0,0
88007,-200,4,2,1,65,0,0
88537,-133.333333333333,4,2,1,74,0,0
89066,-100,4,2,1,90,0,0
90742,-100,4,1,1,55,0,0
93654,-200,4,1,1,65,0,0
94184,-100,4,1,1,65,0,0
94360,-200,4,1,1,65,0,0
95419,-100,4,1,1,65,0,0
96037,-100,4,1,1,80,0,0
127448,-200,4,1,1,69,0,0
128595,-100,4,1,1,70,0,0
138919,-100,4,2,1,70,0,0
140242,-200,4,2,1,80,0,0
140772,-200,4,2,1,60,0,0
141037,-200,4,2,1,80,0,0
141566,-100,4,2,1,70,0,0
161507,-200,4,2,1,50,0,0
181007,-100,4,2,1,80,0,0
181272,-100,4,2,1,50,0,0
181801,-100,4,2,1,54,0,0
182507,-100,4,2,1,60,0,0
196978,-200,4,2,1,80,0,0
203684,-100,4,2,1,80,0,0
205448,-200,4,2,1,80,0,0
206066,-100,4,2,1,80,0,0

[Colours]
Combo1 : 255,128,192
Combo2 : 251,205,111
Combo3 : 54,121,222
Combo4 : 180,122,250

[HitObjects]
176,192,14684,2,0,B|72:96,1,135,8|8
256,96,15566,1,0
312,144,15742,2,0,B|456:280,1,180,2|8
313,143,16801,1,2
256,288,17154,5,2
256,96,17507,1,8
64,192,18037,2,0,B|136:200|208:192,1,135,8|2
304,119,18919,1,0
412,308,19272,6,0,B|335:178,2,135,8|2|8
256,104,20860,1,8
100,308,21389,2,0,B|177:178,1,135,2|2
168,191,22095,1,8
208,296,22448,1,0
256,224,22801,1,2
256,40,23154,5,8
256,39,23684,1,8
255,104,23860,2,0,B|256:204,1,90,2|0
256,336,24919,1,8
256,336,25272,1,2
256,192,25625,5,8
193,156,25801,1,0
141,207,25978,1,4
169,271,26154,1,8
242,263,26331,1,8
303,299,26507,1,8
362,258,26684,1,0
331,193,26860,1,0
256,192,27037,1,8
256,192,27213,6,0,B|264:136|248:80|256:8,1,180
320,48,27742,1,8
192,112,27919,1,0
331,193,28095,1,0
208,248,28272,1,0
312,280,28448,1,8
240,344,28625,1,0
240,344,28801,6,0,B|136:344,1,90,8|8
312,280,29154,2,0,B|416:280,1,90,8|0
208,248,29507,2,0,B|96:248,1,90,0|8
331,193,29860,5,8
331,193,30037,2,0,B|415:182|440:104|334:55,1,180,0|8
152,152,30566,2,0,B|64:152,1,90,0|8
112,248,30919,1,0
216,232,31095,1,8
144,120,31272,5,8
80,272,31448,1,0
257,234,31625,2,0,B|345:234,3,90,4|8|0|0
88,208,32331,1,8
88,120,32507,1,0
169,81,32684,1,8
256,112,32860,2,0,B|352:104|384:-8,1,180,8|0
304,40,33389,2,0,B|336:96|336:136,1,90,8|0
367,123,33654,1,0
384,149,33742,2,0,B|368:205|312:221,1,90,0|8
408,256,34095,6,0,B|512:256,1,90,0|0
256,128,34448,2,0,B|256:24,1,90,8|8
152,272,34801,2,0,B|48:272,1,90,0|8
156,187,35154,5,8
256,272,35331,1,0
364,192,35507,1,8
253,196,35684,6,0,B|213:170|223:242|279:242|303:210|283:166|257:165|257:103,1,180,0|8
458,103,36213,5,4
256,20,36478,1,0
54,103,36742,1,4
186,106,36919,6,0,B|210:170|306:163|330:106,1,180,0|4
448,192,47154,5,0
414,108,47331,1,0
345,49,47507,1,8
252,30,47684,1,0
167,49,47860,1,8
98,108,48036,1,0
64,192,48213,1,0
256,192,48389,5,0
256,192,48478,1,0
256,192,48566,1,0
272,280,48742,1,8
240,368,48919,2,0,B|256:320|224:280|224:280|184:272|144:312,1,180,8|0
64,264,49448,1,8
64,264,49537,1,0
64,264,49625,1,8
48,176,49801,6,0,B|64:120|48:72,1,90,8|0
256,184,50331,2,0,B|280:224|264:272,1,90,8|8
464,176,50860,2,0,B|448:120|464:72,1,90,0|8
256,208,51389,5,8
208,128,51566,1,8
271,64,51742,1,8
320,136,51919,1,0
256,304,52272,5,8
256,304,52448,2,0,B|200:304|176:248,1,90
256,208,52801,2,0,B|208:312|96:296,1,180,8|0
50,233,53331,2,0,B|75:132|186:105,1,180,8|0
169,109,53860,1,8
256,336,54213,5,8
256,248,54389,1,8
232,160,54566,1,8
169,109,54742,2,0,B|136:72|96:56|96:56|48:72|16:120,1,180,0|8
88,192,55272,1,8
23,265,55448,2,0,B|56:302|96:318|96:318|144:302|176:254,1,180
88,192,55978,1,8
176,192,56154,2,0,B|368:192,1,180
447,192,56684,1,8
288,104,57037,6,0,B|240:80|216:32,1,90,8|8
184,128,57389,1,8
184,128,57566,2,0,B|80:120|0:200,1,180,0|8
168,288,58095,1,8
168,288,58272,2,0,B|272:296|352:216,1,180
379,154,58801,1,8
378,153,58889,1,0
379,153,58978,1,0
80,254,59331,1,0
80,254,59419,1,0
80,254,59507,1,8
152,200,59684,1,0
256,120,59860,6,0,B|256:72|216:24,1,90,12|8
256,192,60213,1,8
256,264,60389,2,0,B|288:352|408:368,1,180,0|8
256,264,60919,2,0,B|224:352|104:368,1,180,8|8
256,96,61625,5,8
256,48,61801,1,8
256,216,62154,5,0
256,152,62331,1,8
256,48,62684,5,8
256,96,62860,1,8
256,152,63037,1,8
256,216,63213,1,0
168,304,63566,6,0,B|208:336|256:344|256:344|296:336|352:296,1,180,8|0
344,80,64095,2,0,B|304:48|256:40|256:40|216:48|160:88,1,180,8|0
104,192,64625,1,8
104,192,64713,1,0
168,192,64889,1,8
168,192,64978,1,0
232,192,65154,1,8
296,192,65331,2,0,B|408:192,1,90,0|8
416,256,65684,5,8
368,128,65860,1,8
320,257,66037,1,0
320,257,66125,1,0
320,257,66213,1,8
416,256,66389,5,8
368,128,66566,1,8
320,257,66742,2,0,B|128:256,1,180
88,128,67272,5,8
28,254,67448,1,8
28,254,67537,1,0
28,254,67625,1,8
139,256,67801,1,0
88,128,67978,1,8
256,144,68331,5,8
296,192,68507,1,8
256,240,68684,1,8
216,192,68860,1,0
256,120,69037,5,0
256,120,69125,1,0
256,120,69213,1,8
191,191,69389,1,8
255,266,69566,1,0
324,194,69742,1,8
416,192,69919,5,8
464,112,70095,1,8
392,56,70272,1,0
344,136,70448,1,8
288,64,70625,1,8
208,104,70801,1,8
256,184,70978,1,0
345,137,71154,5,4
153,119,71507,1,8
101,209,71684,1,0
144,80,72037,1,8
64,216,72213,1,8
120,184,72389,5,0
120,248,72566,5,8
256,320,72919,2,0,B|280:312|296:288|296:288|280:248|256:240,1,90,8|0
256,64,73448,2,0,B|232:72|216:96|216:96|232:136|256:144,1,90,0|8
328,192,73801,1,0
440,192,73978,6,0,B|400:160|360:152|360:152|320:160|256:200,1,180,8|8
312,272,74507,1,0
240,328,74684,1,0
166,277,74860,1,8
188,189,75037,1,8
72,192,75213,6,0,B|112:224|152:232|152:232|192:224|256:184,1,180
256,112,75742,1,8
256,112,75831,1,0
256,24,76007,1,8
256,24,76095,1,0
336,64,76272,5,8
176,64,76448,1,8
256,320,76801,5,8
176,280,76978,1,8
344,224,77331,1,8
268,176,77507,2,0,B|200:184|168:136|168:136|152:160|108:168,1,180,0|8
24,104,78037,1,0
32,200,78213,1,8
90,281,78389,1,0
201,309,78566,1,8
280,264,78742,1,8
206,229,78919,1,0
146,161,79095,1,0
136,60,79272,1,8
296,160,79625,6,0,B|296:56,1,90,8|8
384,112,80154,2,0,B|384:208,1,90,0|8
296,160,80684,6,0,B|184:160,1,90,8|0
384,112,81037,2,0,B|496:112,1,90,8|0
384,202,81389,6,0,B|384:290,1,90,8|8
296,161,81742,2,0,B|296:65,2,90,0|0|8
213,72,82272,1,0
213,72,82360,1,0
213,72,82448,6,0,B|168:80|128:56|128:56|112:104|32:120,1,180,4|8
80,200,82978,2,0,B|144:216|128:288|224:312,1,180,0|8
256,232,83507,1,0
256,232,83595,1,0
344,208,83772,1,0
345,209,83860,1,8
424,256,84037,1,0
432,344,84213,1,8
328,312,84389,5,8
328,312,84478,1,0
328,312,84566,1,0
256,112,84742,5,0
256,112,84831,1,0
256,112,84919,1,8
184,312,85095,5,0
256,232,85272,6,0,B|184:224|168:168,1,90,8|8
256,112,85625,2,0,B|256:16,1,90,8|0
256,22,86154,1,8
400,232,86331,2,0,B|400:320,1,90,8|0
112,152,86684,2,0,B|112:64,1,90,8|0
256,192,87037,5,8
256,192,87213,1,8
256,280,87389,5,0
256,280,87566,1,8
256,368,87742,5,8
256,368,87919,1,0
256,368,88095,6,0,B|256:272,1,90,8|8
176,304,88625,2,0,B|178:168,1,134.999995976687,0|8
96,224,89154,2,0,B|96:32,1,180,8|8
256,192,89684,1,0
416,160,89860,2,0,B|416:352,1,180,8|0
256,192,90389,1,0
256,192,90566,1,8
72,192,90919,5,8
72,192,91007,1,0
93,104,91184,1,0
93,104,91272,1,8
166,52,91448,1,0
256,40,91625,1,8
346,53,91801,1,0
346,52,91889,1,0
346,52,91978,1,0
419,104,92154,1,8
456,184,92331,6,0,B|456:240,1,45,0|8
358,216,92595,2,0,B|358:264,1,45,0|8
256,240,92860,1,0
72,184,93037,6,0,B|72:136,1,45,8|0
165,215,93301,2,0,B|165:143,1,45,8|0
256,240,93566,1,8
256,152,93742,6,0,B|256:96,2,45,4|0|8
328,200,94272,1,0
400,256,94448,2,0,B|400:360,1,90,0|8
480,208,94978,2,0,B|480:104,1,90
256,184,95507,2,0,B|256:288,1,90,8|0
256,364,95860,1,0
256,20,96213,5,8
304,192,96566,2,0,B|448:192,2,135,0|0|8
208,191,97272,2,0,B|56:191,2,135,8|0|8
256,272,97978,1,0
256,272,98066,1,8
304,192,98242,1,0
304,192,98331,1,8
256,112,98507,1,0
256,24,98684,2,0,B|200:96|256:192,1,180,0|8
256,192,99213,1,0
256,360,99389,6,0,B|312:288|256:192,1,180,0|8
256,191,99919,6,0,B|200:288|256:360,1,180
256,360,100448,6,0,B|360:320|384:224,1,180,8|0
255,360,100978,6,0,B|152:320|128:224,1,180,8|0
257,191,101507,1,0
255,360,101860,6,0,B|360:352|440:296,1,180,8|0
256,360,102389,6,0,B|152:352|72:296,1,180,8|0
120,224,102919,1,0
200,184,103095,1,8
256,112,103272,1,8
392,224,103625,1,0
312,184,103801,1,8
256,112,103978,1,8
256,24,104154,38,0,B|256:240,1,180
256,296,104684,1,8
368,152,105037,22,0,B|432:128|456:168|504:128|440:200|440:200|496:248|448:240|432:272|392:248,1,270,4|0
256,360,105919,1,0
280,272,106095,1,8
248,96,106448,1,0
160,96,106625,2,0,B|368:96,1,180
464,232,107331,1,0
440,144,107507,1,8
264,192,107860,5,0
176,192,108037,2,0,B|64:192,1,90,0|8
86,192,108389,1,0
220,126,108566,6,0,B|219:24,1,90,8|0
219,36,108919,1,8
264,192,109095,6,0,B|368:192,1,90
354,192,109448,1,0
218,257,109625,6,0,B|218:347,1,90,8|0
217,347,109978,1,8
354,193,110154,2,0,B|354:283,1,90,0|8
352,104,110684,5,0
272,64,110860,1,0
184,88,111037,1,8
160,176,111213,2,0,B|240:160|272:200|288:248|280:288,1,180,0|8
281,269,111654,1,8
264,360,111831,1,0
264,360,111919,1,8
352,336,112095,6,0,B|384:248|384:248|344:136,1,180,0|8
160,48,112625,2,0,B|128:136|128:136|168:248,1,180
157,217,113154,1,8
416,192,113507,5,4
328,168,113684,1,0
328,168,113772,1,0
328,168,113860,1,8
239,176,114037,1,0
158,216,114213,1,8
157,217,114301,1,0
157,217,114389,1,0
113,296,114566,1,8
120,384,114742,1,0
120,384,114919,5,4
256,64,115448,2,0,B|256:224,1,135
256,199,115801,1,8
256,288,115978,1,8
392,384,116331,5,4
148,192,127625,6,0,B|148:288,1,90,4|0
360,192,128154,2,0,B|360:96,1,90,8|0
256,320,128684,6,0,B|256:208,2,90,8|0|0
256,56,129389,1,0
344,56,129566,2,0,B|400:128|344:240,1,180,8|0
456,168,130095,2,0,B|408:160|360:184,1,90,8|0
256,272,130448,5,0
192,208,130625,1,0
176,120,130801,1,0
112,56,130978,1,8
256,160,131331,1,0
256,160,131419,1,0
256,160,131507,1,8
256,296,131684,6,0,B|296:256|280:192,1,90
200,176,132037,1,0
160,40,132213,2,0,B|120:80|136:144,1,90,8|0
48,155,132566,1,8
48,155,132654,1,0
68,242,132831,1,0
68,242,132919,1,8
155,262,133095,1,0
256,272,133272,5,0
320,208,133448,1,0
336,120,133625,1,0
400,56,133801,1,8
256,160,134154,1,0
256,160,134242,1,0
256,160,134331,1,8
256,72,134507,6,0,B|208:80|152:72,1,90
256,160,134860,1,0
256,248,135037,2,0,B|304:240|360:248,1,90,8|0
392,168,135389,1,8
392,168,135478,1,0
480,200,135654,1,0
480,200,135742,1,8
480,290,135919,1,0
394,316,136095,5,0
314,273,136272,1,0
250,209,136448,2,0,B|218:166|229:118,1,90,0|8
227,124,136801,5,0
323,220,136978,1,0
227,315,137154,1,12
131,219,137331,1,0
128,88,137507,5,4
216,64,137684,1,0
304,64,137860,1,8
392,88,138037,1,0
208,160,138213,5,8
288,200,138389,1,0
360,256,138566,1,8
416,328,138742,1,8
109,189,138919,5,4
166,254,139095,2,0,B|200:296|160:352,1,90,0|8
256,272,139448,1,0
256,272,139537,1,0
256,272,139625,1,0
256,184,139801,2,0,B|256:88,2,90,8|8|0
336,232,140331,6,0,B|336:336,1,90,0|8
416,184,140860,2,0,B|416:80,1,90,8|0
416,94,141389,1,8
256,240,141742,6,0,B|256:296|208:320,1,90,8|8
256,144,142095,2,0,B|256:88|304:64,1,90,8|0
472,192,142625,1,0
472,192,142801,2,0,B|352:192,1,90,8|0
360,88,143154,2,0,B|168:88,1,180,0|8
180,88,143684,1,0
96,288,144037,1,0
200,288,144213,1,8
304,288,144389,1,0
360,192,144566,6,0,B|296:192|272:136,1,90,8|8
280,48,144919,1,8
384,80,145095,1,0
472,144,145272,5,8
472,144,145360,1,0
424,240,145537,1,0
424,240,145625,1,8
360,152,145801,1,0
248,152,145978,2,0,B|48:152,1,180,8|8
128,240,146507,2,0,B|320:240,1,180,8|0
240,328,147037,2,0,B|51:329,1,180,8|8
24,224,147566,5,8
120,184,147742,1,8
152,288,147919,2,0,B|208:256|232:192|232:192|264:224|256:256,1,180,0|8
352,184,148448,2,0,B|408:200|408:256|392:304|328:304,1,180,8|8
440,280,148978,1,0
472,176,149154,1,8
440,72,149331,1,8
440,72,149419,1,8
440,72,149507,1,0
352,128,149684,1,8
288,40,149860,1,8
192,88,150037,6,0,B|136:72,2,45,8|0|4
248,184,150389,1,8
256,296,150566,1,8
168,240,150742,2,0,B|256:248|368:240,1,180,0|8
456,208,151272,1,8
400,112,151448,1,0
400,112,151537,1,0
400,112,151625,1,8
296,96,151801,1,0
200,136,151978,1,8
168,240,152154,2,0,B|112:264|24:232|24:160,1,180,8|0
128,152,152684,6,0,B|56:216|88:320,1,180,8|8
192,328,153213,1,8
192,328,153301,1,0
192,328,153389,1,8
256,240,153566,2,0,B|272:192|304:160|304:160|272:120|256:64,1,180,0|8
255,239,154095,6,0,B|240:192|208:160|208:160|240:120|249:84,1,180,8|8
328,160,154625,2,0,B|128:160,1,180,8|0
40,160,155154,1,0
96,72,155331,1,8
96,72,155419,1,0
96,72,155507,1,8
208,64,155684,2,0,B|264:56|296:16,1,90,0|8
360,104,156037,2,0,B|416:112|472:80,1,90,8|8
424,200,156389,2,0,B|464:256|432:352|344:352,1,180,0|8
488,344,156919,6,0,B|480:280|376:248|320:280,1,180,8|8
248,328,157448,1,0
248,328,157537,1,0
248,328,157625,1,8
216,224,157801,2,0,B|200:112|288:40,1,180,8|0
296,224,158331,6,0,B|312:112|224:40,1,180,8|8
176,256,158860,1,8
256,184,159037,1,8
336,256,159213,1,0
256,112,159389,5,8
256,112,159478,1,0
256,112,159566,1,0
336,184,159742,1,8
256,256,159919,1,0
176,184,160095,2,0,B|64:184,1,90,2|0
336,184,160448,6,0,B|424:184,1,90,2|0
256,256,160801,5,0
247,281,160889,1,2
223,293,160978,1,2
197,285,161066,1,0
183,261,161154,1,2
192,235,161242,1,0
216,224,161331,1,2
240,224,161419,1,0
264,232,161507,6,0,B|288:160|256:80,1,135,4|0
216,48,162213,2,0,B|264:16|304:48,1,90,0|2
328,120,162742,2,0,B|368:152|432:144,1,90,0|2
392,224,163272,2,0,B|416:232|432:264,1,45
432,264,163537,1,0
432,280,163625,1,2
393,330,163801,1,0
333,316,163978,2,0,B|309:308|317:268,1,45,0|2
336,224,164331,6,0,B|296:184|240:184,1,90
224,112,164860,2,0,B|176:104|136:72,2,90,2|0|2
336,120,165742,1,0
358,58,165919,1,0
358,58,166007,1,0
358,58,166095,2,0,B|390:34|430:26,1,67.5,2|0
488,91,166537,1,2
488,91,166625,2,0,B|496:123|488:147,1,45,0|0
423,168,166978,2,0,B|415:200|391:200,1,45,2|8
248,264,167331,6,0,B|256:208|200:184,1,90,8|2
179,249,167860,2,0,B|227:233|267:185,1,90,0|2
321,127,168389,1,2
268,86,168566,1,0
268,86,168654,1,0
267,86,168742,2,0,B|211:86|179:46,1,90,2|0
153,62,169184,1,0
120,56,169272,2,0,B|128:88|120:112,1,45,2|0
57,83,169625,1,2
57,82,169801,1,2
58,84,169978,6,0,B|58:140|106:164,1,90,0|2
256,192,170507,2,0,B|256:136|208:112,1,90,0|2
256,264,171037,1,2
256,264,171213,5,0
256,192,171389,2,0,B|256:136|304:112,1,90,0|2
400,240,171919,2,0,B|400:296|352:320,1,90,0|2
336,320,172360,1,0
312,312,172448,1,0
256,264,172625,1,2
256,192,172801,6,0,B|256:96,1,90,4|2
112,192,173331,2,0,B|112:288,1,90,0|2
256,192,173860,2,0,B|256:96,1,90,2|0
256,32,174389,1,0
135,31,174566,1,0
136,152,174742,1,2
136,152,174831,1,0
257,151,175007,1,0
258,150,175095,1,2
198,91,175272,5,0
198,91,175448,1,2
198,91,175625,6,0,B|200:184,1,90,0|2
256,352,176154,2,0,B|256:248,2,90,0|2|0
176,296,177037,1,0
256,262,177213,1,2
305,190,177389,1,0
304,96,177566,1,2
304,96,177654,2,0,B|288:48|248:40,1,67.5,2|2
232,144,178095,5,0
368,144,178272,1,2
400,16,178448,1,12
400,16,178625,2,0,B|440:48|464:168|400:240,1,225,8|0
112,368,179860,1,12
112,368,180037,2,0,B|72:336|48:216|112:144,1,225,8|0
256,192,181095,1,0
256,101,181272,5,12
256,280,181625,1,0
338,119,181978,5,12
338,119,182154,1,8
174,265,182331,1,0
368,248,182684,5,4
368,248,182860,1,0
368,248,183037,1,0
144,136,183213,1,0
256,88,183389,5,8
256,192,183566,1,8
256,192,183654,1,0
256,192,183742,1,8
256,294,183919,1,8
256,88,184095,5,4
256,192,195389,12,0,196801
112,232,197154,6,0,B|144:168|184:256|144:328|-16:256|96:136|176:152,1,270,2|0
256,232,198566,6,0,B|264:264|240:288,1,45,0|2
400,152,199095,22,0,B|368:216|328:128|368:56|528:128|416:248|336:232,1,270,2|0
256,140,200331,2,0,B|240:96|256:32,2,90,2|0|2
328,248,201389,6,0,B|272:309|232:232|176:317|176:317|168:264|120:224,1,270,0|0
344,88,202801,2,0,B|368:128|419:136|419:136|408:176|448:232,1,180,2|0
256,304,203860,5,4
225,219,204037,1,2
161,155,204213,1,0
75,127,204389,1,2
75,127,204566,5,4
205,127,204742,1,2
316,195,204919,1,0
355,319,205095,1,2
355,319,205272,5,4
256,64,205801,2,0,B|256:128,1,45,0|8
256,199,206154,1,0
256,199,206242,1,0
256,199,206331,1,8
207,274,206507,1,8
256,349,206684,5,4
352,300,206860,1,8
398,201,207037,2,0,B|425:98|343:20,1,180,8|0
248,32,207566,1,0
248,32,207654,1,0
248,33,207742,2,0,B|205:118|93:126,1,180,8|8
152,24,208272,2,0,B|193:66|192:152|160:192,1,180,0|8
64,240,208801,1,0
256,344,209154,1,8
256,56,209507,6,0,B|272:104|256:144,1,90,8|8
160,192,209860,1,8
456,328,210213,6,0,B|440:280|456:240,1,90,0|8
376,160,210566,1,8
160,320,210919,5,8
223,256,211095,1,0
223,256,211184,1,0
223,255,211272,1,8
301,299,211448,1,8
456,208,211801,1,0
488,288,211978,1,8
488,288,212066,1,0
488,288,212154,1,0
368,232,212331,6,0,B|352:168|256:136|192:168,1,180,8|8
264,240,212860,2,0,B|216:224|136:280|144:360,1,180,0|8
254,320,213389,2,0,B|302:328|363:269|333:186,1,180,8|0
248,32,214095,1,8
211,114,214272,1,8
211,114,214360,1,0
179,198,214537,1,0
179,198,214625,1,8
100,241,214801,6,0,B|116:273|140:321|140:321|180:297|244:273,1,180,8|8
299,204,215331,1,8
354,111,215507,1,8
288,320,215860,5,0
366,275,216037,1,8
445,232,216213,1,8
248,88,216566,6,0,B|192:96|176:160,1,90,8|0
181,141,216831,1,0
181,141,216919,1,8
256,208,217095,1,0
216,296,217272,2,0,B|104:264|24:312,1,180,0|8
40,200,217801,2,0,B|16:200|0:160,2,45,8|0|4
74,97,218154,5,8
179,120,218331,1,8
255,43,218507,2,0,B|333:105|308:211,1,180,0|8
208,304,219037,1,8
208,304,219389,6,0,B|275:252|248:112,1,180,8|8
304,304,219919,2,0,B|237:252|264:112,1,180,8|0
256,32,220448,1,8
184,232,220801,6,0,B|128:296|88:280|88:280|80:264|136:208,1,180,8|8
176,128,221331,1,0
72,136,221507,6,0,B|8:80|24:40|24:40|40:32|96:88,1,180,0|8
176,128,222037,1,0
266,185,222213,5,8
298,82,222389,1,0
200,24,222566,1,8
176,128,222742,1,8
266,185,222919,5,0
266,185,223007,1,0
328,96,223184,1,0
328,96,223272,1,8
256,16,223448,1,0
192,104,223625,5,8
128,192,223801,1,8
88,88,223978,2,0,B|152:160|80:272,1,180,8|0
160,336,224507,1,8
160,336,224595,1,0
161,337,224684,2,0,B|97:265|169:153,1,180,8|8
111,97,225213,2,0,B|183:33|295:105,1,180,0|8
344,176,225742,1,0
111,314,226095,1,8
264,216,226448,6,0,B|248:264|200:288,1,90,8|8
129,218,226801,1,8
111,314,226978,1,0
96,325,227154,6,0,B|41:295|13:250,1,90,0|8
26,151,227507,1,8
130,203,227684,1,0
256,112,227860,5,4
192,320,228566,1,8
320,320,228742,1,8
176,244,228919,1,8
334,246,229095,1,0
256,344,229272,5,8
256,344,229448,1,8
256,152,229625,6,0,B|256:240,1,90,8|0
256,152,229978,1,0
256,62,230154,1,8
165,62,230331,1,8
165,151,230507,1,0
344,152,230684,6,0,B|440:152,2,90,8|0|8
344,240,231213,1,8
344,240,231301,1,0
256,240,231478,1,0
256,240,231566,1,8
256,150,231742,2,0,B|192:126|160:126,2,90,8|0|8
296,232,232272,5,8
280,320,232448,1,8
192,344,232625,1,0
128,280,232801,1,0
145,191,232978,1,8
145,191,233066,1,0
145,191,233154,1,8
232,167,233331,1,0
232,320,233507,6,0,B|305:332|368:312,2,135,8|8|8
216,232,234213,1,8
216,232,234301,1,0
140,281,234478,1,0
140,281,234566,1,8
128,192,234742,1,8
48,240,234919,5,12
48,132,235095,1,8
156,132,235272,2,0,B|200:120|248:116,1,90,8|0
156,132,235625,1,0
240,200,235801,2,0,B|280:224|320:264,1,90,8|8
240,200,236154,1,0
184,296,236331,6,0,B|128:336|72:320,1,90,8|0
264,304,236684,2,0,B|316:276|312:216,1,90,8|0
335,281,236948,2,0,B|367:233|351:177,1,90,8|0
348,159,237213,1,8
290,67,237389,1,8
192,64,237566,1,0
192,64,237742,5,8
296,96,237919,1,8
400,64,238095,1,8
496,120,238272,1,0
388,301,238448,5,0
284,269,238625,1,8
180,301,238801,1,8
84,245,238978,1,0
256,192,239154,5,8
256,192,239507,1,8
256,280,239860,2,0,B|216:192|256:104,1,180,0|8
256,24,240389,1,8
256,24,240566,5,4
256,64,249037,5,8
224,148,249213,1,8
138,173,249389,1,8
63,121,249566,1,0
256,320,249742,5,0
288,236,249919,1,8
374,211,250095,1,8
449,263,250272,1,4
