osu file format v10

[General]
AudioFilename: EastNewSoundLucid Dream.mp3
AudioLeadIn: 0
PreviewTime: 93036
Countdown: 0
SampleSet: Normal
StackLeniency: 0.7
Mode: 0
LetterboxInBreaks: 1

[Editor]
DistanceSpacing: 1.4
BeatDivisor: 4
GridSize: 8

[Metadata]
Title:Lucid Dream
TitleUnicode:Lucid Dream
Artist:EastNewSound
ArtistUnicode:EastNewSound
Creator:Qrool
Version:Wacko
Source:Touhou
Tags:byakuren hijiri chata undefined object fantastic c77 ens
BeatmapID:183274
BeatmapSetID:34746

[Difficulty]
HPDrainRate:7
CircleSize:3
OverallDifficulty:7
ApproachRate:9
SliderMultiplier:2
SliderTickRate:1

[Events]
//Background and Video events
0,0,"bg2.jpg"
//Break Periods
2,37472,46554
2,116530,126672
2,240766,245260
//Storyboard Layer 0 (Background)
//Storyboard Layer 1 (Fail)
//Storyboard Layer 2 (Pass)
//Storyboard Layer 3 (Foreground)
//Storyboard Sound Samples
//Background Colour Transformations
3,100,0,0,0

[TimingPoints]
25978,352.941176470588,4,1,1,80,1,0
26066,-100,4,1,1,40,0,0
36478,-100,4,2,1,40,0,0
46801,-100,4,1,1,40,0,0
47375,-100,4,1,1,70,0,0
47419,-100,4,2,1,90,0,0
47772,-100,4,1,1,70,0,0
47816,-100,4,2,1,90,0,0
48213,-100,4,1,1,70,0,0
48257,-100,4,2,1,90,0,0
48389,-100,4,1,1,80,0,0
48433,-100,4,2,1,90,0,0
58448,-100,4,2,1,20,0,0
59507,-100,4,2,1,70,0,0
59860,-100,4,2,1,90,0,0
69742,-100,4,2,1,100,0,0
69786,-100,4,2,1,90,0,0
71154,-100,4,2,1,100,0,0
71198,-100,4,2,1,90,0,0
79625,-100,4,2,1,30,0,0
81919,-100,4,2,1,50,0,0
82095,-100,4,2,1,100,0,0
82139,-100,4,2,1,90,0,0
88095,-100,4,2,1,30,0,0
90213,-100,4,2,1,10,0,0
92330,-100,4,1,1,70,0,0
93036,-100,4,1,1,80,0,0
93389,-100,4,1,1,90,0,0
93566,-100,4,1,1,80,0,0
93742,-100,4,2,1,100,0,1
94095,-100,4,1,1,80,0,1
94139,-100,4,2,1,100,0,1
94801,-100,4,1,1,80,0,1
94845,-100,4,2,1,100,0,1
95507,-100,4,1,1,80,0,1
95551,-100,4,2,1,100,0,1
96213,-100,4,1,1,100,0,1
96257,-100,4,2,1,100,0,1
96919,-100,4,1,1,80,0,1
96963,-100,4,2,1,100,0,1
97625,-100,4,1,1,80,0,1
97669,-100,4,2,1,100,0,1
98330,-100,4,1,1,80,0,1
98375,-100,4,2,1,100,0,1
99036,-100,4,1,1,80,0,1
99080,-100,4,2,1,100,0,1
99742,-100,4,1,1,80,0,1
99786,-100,4,2,1,100,0,1
100448,-100,4,1,1,80,0,1
100492,-100,4,2,1,100,0,1
101154,-100,4,1,1,80,0,1
101198,-100,4,2,1,100,0,1
101860,-100,4,1,1,80,0,1
101904,-100,4,2,1,100,0,1
102566,-100,4,1,1,80,0,1
102610,-100,4,2,1,100,0,1
103272,-100,4,1,1,80,0,1
103316,-100,4,2,1,100,0,1
103977,-100,4,1,1,80,0,1
104022,-100,4,2,1,100,0,1
104683,-100,4,1,1,80,0,1
104727,-100,4,2,1,100,0,1
105389,-100,4,1,1,80,0,1
105433,-100,4,2,1,100,0,1
106095,-100,4,1,1,80,0,1
106139,-100,4,2,1,100,0,1
106801,-100,4,1,1,80,0,1
106845,-100,4,2,1,100,0,1
107507,-100,4,1,1,80,0,1
107551,-100,4,2,1,100,0,1
108213,-100,4,1,1,80,0,1
108257,-100,4,2,1,100,0,1
108919,-100,4,1,1,80,0,1
108963,-100,4,2,1,100,0,1
109625,-100,4,1,1,80,0,1
109669,-100,4,2,1,100,0,1
110330,-100,4,1,1,80,0,1
110375,-100,4,2,1,100,0,1
111036,-100,4,1,1,80,0,1
111080,-100,4,2,1,100,0,1
111742,-100,4,1,1,80,0,1
111786,-100,4,2,1,100,0,1
112448,-100,4,1,1,80,0,1
112492,-100,4,2,1,100,0,1
113154,-100,4,1,1,80,0,1
113198,-100,4,2,1,100,0,1
113860,-100,4,1,1,80,0,1
113904,-100,4,2,1,100,0,1
114566,-100,4,1,1,100,0,1
114610,-100,4,2,1,100,0,1
114919,-100,4,1,1,100,0,1
114963,-100,4,2,1,100,0,1
115448,-100,4,2,1,30,0,1
116330,-100,4,2,1,90,0,0
137507,-100,4,1,1,80,0,0
137551,-100,4,2,1,90,0,0
137683,-100,4,1,1,80,0,0
137727,-100,4,2,1,90,0,0
138125,-100,4,1,1,80,0,0
138169,-100,4,2,1,90,0,0
138566,-100,4,1,1,80,0,0
138610,-100,4,2,1,90,0,0
138742,-100,4,1,1,80,0,0
138786,-100,4,2,1,90,0,0
148801,-100,4,2,1,20,0,0
149507,-100,4,2,1,20,0,0
149860,-100,4,2,1,80,0,0
161507,-200,4,1,1,80,0,0
161551,-200,4,2,1,80,0,0
177389,-200,4,2,1,20,0,0
178448,-200,4,2,1,90,0,0
178536,-200,4,2,1,20,0,0
179860,-200,4,2,1,90,0,0
179948,-200,4,2,1,20,0,0
181272,-200,4,2,1,90,0,0
181360,-200,4,2,1,20,0,0
182683,-100,4,1,1,70,0,0
183389,-100,4,1,1,80,0,0
184095,-100,4,2,1,100,0,0
184139,-100,4,2,1,80,0,0
186919,-100,4,1,1,80,0,0
186963,-100,4,2,1,80,0,0
189742,-100,4,1,1,80,0,0
189786,-100,4,2,1,70,0,0
192566,-100,4,1,1,80,0,0
192610,-100,4,2,1,70,0,0
195389,-100,4,2,1,100,0,0
195433,-100,4,2,1,70,0,0
196801,-100,4,2,1,90,0,0
196845,-100,4,2,1,70,0,0
198213,-100,4,2,1,80,0,0
198257,-100,4,2,1,70,0,0
202448,-100,4,2,1,80,0,0
203154,-100,4,2,1,90,0,0
203948,-100,4,2,1,40,0,0
204566,-100,4,2,1,20,0,0
205272,-100,4,2,1,80,0,0
206683,-100,4,2,1,100,0,1
207036,-100,4,1,1,80,0,1
207080,-100,4,2,1,100,0,1
207742,-100,4,1,1,80,0,1
207786,-100,4,2,1,100,0,1
208448,-100,4,1,1,80,0,1
208492,-100,4,2,1,100,0,1
209154,-100,4,1,1,80,0,1
209198,-100,4,2,1,100,0,1
209860,-100,4,1,1,80,0,1
209904,-100,4,2,1,100,0,1
210566,-100,4,1,1,80,0,1
210610,-100,4,2,1,100,0,1
211272,-100,4,1,1,80,0,1
211316,-100,4,2,1,100,0,1
211977,-100,4,1,1,80,0,1
212022,-100,4,2,1,100,0,1
212683,-100,4,1,1,80,0,1
212727,-100,4,2,1,100,0,1
213389,-100,4,1,1,80,0,1
213433,-100,4,2,1,100,0,1
214095,-100,4,1,1,80,0,1
214139,-100,4,2,1,100,0,1
214801,-100,4,1,1,80,0,1
214845,-100,4,2,1,100,0,1
215507,-100,4,1,1,80,0,1
215551,-100,4,2,1,100,0,1
216213,-100,4,1,1,80,0,1
216257,-100,4,2,1,100,0,1
216919,-100,4,1,1,80,0,1
216963,-100,4,2,1,100,0,1
217625,-100,4,1,1,80,0,1
217669,-100,4,2,1,100,0,1
218330,-100,4,1,1,80,0,1
218375,-100,4,2,1,100,0,1
219036,-100,4,1,1,80,0,1
219080,-100,4,2,1,100,0,1
219742,-100,4,1,1,80,0,1
219786,-100,4,2,1,100,0,1
220448,-100,4,1,1,80,0,1
220492,-100,4,2,1,100,0,1
221154,-100,4,1,1,80,0,1
221198,-100,4,2,1,100,0,1
221860,-100,4,1,1,80,0,1
221904,-100,4,2,1,100,0,1
222566,-100,4,1,1,80,0,1
222610,-100,4,2,1,100,0,1
223272,-100,4,1,1,80,0,1
223316,-100,4,2,1,100,0,1
223977,-100,4,1,1,80,0,1
224022,-100,4,2,1,100,0,1
224683,-100,4,1,1,80,0,1
224727,-100,4,2,1,100,0,1
225389,-100,4,1,1,80,0,1
225433,-100,4,2,1,100,0,1
226095,-100,4,1,1,80,0,1
226139,-100,4,2,1,100,0,1
226801,-100,4,1,1,80,0,1
226845,-100,4,2,1,100,0,1
227507,-100,4,1,1,80,0,1
227551,-100,4,2,1,100,0,1
228213,-100,4,1,1,100,0,1
228389,-100,4,2,1,80,0,1
229272,-100,4,2,1,90,0,0
250448,-100,4,2,1,20,0,0
250801,-100,4,2,1,20,0,0
251154,-100,4,2,1,20,0,0

[HitObjects]
32,192,25978,2,0,B|72:136|144:120,1,100,4|0,0:0|0:0,0:0:0
168,256,26330,2,0,B|208:312|280:328,1,100,2|0,0:0|0:0,0:0:0
416,88,26860,1,0,0:0:0
288,168,27036,1,8,0:0:0
56,328,27389,5,0,0:0:0
320,240,27742,2,0,B|280:296|208:312,1,100,2|0,0:0|0:0,0:0:0
96,64,28272,1,0,0:0:0
56,200,28448,1,8,0:0:0
320,304,28801,6,0,B|360:320|424:320,2,100,4|0|2,0:0|0:0|0:0,0:0:0
392,184,29330,1,0,0:0:0
304,72,29507,1,0,0:0:0
168,88,29683,1,0,0:0:0
304,72,29860,1,8,0:0:0
128,288,30213,5,0,0:0:0
336,104,30566,2,0,B|296:48|224:32,1,100,2|0,0:0|0:0,0:0:0
400,288,31095,2,0,B|440:344|512:360,1,100,0|8,0:0|0:0,0:0:0
208,264,31625,6,0,B|168:216|104:200,1,100
240,128,31978,1,2,0:0:0
120,56,32154,1,0,0:0:0
352,272,32507,1,0,0:0:0
432,160,32683,1,8,0:0:0
152,200,33036,5,0,0:0:0
392,56,33389,1,2,0:0:0
248,56,33566,1,0,0:0:0
112,304,33919,1,0,0:0:0
248,304,34095,1,8,0:0:0
392,56,34448,5,0,0:0:0
328,184,34625,2,0,B|296:136|256:112,1,100,0|2,0:0|0:0,0:0:0
200,240,34978,1,0,0:0:0
64,224,35154,2,0,B|96:176|136:152,1,100
40,64,35507,1,8,0:0:0
320,88,35860,5,0,0:0:0
120,280,36213,1,2,0:0:0
240,208,36389,1,0,0:0:0
256,192,36478,12,4,37272,0:0:0
104,80,47154,6,0,B|104:136,3,50,0|0|8|0,0:0|0:0|0:0|0:0,0:0:0
104,130,47507,1,8,0:0:0
160,256,47683,2,0,B|160:312,1,50,0|8,0:0|0:0,0:0:0
304,296,47948,2,0,B|304:352,1,50,0|0,0:0|0:0,0:0:0
304,208,48213,1,8,0:0:0
304,208,48301,1,0,0:0:0
304,208,48389,1,0,0:0:0
304,208,48478,1,0,0:0:0
304,208,48566,6,0,B|240:168|176:168,1,100,4|0,0:0|0:0,0:0:0
112,72,48919,2,0,B|64:120|48:160,1,100,8|0,0:0|0:0,0:0:0
136,264,49272,2,0,B|184:312|224:328,1,100
248,184,49625,1,8,0:0:0
248,184,49801,1,0,0:0:0
384,144,49978,6,0,B|448:128|496:136,2,100,0|0|8,0:0|0:0|0:0,0:0:0
384,144,50507,1,0,0:0:0
288,40,50683,1,0,0:0:0
152,80,50860,1,0,0:0:0
248,184,51036,1,8,0:0:0
448,344,51389,5,4,0:0:0
472,312,51478,1,0,0:0:0
480,272,51566,1,0,0:0:0
480,232,51654,1,0,0:0:0
464,192,51742,1,8,0:0:0
440,64,51919,1,0,0:0:0
392,192,52095,2,0,B|280:192,1,100
152,192,52448,1,8,0:0:0
424,104,52801,5,0,0:0:0
288,48,52978,2,0,B|216:32|152:48,1,100,0|8,0:0|0:0,0:0:0
224,176,53330,2,0,B|296:192|360:176,2,100
112,88,53860,1,8,0:0:0
232,328,54213,6,0,B|168:344|120:344,1,100,4|0,0:0|0:0,0:0:0
104,216,54566,1,8,0:0:0
40,336,54742,1,0,0:0:0
208,128,54919,1,0,0:0:0
328,56,55095,1,0,0:0:0
208,128,55272,1,8,0:0:0
416,272,55625,5,0,0:0:0
448,136,55801,1,0,0:0:0
416,272,55978,2,0,B|368:304|296:304,1,100,8|0,0:0|0:0,0:0:0
312,160,56330,1,0,0:0:0
192,88,56507,1,0,0:0:0
192,88,56683,1,8,0:0:0
376,296,57036,5,4,0:0:0
400,328,57125,1,0,0:0:0
440,328,57213,1,0,0:0:0
472,296,57301,1,0,0:0:0
464,256,57389,1,8,0:0:0
368,160,57566,1,0,0:0:0
368,160,57742,2,0,B|312:128|352:88|296:64,2,100,0|0|8,0:0|0:0|0:0,0:0:0
256,192,58448,12,0,59154,0:0:0
256,192,59507,5,2,0:0:0
256,192,59683,1,0,0:0:0
120,144,59860,2,0,B|96:200|120:256,1,100,4|0,0:0|0:0,0:0:0
392,144,60213,2,0,B|416:200|392:256,1,100,8|0,0:0|0:0,0:0:0
256,224,60566,1,0,0:0:0
256,224,60742,2,0,B|256:328,2,100,0|8|0,0:0|0:0|0:0,0:0:0
256,80,61272,1,0,0:0:0
120,112,61448,5,0,0:0:0
64,168,61625,1,8,0:0:0
192,224,61801,1,0,0:0:0
88,320,61978,1,0,0:0:0
192,224,62154,1,0,0:0:0
288,120,62330,6,0,B|336:72|368:40,1,100,8|0,0:0|0:0,0:0:0
352,192,62683,2,0,B|304:240|272:272,1,100,4|0,0:0|0:0,0:0:0
104,224,63036,2,0,B|152:176|184:144,1,100,8|0,0:0|0:0,0:0:0
472,176,63389,2,0,B|424:224|392:256,1,100,0|0,0:0|0:0,0:0:0
272,312,63742,1,8,0:0:0
272,312,63919,1,0,0:0:0
144,256,64095,6,0,B|112:296|56:320,2,100,0|0|8,0:0|0:0|0:0,0:0:0
64,144,64625,1,0,0:0:0
192,96,64801,1,0,0:0:0
40,168,64978,1,0,0:0:0
216,72,65154,1,8,0:0:0
216,72,65330,5,0,0:0:0
216,72,65507,2,0,B|272:48|328:48,1,100,4|0,0:0|0:0,0:0:0
376,176,65860,2,0,B|320:152|264:152,2,100,8|0|0,0:0|0:0|0:0,0:0:0
488,256,66389,2,0,B|448:304|400:320,1,100,0|8,0:0|0:0,0:0:0
272,336,66742,1,0,0:0:0
272,336,66919,1,0,0:0:0
144,272,67095,2,0,B|32:272|24:248,1,100,0|8,0:0|0:0,0:0:0
136,160,67448,2,0,B|248:160|256:184,2,100
48,48,67978,6,0,B|144:32|184:40,1,100,8|0,0:0|0:0,0:0:0
256,128,68330,1,4,0:0:0
288,152,68419,1,0,0:0:0
328,160,68507,2,0,B|336:176|376:184,2,50,0|0|8,0:0|0:0|0:0,0:0:0
192,128,68860,2,0,B|112:144|72:168,1,100
56,288,69213,2,0,B|32:304|16:312,4,25,0|0|0|0|8,0:0|0:0|0:0|0:0|0:0,0:0:0
336,304,69742,5,4,0:0:0
440,208,69919,1,0,0:0:0
200,336,70095,1,8,0:0:0
240,200,70272,2,0,B|200:152,1,50,0|2,0:0|0:0,0:0:0
80,112,70536,2,0,B|120:160,1,50,0|2,0:0|0:0,0:0:0
88,288,70801,2,0,B|56:304,6,25
128,280,71154,6,0,B|184:296|232:296,1,100,4|0,0:0|0:0,0:0:0
360,248,71507,1,8,0:0:0
440,136,71683,1,0,0:0:0
296,136,71860,5,0,0:0:0
480,264,72036,1,0,0:0:0
296,136,72213,1,8,0:0:0
480,48,72389,1,0,0:0:0
360,248,72566,6,0,B|296:240|232:248,1,100
256,104,72919,1,8,0:0:0
392,80,73095,1,0,0:0:0
120,80,73272,2,0,B|58:60|3:25,2,100,0|0|8,0:0|0:0|0:0,0:0:0
416,296,73978,5,4,0:0:0
376,288,74066,1,0,0:0:0
344,264,74154,2,0,B|320:256|312:224,2,50,0|0|8,0:0|0:0|0:0,0:0:0
224,344,74507,2,0,B|168:328|120:288,1,100
256,224,74860,2,0,B|227:173|222:110,2,100,0|8|0,0:0|0:0|0:0,0:0:0
376,144,75389,5,0,0:0:0
448,264,75566,1,0,0:0:0
376,144,75742,1,8,0:0:0
240,96,75919,1,0,0:0:0
136,240,76095,1,0,0:0:0
64,120,76272,1,0,0:0:0
136,240,76448,1,8,0:0:0
272,288,76625,1,0,0:0:0
272,288,76801,6,0,B|384:264|456:168,1,200,4|0,0:0|0:0,0:0:0
304,176,77330,2,0,B|416:152|512:80,1,200,0|0,0:0|0:0,0:0:0
352,72,77860,1,8,0:0:0
136,296,78213,5,4,0:0:0
112,328,78302,1,0,0:0:0
72,328,78390,1,0,0:0:0
40,296,78478,1,0,0:0:0
48,256,78566,1,8,0:0:0
144,160,78743,1,0,0:0:0
144,160,78919,2,0,B|200:128|160:88|216:64,2,100,0|0|8,0:0|0:0|0:0,0:0:0
256,192,79625,12,0,81742,0:0:0
256,192,81919,5,0,0:0:0
256,192,82095,1,8,0:0:0
56,64,82448,6,0,B|88:120|120:144,1,100,4|0,0:0|0:0,0:0:0
224,48,82801,1,8,0:0:0
224,48,82978,1,0,0:0:0
352,96,83154,2,0,B|296:128|272:160,1,100,0|0,0:0|0:0,0:0:0
400,216,83507,1,8,0:0:0
264,192,83683,1,0,0:0:0
184,304,83860,6,0,B|72:304,1,100
232,304,84213,1,8,0:0:0
304,184,84389,1,0,0:0:0
368,64,84566,2,0,B|256:64,1,100
416,64,84919,1,8,0:0:0
136,72,85272,5,4,0:0:0
34,173,85448,1,0,0:0:0
266,111,85625,1,8,0:0:0
169,207,85801,1,0,0:0:0
73,303,85977,1,0,0:0:0
305,241,86154,1,0,0:0:0
203,343,86330,1,8,0:0:0
168,128,86507,1,2,0:0:0
168,288,86683,1,0,0:0:0
416,144,87036,6,0,B|448:200|416:264,1,100,8|0,0:0|0:0,0:0:0
256,192,87389,1,0,0:0:0
96,240,87566,2,0,B|64:184|96:120,1,100,0|8,0:0|0:0,0:0:0
256,192,87919,1,0,0:0:0
256,192,88095,12,4,92330,0:0:0
88,184,93036,6,0,B|152:184|200:200,1,100
304,120,93389,1,0,0:0:0
186,196,93566,1,0,0:0:0
160,224,93654,1,0,0:0:0
152,264,93742,6,0,B|104:280|48:288,2,100,4|0|8,0:0|0:0|0:0,0:0:0
280,320,94272,1,0,0:0:0
392,240,94448,1,0,0:0:0
264,176,94625,1,0,0:0:0
240,144,94713,1,0,0:0:0
208,128,94801,2,0,B|176:136|152:88|104:104,1,100,8|0,0:0|0:0,0:0:0
104,240,95154,6,0,B|104:344,1,100,4|0,0:0|0:0,0:0:0
240,152,95507,2,0,B|240:24,1,100
408,256,95860,2,0,B|408:360,2,100,0|0|8,0:0|0:0|0:0,0:0:0
56,64,96566,5,4,0:0:0
88,72,96654,1,0,0:0:0
128,64,96742,1,0,0:0:0
168,80,96830,1,0,0:0:0
208,80,96919,2,0,B|256:88|280:128|320:112,1,100,8|0,0:0|0:0,0:0:0
336,248,97272,5,2,0:0:0
432,152,97448,1,0,0:0:0
304,264,97625,1,8,0:0:0
464,136,97801,1,0,0:0:0
280,288,97977,2,0,B|192:328|152:312|104:336|48:336,1,200,4|8,0:0|0:0,0:0:0
104,192,98507,2,0,B|192:152|232:168|280:144|336:144,1,200,0|0,0:0|0:0,0:0:0
336,144,98948,1,0,0:0:0
336,144,99036,1,8,0:0:0
440,56,99213,6,0,B|464:64|464:96,1,50
480,136,99389,2,0,B|456:176|400:216,1,100,4|0,0:0|0:0,0:0:0
472,336,99742,2,0,B|426:347|358:336,1,100,8|0,0:0|0:0,0:0:0
288,224,100095,1,0,0:0:0
160,160,100272,2,0,B|104:136|56:88,2,100,0|8|0,0:0|0:0|0:0,0:0:0
256,56,100801,5,4,0:0:0
392,88,100977,1,0,0:0:0
480,200,101154,1,8,0:0:0
248,152,101330,1,0,0:0:0
384,184,101506,1,0,0:0:0
472,296,101683,1,0,0:0:0
336,256,101860,6,0,B|296:288|232:304,1,100,8|0,0:0|0:0,0:0:0
104,296,102213,1,4,0:0:0
104,296,102301,1,0,0:0:0
104,296,102389,1,0,0:0:0
104,296,102477,1,0,0:0:0
104,296,102566,2,0,B|56:256|48:200,1,100
32,72,102919,6,0,B|80:40|144:32,1,100
176,176,103272,2,0,B|224:208|288:216,1,100,8|0,0:0|0:0,0:0:0
384,128,103625,2,0,B|432:120|496:88,2,100,4|0|8,0:0|0:0|0:0,0:0:0
256,184,104154,1,0,0:0:0
152,272,104330,1,0,0:0:0
40,344,104507,1,2,0:0:0
48,208,104683,1,12,0:0:0
152,296,104860,5,0,0:0:0
192,288,104948,1,0,0:0:0
232,288,105036,2,0,B|280:288|336:264,1,100,4|0,0:0|0:0,0:0:0
448,192,105389,2,0,B|400:192|344:168,1,100,4|0,0:0|0:0,0:0:0
272,56,105742,1,0,0:0:0
272,56,105919,1,0,0:0:0
160,144,106095,1,8,0:0:0
72,248,106272,5,0,0:0:0
72,248,106360,1,0,0:0:0
72,248,106448,2,0,B|56:296|24:336,1,100,4|0,0:0|0:0,0:0:0
160,312,106801,2,0,B|176:264|208:224,1,100,8|0,0:0|0:0,0:0:0
320,136,107154,1,0,0:0:0
456,176,107330,1,0,0:0:0
320,136,107507,1,8,0:0:0
216,40,107683,5,0,0:0:0
176,48,107772,1,0,0:0:0
144,72,107860,2,0,B|104:96|56:136,1,100,4|0,0:0|0:0,0:0:0
64,272,108213,1,0,0:0:0
200,240,108389,2,0,B|248:272|312:280,1,100,0|0,0:0|0:0,0:0:0
408,192,108742,2,0,B|360:160|296:152,2,100,0|8|0,0:0|0:0|0:0,0:0:0
384,56,109272,5,4,0:0:0
248,80,109448,1,0,0:0:0
128,152,109625,1,8,0:0:0
248,80,109801,1,0,0:0:0
384,112,109977,2,0,B|424:120|480:160|480:152,1,100
408,280,110330,1,8,0:0:0
288,352,110507,1,0,0:0:0
224,232,110683,5,4,0:0:0
344,152,110860,2,0,B|352:200|336:256,1,100
192,336,111213,2,0,B|200:288|184:232,1,100
48,88,111566,2,0,B|40:136|56:192,2,100,0|8|0,0:0|0:0|0:0,0:0:0
184,40,112095,5,4,0:0:0
320,72,112272,1,0,0:0:0
192,272,112448,5,8,0:0:0
320,224,112625,1,0,0:0:0
472,40,112801,5,0,0:0:0
416,168,112977,1,0,0:0:0
168,168,113154,5,8,0:0:0
96,288,113330,1,0,0:0:0
192,144,113507,6,0,B|152:136|128:144,3,50,4|0|0|0,0:0|0:0|0:0|0:0,0:0:0
112,168,113860,2,0,B|72:184|24:224,1,100
136,312,114213,1,0,0:0:0
272,208,114389,2,0,B|280:256|264:312,1,100
376,224,114742,2,0,B|415:196|443:145,1,100,0|4,0:0|0:0,0:0:0
336,56,115095,1,2,0:0:0
208,40,115272,1,4,0:0:0
256,192,115448,12,0,116330,0:0:0
96,72,127272,5,0,0:0:0
96,72,127448,1,0,0:0:0
232,112,127625,2,0,B|176:120|136:168,1,100,4|0,0:0|0:0,0:0:0
144,296,127977,2,0,B|88:288|48:240,1,100,8|0,0:0|0:0,0:0:0
192,216,128330,1,0,0:0:0
312,144,128507,2,0,B|368:152|408:200,1,100,0|8,0:0|0:0,0:0:0
464,312,128860,6,0,B|384:336|360:352|256:320|256:336,1,200
136,288,129389,1,8,0:0:0
40,184,129566,1,0,0:0:0
176,160,129742,1,0,0:0:0
136,288,129919,1,0,0:0:0
40,184,130095,6,0,B|88:144|136:128,1,100,8|0,0:0|0:0,0:0:0
240,48,130448,1,4,0:0:0
376,80,130625,1,0,0:0:0
480,168,130801,1,8,0:0:0
344,216,130977,1,0,0:0:0
400,56,131154,1,0,0:0:0
320,240,131330,1,0,0:0:0
192,304,131507,5,8,0:0:0
192,304,131683,2,0,B|275:299|303:306|390:240|395:255,1,200
488,352,132213,2,0,B|504:264|480:224,1,100,8|0,0:0|0:0,0:0:0
368,184,132566,2,0,B|317:110|271:99,1,100,0|0,0:0|0:0,0:0:0
184,40,132919,5,8,0:0:0
56,104,133095,1,0,0:0:0
48,248,133272,2,0,B|96:288|152:304,1,100,4|0,0:0|0:0,0:0:0
184,168,133625,1,8,0:0:0
184,304,133801,1,0,0:0:0
304,232,133977,2,0,B|424:232,1,100
472,112,134330,5,8,0:0:0
472,112,134507,2,0,B|408:80|336:56|272:64,1,200
144,48,135036,1,8,0:0:0
48,152,135213,1,0,0:0:0
184,160,135389,1,0,0:0:0
96,272,135566,1,0,0:0:0
232,280,135742,6,0,B|280:312|336:320,1,100,8|0,0:0|0:0,0:0:0
464,344,136095,2,0,B|464:264|432:216,1,100,4|0,0:0|0:0,0:0:0
368,72,136448,2,0,B|368:152|336:200,1,100,8|0,0:0|0:0,0:0:0
200,328,136801,2,0,B|200:248|232:200,2,100,0|0|8,0:0|0:0|0:0,0:0:0
232,192,137330,1,4,0:0:0
304,72,137507,6,0,B|352:96,2,50,0|0|0,0:0|0:0|0:0,0:0:0
264,64,137772,1,0,0:0:0
224,72,137860,1,8,0:0:0
88,88,138036,1,0,0:0:0
88,88,138125,1,0,0:0:0
40,216,138301,1,0,0:0:0
40,216,138389,1,0,0:0:0
128,328,138566,5,8,0:0:0
168,336,138654,1,0,0:0:0
200,312,138742,1,0,0:0:0
240,320,138830,1,0,0:0:0
272,344,138919,2,0,B|328:352|384:336,1,100,4|0,0:0|0:0,0:0:0
328,208,139272,2,0,B|373:174|401:123,1,100,8|0,0:0|0:0,0:0:0
256,128,139625,2,0,B|264:72|248:16,2,100,0|0|8,0:0|0:0|0:0,0:0:0
120,80,140154,1,0,0:0:0
32,192,140330,5,0,0:0:0
128,296,140507,1,0,0:0:0
159,319,140595,1,0,0:0:0
196,319,140683,1,8,0:0:0
256,192,140860,1,0,0:0:0
368,104,141036,2,0,B|398:89|404:49|450:40,2,100,0|0|8,0:0|0:0|0:0,0:0:0
120,80,141742,6,0,B|72:48,3,50,4|0|0|0,0:0|0:0|0:0|0:0,0:0:0
78,52,142095,1,8,0:0:0
40,192,142272,1,0,0:0:0
136,296,142448,2,0,B|184:328|240:336,1,100
264,344,142713,1,0,0:0:0
264,344,142801,1,8,0:0:0
432,120,143154,6,0,B|328:128|224:88,1,200,0|8,0:0|0:0,0:0:0
368,40,143683,2,0,B|295:114|258:219,1,200
128,160,144213,1,8,0:0:0
464,344,144566,6,0,B|400:320|368:304,1,100,4|0,0:0|0:0,0:0:0
440,184,144919,1,8,0:0:0
336,88,145095,1,0,0:0:0
312,224,145272,2,0,B|267:248|250:291|227:295,2,100,0|0|8,0:0|0:0|0:0,0:0:0
104,256,145978,5,0,0:0:0
104,120,146154,1,0,0:0:0
104,256,146331,2,0,B|138:302|205:327,1,100,8|0,0:0|0:0,0:0:0
240,186,146683,1,0,0:0:0
377,159,146860,1,0,0:0:0
377,159,147036,1,8,0:0:0
133,292,147389,5,4,0:0:0
99,314,147478,1,0,0:0:0
62,300,147566,1,0,0:0:0
43,259,147654,1,0,0:0:0
64,224,147742,1,8,0:0:0
187,167,147919,1,0,0:0:0
187,167,148095,2,0,B|250:156|226:104|287:101,2,100,0|0|8,0:0|0:0|0:0,0:0:0
256,192,148801,12,0,149507,0:0:0
304,64,149860,5,2,0:0:0
304,64,150036,1,0,0:0:0
432,184,150213,6,0,B|424:240|368:272,1,100,4|0,0:0|0:0,0:0:0
264,184,150566,1,8,0:0:0
176,288,150742,1,0,0:0:0
368,88,150919,2,0,B|394:38|458:27,2,100,0|0|8,0:0|0:0|0:0,0:0:0
336,224,151448,1,0,0:0:0
80,112,151801,2,0,B|112:152|160:176,1,100,0|8,0:0|0:0,0:0:0
224,48,152154,1,0,0:0:0
360,88,152330,1,0,0:0:0
248,168,152507,1,0,0:0:0
112,208,152683,6,0,B|152:256|192:280,1,100,8|0,0:0|0:0,0:0:0
312,336,153036,1,4,0:0:0
440,280,153213,1,0,0:0:0
312,336,153389,1,8,0:0:0
440,280,153566,1,0,0:0:0
480,144,153742,2,0,B|488:88|464:48,2,100,0|0|8,0:0|0:0|0:0,0:0:0
344,112,154272,1,0,0:0:0
232,32,154448,2,0,B|176:48|128:88,1,100
256,152,154801,1,8,0:0:0
224,288,154977,2,0,B|280:304|328:344,2,100
48,160,155507,5,8,0:0:0
116,42,155683,1,0,0:0:0
240,114,155860,1,4,0:0:0
179,236,156036,1,0,0:0:0
88,128,156213,1,8,0:0:0
192,40,156389,1,0,0:0:0
284,150,156566,1,0,0:0:0
185,244,156742,1,0,0:0:0
151,92,156919,5,8,0:0:0
278,44,157095,1,0,0:0:0
456,256,157448,1,0,0:0:0
328,208,157625,2,0,B|312:256|328:312,1,100,8|0,0:0|0:0,0:0:0
456,256,157977,1,0,0:0:0
432,120,158154,1,0,0:0:0
312,40,158330,6,0,B|360:32|440:48,1,100,8|0,0:0|0:0,0:0:0
328,160,158683,2,0,B|288:200,3,50,4|0|0|0,0:0|0:0|0:0|0:0,0:0:0
292,195,159036,1,8,0:0:0
200,304,159213,1,0,0:0:0
64,264,159389,1,0,0:0:0
200,304,159566,1,0,0:0:0
336,312,159742,2,0,B|376:312,6,25,8|0|0|0|0|0|0,0:0|0:0|0:0|0:0|0:0|0:0|0:0,0:0:0
376,296,160095,5,2,0:0:0
456,184,160272,1,0,0:0:0
376,72,160448,1,8,0:0:0
248,24,160625,2,0,B|208:56,1,50
96,144,160889,1,0,0:0:0
96,144,160977,1,0,0:0:0
56,280,161154,1,8,0:0:0
88,296,161242,1,0,0:0:0
128,304,161330,1,0,0:0:0
168,288,161419,1,0,0:0:0
184,272,161507,6,0,B|256:272|288:288,1,100,4|8,0:0|0:0,0:0:0
376,328,162036,1,0,0:0:0
464,192,162213,5,0,0:0:0
280,192,162389,1,0,0:0:0
488,192,162566,1,8,0:0:0
256,192,162742,1,0,0:0:0
376,56,162919,6,0,B|432:72|472:120,1,100,0|8,0:0|0:0,0:0:0
368,152,163448,1,0,0:0:0
328,240,163625,2,0,B|280:248|224:272,1,100,0|8,0:0|0:0,0:0:0
136,288,164154,1,0,0:0:0
56,232,164330,6,0,B|104:200|152:192,1,100,0|8,0:0|0:0,0:0:0
136,96,164860,2,0,B|184:120,1,50
264,56,165213,2,0,B|216:24,1,50,0|8,0:0|0:0,0:0:0
304,88,165566,1,0,0:0:0
400,96,165742,5,0,0:0:0
344,176,165919,1,0,0:0:0
432,80,166095,1,8,0:0:0
312,192,166272,1,0,0:0:0
440,184,166448,5,0,0:0:0
304,88,166625,1,0,0:0:0
464,200,166801,1,8,0:0:0
280,72,166977,1,0,0:0:0
184,40,167154,6,0,B|128:48|80:80,1,100,0|8,0:0|0:0,0:0:0
160,144,167683,1,0,0:0:0
200,240,167860,2,0,B|163:269|100:280,2,100,0|8|0,0:0|0:0|0:0,0:0:0
296,264,168742,1,0,0:0:0
296,264,168919,1,8,0:0:0
392,272,169095,1,0,0:0:0
488,240,169272,2,0,B|456:192|408:176,1,100,0|8,0:0|0:0,0:0:0
312,168,169801,1,0,0:0:0
224,208,169977,6,0,B|192:240|136:264,1,100,0|8,0:0|0:0,0:0:0
112,168,170507,2,0,B|80:120|32:104,1,100,0|0,0:0|0:0,0:0:0
120,48,171036,1,8,0:0:0
120,48,171213,1,0,0:0:0
216,24,171389,2,0,B|264:48,1,50
336,120,171742,2,0,B|288:144,1,50,8|0,0:0|0:0,0:0:0
232,224,172095,2,0,B|280:248,1,50
368,296,172448,1,8,0:0:0
368,296,172625,1,0,0:0:0
464,272,172801,6,0,B|472:224|472:160,1,100,4|8,0:0|0:0,0:0:0
376,200,173330,2,0,B|347:160|302:115,1,100,0|0,0:0|0:0,0:0:0
224,80,173860,2,0,B|224:144,1,50,8|0,0:0|0:0,0:0:0
128,160,174213,1,0,0:0:0
48,208,174389,1,0,0:0:0
56,312,174566,1,8,0:0:0
152,344,174742,1,0,0:0:0
168,248,174919,2,0,B|216:248|232:240,1,50
320,232,175272,5,8,0:0:0
160,64,175977,1,8,0:0:0
64,32,176154,1,0,0:0:0
208,336,176683,1,8,0:0:0
304,344,176859,1,0,0:0:0
400,320,177036,1,0,0:0:0
256,192,177389,12,8,178095,0:0:0
256,192,178448,5,4,0:0:0
256,192,178536,12,8,179507,0:0:0
256,192,179860,1,4,0:0:0
256,192,179948,12,8,180919,0:0:0
256,192,181272,1,4,0:0:0
256,192,181360,12,4,182683,0:0:0
328,96,183389,5,8,0:0:0
328,96,183566,2,0,B|360:136|416:160,1,100,0|8,0:0|0:0,0:0:0
464,288,183919,1,0,0:0:0
424,280,184007,1,0,0:0:0
392,296,184095,2,0,B|296:320|184:312,1,200,4|8,0:0|0:0,0:0:0
64,248,184625,1,0,0:0:0
88,112,184801,2,0,B|136:144|200:152,1,100,0|0,0:0|0:0,0:0:0
160,288,185154,2,0,B|216:276|267:237,1,100,8|0,0:0|0:0,0:0:0
368,176,185507,5,0,0:0:0
448,64,185683,1,0,0:0:0
312,48,185860,1,8,0:0:0
272,184,186036,1,0,0:0:0
376,96,186213,1,0,0:0:0
240,64,186389,1,0,0:0:0
176,192,186566,1,8,0:0:0
416,336,186919,5,4,0:0:0
376,320,187007,1,0,0:0:0
352,288,187095,1,0,0:0:0
312,280,187183,1,0,0:0:0
280,248,187272,2,0,B|240:224|176:200,1,100,8|0,0:0|0:0,0:0:0
328,184,187625,2,0,B|316:138|288:76,1,100,0|0,0:0|0:0,0:0:0
400,160,187977,2,0,B|424:119|448:56,1,100,8|0,0:0|0:0,0:0:0
464,200,188330,5,0,0:0:0
224,48,188683,1,8,0:0:0
224,48,188860,1,0,0:0:0
88,32,189036,2,0,B|40:64|32:128,1,100
80,248,189389,2,0,B|128:216|136:152,1,100,8|0,0:0|0:0,0:0:0
224,48,189742,6,0,B|320:24|432:32,1,200,4|8,0:0|0:0,0:0:0
352,152,190272,1,0,0:0:0
384,176,190360,1,0,0:0:0
392,216,190448,2,0,B|416:256|472:288,1,100,0|0,0:0|0:0,0:0:0
320,336,190801,2,0,B|256:304|208:304,1,100,8|0,0:0|0:0,0:0:0
112,232,191154,1,0,0:0:0
112,232,191330,2,0,B|64:240|16:272,2,100,0|8|0,0:0|0:0|0:0,0:0:0
240,168,191860,1,0,0:0:0
120,96,192036,1,0,0:0:0
240,168,192213,1,8,0:0:0
240,168,192389,5,0,0:0:0
272,144,192477,1,0,0:0:0
312,160,192566,2,0,B|440:160,1,100,4|0,0:0|0:0,0:0:0
384,296,192919,2,0,B|512:296,1,100,8|0,0:0|0:0,0:0:0
192,336,193272,2,0,B|72:336,1,100
144,136,193625,2,0,B|144:32,1,100,8|0,0:0|0:0,0:0:0
272,88,193977,5,0,0:0:0
96,304,194330,1,8,0:0:0
96,304,194507,1,0,0:0:0
232,328,194683,2,0,B|280:296|288:232,1,100,0|0,0:0|0:0,0:0:0
240,112,195036,2,0,B|192:144|184:208,1,100,8|0,0:0|0:0,0:0:0
64,264,195389,6,0,B|160:288|272:280,1,200,4|8,0:0|0:0,0:0:0
392,344,195919,1,0,0:0:0
408,208,196095,2,0,B|392:256|336:288,1,100
280,160,196448,1,8,0:0:0
384,72,196625,5,0,0:0:0
408,208,196801,2,0,B|312:232|200:224,1,200,4|8,0:0|0:0,0:0:0
88,288,197330,1,0,0:0:0
88,144,197507,2,0,B|77:113|41:109|32:61,2,100,0|0|8,0:0|0:0|0:0,0:0:0
200,56,198036,5,0,0:0:0
344,56,198213,2,0,B|312:104|304:160,1,100,4|0,0:0|0:0,0:0:0
448,168,198566,1,8,0:0:0
440,304,198742,2,0,B|384:328|336:328,1,100
312,192,199095,2,0,B|255:169|221:135,1,100,0|8,0:0|0:0,0:0:0
152,256,199448,1,0,0:0:0
32,336,199625,6,0,B|120:280,2,100,0|0|8,0:0|0:0|0:0,0:0:0
56,200,200154,1,0,0:0:0
160,104,200330,2,0,B|256:168,2,100,0|0|8,0:0|0:0|0:0,0:0:0
296,56,200860,1,0,0:0:0
432,64,201036,5,4,0:0:0
312,136,201213,2,0,B|432:104,1,100,0|8,0:0|0:0,0:0:0
240,232,201566,2,0,B|360:200,1,100,0|0,0:0|0:0,0:0:0
128,336,201919,2,0,B|248:304,1,100,0|8,0:0|0:0,0:0:0
360,272,202272,1,0,0:0:0
384,136,202448,6,0,B|360:80|296:56,1,100,4|0,0:0|0:0,0:0:0
128,248,202801,2,0,B|152:304|216:328,1,100,8|0,0:0|0:0,0:0:0
328,336,203154,2,0,B|384:312|408:248,1,100,4|0,0:0|0:0,0:0:0
184,48,203507,2,0,B|128:72|104:136,1,100,8|0,0:0|0:0,0:0:0
256,192,203860,1,4,0:0:0
256,192,203948,12,4,205272,0:0:0
168,48,205977,5,2,0:0:0
40,112,206154,1,0,0:0:0
296,112,206330,1,8,0:0:0
168,48,206507,1,0,0:0:0
168,88,206595,1,0,0:0:0
160,128,206683,6,0,B|152:168|112:224,1,100,4|0,0:0|0:0,0:0:0
40,336,207036,1,8,0:0:0
176,304,207213,1,0,0:0:0
256,184,207389,1,0,0:0:0
176,304,207566,1,0,0:0:0
216,312,207654,1,0,0:0:0
256,296,207742,2,0,B|296:320|376:320,1,100,8|0,0:0|0:0,0:0:0
464,200,208095,5,4,0:0:0
464,56,208272,1,0,0:0:0
424,64,208360,1,0,0:0:0
400,96,208448,1,8,0:0:0
216,200,208625,1,0,0:0:0
248,64,208801,1,0,0:0:0
72,184,208977,1,0,0:0:0
48,208,209066,1,0,0:0:0
40,248,209154,6,0,B|96:280|152:288,1,100,8|0,0:0|0:0,0:0:0
192,168,209507,2,0,B|248:134|276:94|280:88,1,100,4|0,0:0|0:0,0:0:0
310,94,209772,1,0,0:0:0
339,66,209860,1,8,0:0:0
432,176,210036,2,0,B|480:208,2,50
312,256,210389,2,0,B|280:304,1,50
248,320,210566,1,8,0:0:0
112,336,210742,1,0,0:0:0
32,224,210919,6,0,B|96:184|224:160,1,200,4|8,0:0|0:0,0:0:0
144,40,211448,2,0,B|200:48|256:80,1,100
376,40,211801,2,0,B|409:85|426:147,1,100,0|8,0:0|0:0,0:0:0
464,264,212154,1,0,0:0:0
432,288,212242,1,0,0:0:0
392,288,212330,6,0,B|360:312|296:320,1,100,4|0,0:0|0:0,0:0:0
160,320,212683,1,0,0:0:0
160,320,212860,1,0,0:0:0
208,192,213036,2,0,B|144:160|112:128,1,100
32,32,213389,1,8,0:0:0
64,168,213566,1,0,0:0:0
192,224,213742,6,0,B|208:272|200:328,1,100,4|0,0:0|0:0,0:0:0
304,128,214095,2,0,B|320:176|312:232,1,100,8|0,0:0|0:0,0:0:0
456,336,214448,2,0,B|472:288|464:232,1,100
416,104,214801,1,0,0:0:0
296,40,214977,1,0,0:0:0
256,32,215066,1,0,0:0:0
224,56,215154,6,0,B|184:72|136:104,1,100,4|0,0:0|0:0,0:0:0
128,240,215507,1,0,0:0:0
32,136,215683,1,0,0:0:0
272,128,215860,2,0,B|255:167|243:224,1,100,0|0,0:0|0:0,0:0:0
334,325,216213,1,0,0:0:0
192,320,216389,1,0,0:0:0
264,200,216566,6,0,B|296:152|344:112|440:72,1,200,4|8,0:0|0:0,0:0:0
408,224,217095,1,0,0:0:0
480,344,217272,2,0,B|408:320|368:320,1,100
240,312,217625,1,8,0:0:0
104,336,217801,1,0,0:0:0
72,312,217889,1,0,0:0:0
40,288,217977,6,0,B|24:240|24:176,1,100,4|0,0:0|0:0,0:0:0
64,56,218330,1,8,0:0:0
200,32,218507,1,0,0:0:0
64,56,218683,1,0,0:0:0
248,120,218860,5,0,0:0:0
56,240,219036,1,8,0:0:0
184,320,219213,5,0,0:0:0
184,320,219389,2,0,B|248:304|296:272,1,100,4|0,0:0|0:0,0:0:0
416,280,219742,2,0,B|400:216|368:184,1,100,8|0,0:0|0:0,0:0:0
240,144,220095,2,0,B|288:88|328:72,2,100,0|0|8,0:0|0:0|0:0,0:0:0
104,184,220625,5,0,0:0:0
40,312,220801,2,0,B|104:336|160:336,1,100,4|0,0:0|0:0,0:0:0
192,208,221154,1,8,0:0:0
160,72,221330,2,0,B|208:40|264:56,1,100
344,168,221683,2,0,B|400:156|428:105,2,100,0|8|0,0:0|0:0|0:0,0:0:0
200,168,222213,5,4,0:0:0
88,256,222389,1,0,0:0:0
200,344,222566,1,8,0:0:0
312,256,222742,1,0,0:0:0
312,80,222919,5,0,0:0:0
200,168,223095,1,0,0:0:0
312,256,223272,1,8,0:0:0
424,168,223448,1,0,0:0:0
312,80,223625,6,0,B|248:56|200:56,1,100,4|0,0:0|0:0,0:0:0
144,176,223977,1,8,0:0:0
24,240,224154,2,0,B|56:288|136:304,1,100
264,104,224507,2,0,B|232:56|152:40,1,100,0|8,0:0|0:0,0:0:0
144,176,224860,1,0,0:0:0
232,280,225036,6,0,B|120:280,1,100,4|0,0:0|0:0,0:0:0
360,192,225389,2,0,B|480:192,1,100,8|0,0:0|0:0,0:0:0
192,96,225742,2,0,B|72:96,2,100,0|0|8,0:0|0:0|0:0,0:0:0
328,48,226272,1,0,0:0:0
456,96,226448,6,0,B|480:144,1,50,4|0,0:0|0:0,0:0:0
440,160,226625,2,0,B|456:208,1,50
488,232,226801,2,0,B|464:264|408:304,1,100,8|0,0:0|0:0,0:0:0
223,289,227154,2,0,B|262:280|322:246,2,100,0|0|8,0:0|0:0|0:0,0:0:0
88,264,227683,1,0,0:0:0
120,128,227860,2,0,B|64:112|16:112,1,100,4|2,0:0|0:0,0:0:0
160,144,228213,1,8,0:0:0
256,192,228389,12,4,229272,0:0:0
152,112,229625,5,8,0:0:0
384,264,229977,2,0,B|440:296|488:304,2,100,0|0|8,0:0|0:0|0:0,0:0:0
104,296,230683,2,0,B|160:288|208:272,1,100
280,160,231036,1,8,0:0:0
280,160,231213,1,0,0:0:0
408,112,231389,5,0,0:0:0
408,112,231566,2,0,B|456:88|488:48,2,100,0|8|0,0:0|0:0|0:0,0:0:0
296,200,232095,1,4,0:0:0
376,320,232272,5,0,0:0:0
240,328,232448,1,8,0:0:0
136,72,232801,1,0,0:0:0
112,208,232977,1,0,0:0:0
96,344,233154,1,8,0:0:0
328,184,233507,5,0,0:0:0
440,264,233683,1,0,0:0:0
456,128,233860,1,8,0:0:0
344,48,234036,2,0,B|272:40|232:48,1,100
256,184,234389,2,0,B|210:127|176:104,1,100,0|8,0:0|0:0,0:0:0
88,216,234742,1,0,0:0:0
88,216,234830,1,0,0:0:0
88,216,234919,2,0,B|120:264|160:296,1,100,4|0,0:0|0:0,0:0:0
288,336,235272,5,8,0:0:0
288,336,235448,2,0,B|400:336,1,100
352,200,235801,2,0,B|464:200,2,100,0|8|0,0:0|0:0|0:0,0:0:0
248,104,236330,2,0,B|120:104,1,100
48,208,236683,1,8,0:0:0
184,248,236860,2,0,B|184:360,2,100
184,104,237389,1,8,0:0:0
184,104,237566,2,0,B|240:64|296:48,1,100,0|4,0:0|0:0,0:0:0
408,48,237919,5,0,0:0:0
464,176,238095,1,8,0:0:0
192,248,238448,1,0,0:0:0
320,304,238624,1,0,0:0:0
448,240,238801,1,8,0:0:0
256,40,239154,5,0,0:0:0
32,184,239330,1,0,0:0:0
120,72,239507,1,8,0:0:0
256,40,239683,2,0,B|320:48|360:64,1,100
392,200,240036,2,0,B|328:192|288:176,2,100,0|8|0,0:0|0:0|0:0,0:0:0
440,72,240566,1,4,0:0:0
96,112,245860,6,0,B|152:88|208:80,1,100,8|0,0:0|0:0,0:0:0
248,208,246213,1,4,0:0:0
248,208,246389,2,0,B|320:216|376:200,2,100,0|8|0,0:0|0:0|0:0,0:0:0
104,216,246919,1,0,0:0:0
32,336,247095,1,0,0:0:0
176,336,247272,5,8,0:0:0
176,336,247448,2,0,B|274:325|376:279,1,200,0|0,0:0|0:0,0:0:0
488,352,247977,2,0,B|432:264,1,100,8|0,0:0|0:0,0:0:0
472,128,248330,2,0,B|384:184,1,100
296,80,248683,1,8,0:0:0
160,56,248860,1,0,0:0:0
200,192,249036,1,4,0:0:0
96,288,249213,5,0,0:0:0
96,288,249389,2,0,B|144:320|208:328,1,100,8|0,0:0|0:0,0:0:0
328,328,249742,2,0,B|368:296|424:272|416:272,1,100
320,168,250095,1,8,0:0:0
224,96,250272,6,0,B|40:144|64:320|264:384|320:168,1,500,4|0,0:0|0:0,0:0:0
