osu file format v10

[General]
AudioFilename: EastNewSoundLucid Dream.mp3
AudioLeadIn: 0
PreviewTime: 93036
Countdown: 0
SampleSet: Soft
StackLeniency: 0.7
Mode: 0
LetterboxInBreaks: 1

[Editor]
DistanceSpacing: 1.1
BeatDivisor: 4
GridSize: 8

[Metadata]
Title:Lucid Dream
TitleUnicode:Lucid Dream
Artist:EastNewSound
ArtistUnicode:EastNewSound
Creator:Qrool
Version:Hard
Source:Touhou
Tags:byakuren hijiri chata undefined object fantastic c77 ens
BeatmapID:112910
BeatmapSetID:34746

[Difficulty]
HPDrainRate:4
CircleSize:3
OverallDifficulty:5
ApproachRate:6
SliderMultiplier:1.4
SliderTickRate:1

[Events]
//Background and Video events
0,0,"bg2.jpg"
//Break Periods
2,37472,47516
2,116530,126575
//Storyboard Layer 0 (Background)
//Storyboard Layer 1 (Fail)
//Storyboard Layer 2 (Pass)
//Storyboard Layer 3 (Foreground)
//Storyboard Sound Samples
//Background Colour Transformations
3,100,0,0,0

[TimingPoints]
25978,352.941176470588,4,2,1,80,1,0
37272,-100,4,2,1,100,0,0
48566,-100,4,2,1,90,0,0
57036,-100,4,2,1,20,0,0
59507,-100,4,2,1,70,0,0
59860,-100,4,2,1,90,0,0
69742,-100,4,2,1,20,0,0
70801,-100,4,2,1,70,0,0
71154,-100,4,2,1,100,0,0
71198,-100,4,2,1,90,0,0
82095,-100,4,2,1,100,0,0
82139,-100,4,2,1,90,0,0
88095,-100,4,2,1,20,0,0
92330,-100,4,1,1,70,0,0
93036,-100,4,1,1,80,0,0
93389,-100,4,1,1,90,0,0
93566,-100,4,1,1,80,0,0
93742,-100,4,2,1,100,0,1
94095,-100,4,1,1,80,0,1
94139,-100,4,2,1,100,0,1
94801,-100,4,1,1,80,0,1
94845,-100,4,2,1,100,0,1
95507,-100,4,1,1,80,0,1
95551,-100,4,2,1,100,0,1
96213,-100,4,1,1,100,0,1
96257,-100,4,2,1,100,0,1
96919,-100,4,1,1,80,0,1
96963,-100,4,2,1,100,0,1
97625,-100,4,1,1,80,0,1
97669,-100,4,2,1,100,0,1
98330,-100,4,1,1,80,0,1
98375,-100,4,2,1,100,0,1
99036,-100,4,1,1,80,0,1
99080,-100,4,2,1,100,0,1
99742,-100,4,1,1,80,0,1
99786,-100,4,2,1,100,0,1
100448,-100,4,1,1,80,0,1
100492,-100,4,2,1,100,0,1
101154,-100,4,1,1,80,0,1
101198,-100,4,2,1,100,0,1
101860,-100,4,1,1,80,0,1
101904,-100,4,2,1,100,0,1
102566,-100,4,1,1,80,0,1
102610,-100,4,2,1,100,0,1
103272,-100,4,1,1,80,0,1
103316,-100,4,2,1,100,0,1
103977,-100,4,1,1,80,0,1
104022,-100,4,2,1,100,0,1
104683,-100,4,1,1,80,0,1
104727,-100,4,2,1,100,0,1
105389,-100,4,1,1,80,0,1
105433,-100,4,2,1,100,0,1
106095,-100,4,1,1,80,0,1
106139,-100,4,2,1,100,0,1
106801,-100,4,1,1,80,0,1
106845,-100,4,2,1,100,0,1
107507,-100,4,1,1,80,0,1
107551,-100,4,2,1,100,0,1
108213,-100,4,1,1,80,0,1
108257,-100,4,2,1,100,0,1
108919,-100,4,1,1,80,0,1
108963,-100,4,2,1,100,0,1
109625,-100,4,1,1,80,0,1
109669,-100,4,2,1,100,0,1
110330,-100,4,1,1,80,0,1
110375,-100,4,2,1,100,0,1
111036,-100,4,1,1,80,0,1
111080,-100,4,2,1,100,0,1
111742,-100,4,1,1,80,0,1
111786,-100,4,2,1,100,0,1
112448,-100,4,1,1,80,0,1
112492,-100,4,2,1,100,0,1
113154,-100,4,1,1,80,0,1
113198,-100,4,2,1,100,0,1
113860,-100,4,1,1,80,0,1
113904,-100,4,2,1,100,0,1
114566,-100,4,1,1,100,0,1
114610,-100,4,2,1,100,0,1
114919,-100,4,1,1,100,0,1
114963,-100,4,2,1,100,0,1
115448,-100,4,2,1,80,0,1
116330,-100,4,2,1,100,0,0
127272,-100,4,2,1,90,0,0
137507,-100,4,1,1,80,0,0
137551,-100,4,2,1,90,0,0
137683,-100,4,1,1,80,0,0
137727,-100,4,2,1,90,0,0
138125,-100,4,1,1,80,0,0
138169,-100,4,2,1,90,0,0
138566,-100,4,1,1,80,0,0
138610,-100,4,2,1,90,0,0
138742,-100,4,1,1,80,0,0
138786,-100,4,2,1,90,0,0
147389,-100,4,2,1,20,0,0
149860,-100,4,2,1,90,0,0
160095,-100,4,2,1,20,0,0
161154,-100,4,2,1,70,0,0
161507,-200,4,1,1,80,0,0
161551,-200,4,2,1,80,0,0
178448,-200,4,2,1,20,0,0
179507,-200,4,2,1,80,0,0
179860,-200,4,2,1,20,0,0
180919,-200,4,2,1,80,0,0
181272,-200,4,2,1,20,0,0
182683,-100,4,1,1,70,0,0
183389,-100,4,1,1,80,0,0
184095,-100,4,2,1,100,0,0
184139,-100,4,2,1,70,0,0
186919,-100,4,2,1,100,0,0
186963,-100,4,2,1,70,0,0
189742,-100,4,2,1,100,0,0
189786,-100,4,2,1,70,0,0
192566,-100,4,2,1,100,0,0
192610,-100,4,2,1,70,0,0
195389,-100,4,2,1,100,0,0
195433,-100,4,2,1,70,0,0
196801,-100,4,2,1,90,0,0
196845,-100,4,2,1,70,0,0
198213,-100,4,2,1,80,0,0
198257,-100,4,2,1,70,0,0
202448,-100,4,2,1,80,0,0
203154,-100,4,2,1,90,0,0
203860,-100,4,2,1,20,0,0
206330,-100,4,2,1,70,0,0
206683,-100,4,2,1,100,0,1
207036,-100,4,1,1,80,0,1
207080,-100,4,2,1,100,0,1
207742,-100,4,1,1,80,0,1
207786,-100,4,2,1,100,0,1
208448,-100,4,1,1,80,0,1
208492,-100,4,2,1,100,0,1
209154,-100,4,1,1,80,0,1
209198,-100,4,2,1,100,0,1
209860,-100,4,1,1,80,0,1
209904,-100,4,2,1,100,0,1
210566,-100,4,1,1,80,0,1
210610,-100,4,2,1,100,0,1
211272,-100,4,1,1,80,0,1
211316,-100,4,2,1,100,0,1
211977,-100,4,1,1,80,0,1
212022,-100,4,2,1,100,0,1
212683,-100,4,1,1,80,0,1
212727,-100,4,2,1,100,0,1
213389,-100,4,1,1,80,0,1
213433,-100,4,2,1,100,0,1
214095,-100,4,1,1,80,0,1
214139,-100,4,2,1,100,0,1
214801,-100,4,1,1,80,0,1
214845,-100,4,2,1,100,0,1
215507,-100,4,1,1,80,0,1
215551,-100,4,2,1,100,0,1
216213,-100,4,1,1,80,0,1
216257,-100,4,2,1,100,0,1
216919,-100,4,1,1,80,0,1
216963,-100,4,2,1,100,0,1
217625,-100,4,1,1,80,0,1
217669,-100,4,2,1,100,0,1
218330,-100,4,1,1,80,0,1
218375,-100,4,2,1,100,0,1
219036,-100,4,1,1,80,0,1
219080,-100,4,2,1,100,0,1
219742,-100,4,1,1,80,0,1
219786,-100,4,2,1,100,0,1
220448,-100,4,1,1,80,0,1
220492,-100,4,2,1,100,0,1
221154,-100,4,1,1,80,0,1
221198,-100,4,2,1,100,0,1
221860,-100,4,1,1,80,0,1
221904,-100,4,2,1,100,0,1
222566,-100,4,1,1,80,0,1
222610,-100,4,2,1,100,0,1
223272,-100,4,1,1,80,0,1
223316,-100,4,2,1,100,0,1
223977,-100,4,1,1,80,0,1
224022,-100,4,2,1,100,0,1
224683,-100,4,1,1,80,0,1
224727,-100,4,2,1,100,0,1
225389,-100,4,1,1,80,0,1
225433,-100,4,2,1,100,0,1
226095,-100,4,1,1,80,0,1
226139,-100,4,2,1,100,0,1
226801,-100,4,1,1,80,0,1
226845,-100,4,2,1,100,0,1
227507,-100,4,1,1,80,0,1
227551,-100,4,2,1,100,0,1
227860,-100,4,1,1,100,0,1
228389,-100,4,2,1,80,0,1
229272,-100,4,2,1,100,0,0

[HitObjects]
120,88,25978,6,0,B|152:136|264:136,1,140,4|8,0:0|0:0,0:0:0
320,136,26506,1,0,0:0:0
320,136,26683,2,0,B|400:136|400:136,2,70,0|0|8,0:0|0:0|0:0,0:0:0
400,288,27389,1,0,0:0:0
248,288,27742,2,0,B|192:336,2,70,8|0|0,0:0|0:0|0:0,0:0:0
112,208,28448,5,8,0:0:0
64,152,28625,1,0,0:0:0
112,96,28801,1,0,0:0:0
264,88,29154,2,0,B|264:16,2,70,8|0|0,0:0|0:0|0:0,0:0:0
392,176,29860,1,8,0:0:0
448,320,30213,2,0,B|368:320,2,70,0|0|8,0:0|0:0|0:0,0:0:0
448,240,30742,1,0,0:0:0
448,160,30919,1,0,0:0:0
312,88,31272,6,0,B|224:64|224:64,2,70,8|0|4,0:0|0:0|0:0,0:0:0
232,224,31978,2,0,B|320:248|320:248,2,70,8|0|0,0:0|0:0|0:0,0:0:0
144,96,32683,1,8,0:0:0
96,240,33036,2,0,B|48:264|48:328|96:352,2,140,0|8|0,0:0|0:0|0:0,0:0:0
208,128,34095,6,0,B|280:112,1,70,8|0,0:0|0:0,0:0:0
352,96,34448,1,0,0:0:0
440,224,34801,1,8,0:0:0
440,224,34978,2,0,B|368:272,1,70
240,328,35507,1,8,0:0:0
96,272,35860,2,0,B|32:216,1,70,0|0,0:0|0:0,0:0:0
112,184,36213,2,0,B|48:128,1,70,8|0,0:0|0:0,0:0:0
128,96,36566,1,0,0:0:0
280,64,36919,5,8,0:0:0
352,96,37095,1,0,0:0:0
424,64,37272,1,4,0:0:0
112,128,48566,6,0,B|168:88|248:80,1,140,4|8,0:0|0:0,0:0:0
320,56,49095,1,0,0:0:0
320,56,49272,1,0,0:0:0
464,104,49625,2,0,B|480:144|480:184,1,70,8|0,0:0|0:0,0:0:0
448,240,49978,2,0,B|408:256|368:256,2,70,0|0|8,0:0|0:0|0:0,0:0:0
448,240,50507,1,0,0:0:0
304,296,50860,2,0,B|248:336|216:344,1,70,0|8,0:0|0:0,0:0:0
136,224,51389,6,0,B|88:232|64:240,2,70,0|0|8,0:0|0:0|0:0,0:0:0
136,224,51919,1,0,0:0:0
288,224,52272,2,0,B|344:184|376:176,1,70,0|8,0:0|0:0,0:0:0
416,144,52625,1,0,0:0:0
416,144,52801,6,0,B|376:88|296:56,1,140,0|8,0:0|0:0,0:0:0
232,40,53330,2,0,B|192:95|112:127,1,140
122,123,53860,1,8,0:0:0
128,280,54213,6,0,B|88:285|54:285,2,70,0|0|8,0:0|0:0|0:0,0:0:0
208,272,54742,1,0,0:0:0
288,264,54919,2,0,B|327:258|361:258,2,70,0|0|8,0:0|0:0|0:0,0:0:0
160,176,55625,1,0,0:0:0
160,176,55978,2,0,B|227:164|256:147,1,70,8|0,0:0|0:0,0:0:0
376,112,56507,2,0,B|443:123|472:140,1,70,0|8,0:0|0:0,0:0:0
256,192,57036,12,0,59154,0:0:0
320,104,59507,6,0,B|360:112|400:136,1,70,2|0,0:0|0:0,0:0:0
448,176,59860,2,0,B|432:232|352:288,1,140,4|8,0:0|0:0,0:0:0
360,282,60389,1,0,0:0:0
240,320,60742,1,0,0:0:0
240,320,60919,2,0,B|200:312|160:288,2,70,8|0|0,0:0|0:0|0:0,0:0:0
112,232,61625,2,0,B|145:209|191:198,1,70,8|0,0:0|0:0,0:0:0
280,88,62154,2,0,B|240:80|200:56,1,70,0|8,0:0|0:0,0:0:0
96,160,62683,6,0,B|48:176|8:176,2,70,0|0|8,0:0|0:0|0:0,0:0:0
168,144,63213,1,0,0:0:0
240,120,63389,2,0,B|288:104|328:104,2,70,0|0|8,0:0|0:0|0:0,0:0:0
336,240,64095,5,0,0:0:0
336,240,64448,2,0,B|369:262|415:273,1,70,8|0,0:0|0:0,0:0:0
248,312,64978,2,0,B|214:289|168:278,1,70,0|8,0:0|0:0,0:0:0
104,152,65507,6,0,B|56:136|24:120,2,70,0|0|8,0:0|0:0|0:0,0:0:0
104,152,66036,1,0,0:0:0
200,272,66389,2,0,B|233:294|279:305,1,70,0|8,0:0|0:0,0:0:0
416,280,66919,1,0,0:0:0
416,280,67272,2,0,B|449:302|495:313,1,70,8|0,0:0|0:0,0:0:0
376,192,67801,2,0,B|342:169|296:158,1,70,0|8,0:0|0:0,0:0:0
168,224,68330,6,0,B|216:240|256:240,2,70,0|0|8,0:0|0:0|0:0,0:0:0
136,152,68860,1,0,0:0:0
104,80,69036,2,0,B|56:64|16:64,2,70,0|0|8,0:0|0:0|0:0,0:0:0
256,192,69742,12,8,70801,0:0:0
256,104,71154,5,4,0:0:0
400,144,71507,2,0,B|464:160|496:176,1,70,0|0,0:0|0:0,0:0:0
320,216,72036,2,0,B|256:200|224:184,1,70,0|8,0:0|0:0,0:0:0
112,264,72566,1,0,0:0:0
248,328,72919,2,0,B|298:333|321:344,2,70,8|0|0,0:0|0:0|0:0,0:0:0
200,264,73448,2,0,B|136:248|104:232,1,70,0|8,0:0|0:0,0:0:0
56,112,73978,5,4,0:0:0
56,112,74330,2,0,B|96:72|120:56,1,70,8|0,0:0|0:0,0:0:0
256,104,74860,2,0,B|307:80|335:73,2,70,0|8|0,0:0|0:0|0:0,0:0:0
184,136,75389,1,0,0:0:0
96,264,75742,2,0,B|160:279|192:295,1,70,8|0,0:0|0:0,0:0:0
240,304,76095,2,0,B|304:319|336:335,2,70,0|0|8,0:0|0:0|0:0,0:0:0
168,168,76801,5,4,0:0:0
296,88,77154,2,0,B|360:104|392:120,1,70,8|0,0:0|0:0,0:0:0
384,264,77683,2,0,B|320:248|288:232,1,70,0|8,0:0|0:0,0:0:0
168,272,78213,2,0,B|120:288|80:288,2,70,0|0|8,0:0|0:0|0:0,0:0:0
224,216,78742,1,0,0:0:0
272,152,78919,2,0,B|320:136|360:136,2,70,0|0|8,0:0|0:0|0:0,0:0:0
144,64,79625,5,0,0:0:0
296,48,79978,2,0,B|360:64|392:80,1,70,8|0,0:0|0:0,0:0:0
448,192,80507,1,0,0:0:0
448,192,80683,2,0,B|432:256|416:288,1,70,8|0,0:0|0:0,0:0:0
384,320,81036,6,0,B|328:272|256:248,1,140,0|8,0:0|0:0,0:0:0
304,184,81566,2,0,B|230:178|162:144,1,140,0|0,0:0|0:0,0:0:0
169,147,82095,1,4,0:0:0
304,72,82448,6,0,B|344:48|384:40,2,70,0|0|8,0:0|0:0|0:0,0:0:0
384,208,83154,2,0,B|429:219|463:241,2,70,0|0|8,0:0|0:0|0:0,0:0:0
280,320,83860,1,0,0:0:0
280,320,84213,2,0,B|325:331|359:353,2,70,8|0|0,0:0|0:0|0:0,0:0:0
208,288,84742,2,0,B|162:276|128:254,1,70,0|8,0:0|0:0,0:0:0
112,160,85272,5,0,0:0:0
112,160,85625,2,0,B|136:120|160:104,2,70,8|0|0,0:0|0:0|0:0,0:0:0
80,312,86330,2,0,B|56:352|32:368,2,70,8|0|4,0:0|0:0|0:0,0:0:0
160,184,87036,5,8,0:0:0
272,80,87389,1,0,0:0:0
320,224,87742,1,8,0:0:0
256,192,88095,12,4,92330,0:0:0
144,80,93036,5,0,0:0:0
48,200,93389,2,0,B|80:232|112:240,1,70
176,264,93742,6,0,B|224:280|248:296,1,70,4|0,0:0|0:0,0:0:0
312,320,94095,1,8,0:0:0
424,216,94448,1,0,0:0:0
456,144,94625,1,0,0:0:0
408,80,94801,2,0,B|384:56|344:32,1,70,8|0,0:0|0:0,0:0:0
280,64,95154,2,0,B|238:83|206:79,2,70,4|0|8,0:0|0:0|0:0,0:0:0
344,112,95683,1,0,0:0:0
408,160,95860,2,0,B|449:140|481:144,2,70,0|0|8,0:0|0:0|0:0,0:0:0
344,304,96566,5,4,0:0:0
344,304,96742,2,0,B|320:328|280:352,1,70,0|8,0:0|0:0,0:0:0
200,224,97272,1,0,0:0:0
200,224,97448,2,0,B|166:224|120:212,1,70,0|8,0:0|0:0,0:0:0
152,64,97977,1,4,0:0:0
152,64,98330,2,0,B|176:88|216:112,1,70,8|2,0:0|0:0,0:0:0
272,152,98683,2,0,B|305:152|351:163,2,70,0|0|12,0:0|0:0|0:0,0:0:0
248,296,99389,6,0,B|208:320|168:328,2,70,4|0|8,0:0|0:0|0:0,0:0:0
96,264,100095,1,0,0:0:0
56,200,100272,1,0,0:0:0
48,120,100448,2,0,B|77:83|112:62,1,70,8|0,0:0|0:0,0:0:0
168,40,100801,2,0,B|199:28|246:23,2,70,4|0|8,0:0|0:0|0:0,0:0:0
160,120,101330,2,0,B|149:152|144:199,1,70,0|0,0:0|0:0,0:0:0
88,328,101860,5,8,0:0:0
88,328,102036,2,0,B|120:296|160:272,1,70,0|4,0:0|0:0,0:0:0
184,216,102389,2,0,B|225:235|270:243,1,70,0|8,0:0|0:0,0:0:0
288,88,102919,1,0,0:0:0
288,88,103272,2,0,B|327:110|372:123,1,70,8|0,0:0|0:0,0:0:0
416,160,103625,2,0,B|457:140|502:132,2,70,4|0|0,0:0|0:0|0:0,0:0:0
368,224,104154,1,2,0:0:0
320,288,104330,2,0,B|278:307|233:315,2,70,0|2|12,0:0|0:0|0:0,0:0:0
208,184,105036,6,0,B|176:224|152:240,1,70,4|0,0:0|0:0,0:0:0
120,168,105389,2,0,B|69:173|40:168,1,70,8|2,0:0|0:0,0:0:0
80,96,105742,2,0,B|40:64|24:40,2,70,0|2|8,0:0|0:0|0:0,0:0:0
152,128,106272,5,0,0:0:0
224,160,106448,2,0,B|176:200|152:200,2,70,4|0|8,0:0|0:0|0:0,0:0:0
288,112,106977,1,0,0:0:0
352,64,107154,2,0,B|400:24|424:24,2,70,0|0|8,0:0|0:0|0:0,0:0:0
320,136,107683,5,0,0:0:0
328,216,107860,2,0,B|256:248|184:256,1,140,4|8,0:0|0:0,0:0:0
120,280,108389,2,0,B|86:250|59:213,1,70,2|0,0:0|0:0,0:0:0
136,192,108742,2,0,B|114:153|101:108,1,70,2|8,0:0|0:0,0:0:0
168,80,109095,1,0,0:0:0
168,80,109272,2,0,B|240:48|312:40,1,140,4|8,0:0|0:0,0:0:0
440,112,109977,6,0,B|429:144|424:191,1,70
352,160,110330,2,0,B|322:175|285:205,1,70,8|0,0:0|0:0,0:0:0
224,232,110683,1,4,0:0:0
128,112,111036,2,0,B|98:127|61:157,2,70,8|2|0,0:0|0:0|0:0,0:0:0
192,72,111566,1,2,0:0:0
240,216,111919,1,0,0:0:0
304,264,112095,6,0,B|328:288|368:304,2,70,4|0|8,0:0|0:0|0:0,0:0:0
280,192,112625,1,0,0:0:0
256,120,112801,2,0,B|232:96|192:80,2,70,0|0|8,0:0|0:0|0:0,0:0:0
408,104,113507,6,0,B|360:136|352:152,1,70,4|0,0:0|0:0,0:0:0
304,208,113860,1,8,0:0:0
240,256,114036,2,0,B|216:280|200:320,2,70,0|0|0,0:0|0:0|0:0,0:0:0
312,184,114566,2,0,B|323:127|317:110,2,70,8|0|4,0:0|0:0|0:0,0:0:0
480,24,115448,6,0,B|432:72|344:120,1,140,2|0,0:0|0:0,0:0:0
320,136,115977,2,0,B|256:152|240:176,1,70,2|0,0:0|0:0,0:0:0
216,200,116330,1,4,0:0:0
328,128,127625,5,4,0:0:0
344,280,127977,2,0,B|368:312|400:328,1,70,8|0,0:0|0:0,0:0:0
448,184,128507,1,0,0:0:0
448,184,128683,1,8,0:0:0
376,48,129036,1,0,0:0:0
224,80,129389,2,0,B|184:64|144:56,1,70,8|0,0:0|0:0,0:0:0
128,208,129919,2,0,B|88:224|54:247,1,70,0|8,0:0|0:0,0:0:0
216,272,130448,5,0,0:0:0
216,272,130625,2,0,B|240:304|272:320,2,70,0|8|0,0:0|0:0|0:0,0:0:0
112,160,131330,1,0,0:0:0
112,160,131507,1,8,0:0:0
232,56,131860,1,0,0:0:0
256,208,132213,2,0,B|296:224|336:232,1,70,8|0,0:0|0:0,0:0:0
392,88,132743,2,0,B|431:71|465:48,1,70,0|8,0:0|0:0,0:0:0
400,200,133272,5,0,0:0:0
400,200,133449,2,0,B|424:232|456:248,2,70,0|8|0,0:0|0:0|0:0,0:0:0
248,184,134154,2,0,B|215:155|181:134,1,70,0|8,0:0|0:0,0:0:0
64,64,134683,1,0,0:0:0
120,208,135036,2,0,B|148:240|169:274,2,70,8|0|0,0:0|0:0|0:0,0:0:0
200,80,135742,5,8,0:0:0
272,48,135919,1,0,0:0:0
336,96,136095,2,0,B|368:120|408:144,1,70
456,176,136448,2,0,B|484:143|505:109,2,70,8|0|0,0:0|0:0|0:0,0:0:0
320,240,137154,1,4,0:0:0
248,272,137330,1,0,0:0:0
176,240,137507,6,0,B|128:264|112:288,2,70
224,136,138125,2,0,B|264:104|320:88,1,105
392,80,138566,1,0,0:0:0
392,80,138742,1,0,0:0:0
368,152,138919,6,0,B|424:200|496:216,2,140,4|0|0,0:0|0:0|0:0,0:0:0
344,304,139977,2,0,B|296:272|264:264,1,70,8|0,0:0|0:0,0:0:0
208,256,140330,1,0,0:0:0
104,144,140683,1,8,0:0:0
152,80,140860,1,0,0:0:0
232,80,141036,2,0,B|280:112|312:120,2,70,0|0|8,0:0|0:0|0:0,0:0:0
336,200,141742,6,0,B|392:232|424:232,2,70,0|0|8,0:0|0:0|0:0,0:0:0
272,152,142272,1,0,0:0:0
328,96,142448,2,0,B|384:64|416:64,2,70,0|0|8,0:0|0:0|0:0,0:0:0
200,184,143154,5,0,0:0:0
104,304,143507,2,0,B|48:336|16:336,2,70,8|0|0,0:0|0:0|0:0,0:0:0
200,184,144213,1,8,0:0:0
352,200,144566,6,0,B|384:232|424:232,2,70,0|0|8,0:0|0:0|0:0,0:0:0
296,144,145095,1,0,0:0:0
248,80,145272,2,0,B|216:48|176:48,2,70,0|0|8,0:0|0:0|0:0,0:0:0
296,224,145977,1,0,0:0:0
168,312,146330,2,0,B|120:344|88:352,1,70,8|0,0:0|0:0,0:0:0
168,208,146860,2,0,B|216:176|248:168,1,70,0|8,0:0|0:0,0:0:0
256,192,147389,12,0,149507,0:0:0
248,88,149860,6,0,B|296:72|336:80,1,70,2|0,0:0|0:0,0:0:0
392,88,150213,1,4,0:0:0
432,152,150389,1,0,0:0:0
384,216,150566,2,0,B|416:248|440:288,1,70,8|0,0:0|0:0,0:0:0
280,320,151095,1,0,0:0:0
280,320,151272,2,0,B|236:308|189:307,1,70,8|0,0:0|0:0,0:0:0
160,248,151625,5,0,0:0:0
112,104,151977,2,0,B|72:112|32:112,1,70,8|0,0:0|0:0,0:0:0
192,144,152507,2,0,B|232:136|272:136,1,70,0|8,0:0|0:0,0:0:0
408,104,153036,1,0,0:0:0
408,104,153213,2,0,B|430:70|458:41,2,70,0|8|0,0:0|0:0|0:0,0:0:0
288,200,153919,1,0,0:0:0
208,200,154095,1,8,0:0:0
96,304,154448,6,0,B|128:320|248:336,1,140,0|8,0:0|0:0,0:0:0
312,336,154977,1,0,0:0:0
440,288,155330,1,0,0:0:0
440,208,155507,1,8,0:0:0
352,80,155860,6,0,B|328:48|296:32,2,70,0|0|8,0:0|0:0|0:0,0:0:0
208,136,156566,2,0,B|168:130|134:141,2,70,0|0|8,0:0|0:0|0:0,0:0:0
96,248,157272,1,0,0:0:0
232,328,157625,1,8,0:0:0
312,328,157801,1,0,0:0:0
224,200,158154,1,0,0:0:0
296,168,158330,6,0,B|344:144|376:136,1,70,8|0,0:0|0:0,0:0:0
376,64,158683,2,0,B|440:56|464:48,2,70,0|0|8,0:0|0:0|0:0,0:0:0
296,64,159213,2,0,B|256:56|216:40,1,70,0|0,0:0|0:0,0:0:0
80,88,159742,1,8,0:0:0
256,192,160095,12,2,161154,0:0:0
256,192,161507,5,4,0:0:0
328,104,162036,1,0,0:0:0
360,88,162213,2,0,B|400:104|424:136,1,70,0|8,0:0|0:0,0:0:0
424,208,162919,2,0,B|456:232,2,35,0|0|8,0:0|0:0|0:0,0:0:0
384,224,163448,2,0,B|368:264|336:288,1,70,0|0,0:0|0:0,0:0:0
312,304,163977,1,8,0:0:0
240,320,164330,5,0,0:0:0
168,288,164683,2,0,B|128:312|128:312,1,35,8|0,0:0|0:0,0:0:0
120,232,165213,2,0,B|72:224|48:208,1,70,0|0,0:0|0:0,0:0:0
88,192,165742,6,0,B|59:152,1,35,2|0,0:0|0:0,0:0:0
96,144,166095,2,0,B|66:105,1,35,8|0,0:0|0:0,0:0:0
112,104,166448,2,0,B|140:64,1,35,0|0,0:0|0:0,0:0:0
96,72,166801,2,0,B|126:33,1,35,8|0,0:0|0:0,0:0:0
152,56,167154,6,0,B|208:40|232:40,1,70,0|8,0:0|0:0,0:0:0
240,72,167683,2,0,B|296:56|320:56,1,70,0|0,0:0|0:0,0:0:0
344,64,168213,1,8,0:0:0
424,72,168566,2,0,B|456:48,2,35,0|0|8,0:0|0:0|0:0,0:0:0
400,96,169095,2,0,B|424:136|432:160,1,70
432,200,169625,1,8,0:0:0
440,280,169977,6,0,B|408:312|376:320,1,70,0|8,0:0|0:0,0:0:0
344,304,170507,2,0,B|298:304|270:287,1,70,0|0,0:0|0:0,0:0:0
240,296,171036,1,8,0:0:0
208,312,171213,1,0,0:0:0
168,304,171389,6,0,B|120:312,1,35
128,272,171742,2,0,B|80:264,1,35,8|0,0:0|0:0,0:0:0
112,232,172095,2,0,B|72:208,1,35,0|0,0:0|0:0,0:0:0
104,184,172448,2,0,B|72:152,1,35,8|0,0:0|0:0,0:0:0
48,136,172801,5,6,0:0:0
144,72,173330,1,2,0:0:0
256,64,173860,1,8,0:0:0
328,48,174213,2,0,B|368:24,2,35,0|0|8,0:0|0:0|0:0,0:0:0
296,64,174742,2,0,B|328:96|360:104,1,70,0|0,0:0|0:0,0:0:0
384,128,175272,5,8,0:0:0
272,232,175977,1,8,0:0:0
136,160,176683,1,8,0:0:0
184,104,177036,1,4,0:0:0
256,72,177389,2,0,B|296:48|320:48,2,70,8|0|8,0:0|0:0|0:0,0:0:0
256,192,178448,12,8,179507,0:0:0
256,192,179860,12,8,180919,0:0:0
256,192,181272,12,4,182683,0:0:0
88,128,183389,5,0,0:0:0
216,40,183742,2,0,B|248:72|288:88,1,70
336,120,184095,5,4,0:0:0
336,120,184272,2,0,B|376:144|416:184,1,70,0|8,0:0|0:0,0:0:0
416,312,184801,1,0,0:0:0
344,344,184977,1,0,0:0:0
288,288,185154,2,0,B|264:328|224:368,1,70,8|0,0:0|0:0,0:0:0
176,320,185507,2,0,B|128:288|32:280,1,140,0|8,0:0|0:0,0:0:0
42,281,186036,1,0,0:0:0
152,168,186389,1,0,0:0:0
232,168,186566,1,8,0:0:0
88,120,186919,6,0,B|112:88|160:80,2,70,4|0|8,0:0|0:0|0:0,0:0:0
224,48,187625,2,0,B|263:42|303:70,1,70
291,62,187978,1,8,0:0:0
440,112,188330,2,0,B|390:141|342:225,1,140,0|8,0:0|0:0,0:0:0
348,216,188860,1,0,0:0:0
456,320,189213,1,0,0:0:0
456,320,189389,1,8,0:0:0
304,328,189742,6,0,B|232:344|152:328,1,140,4|8,0:0|0:0,0:0:0
40,232,190448,2,0,B|62:161|116:100,1,140,0|8,0:0|0:0,0:0:0
107,110,190977,1,0,0:0:0
256,80,191330,2,0,B|288:56|320:48,2,70,0|8|0,0:0|0:0|0:0,0:0:0
152,136,192036,1,0,0:0:0
88,184,192213,1,8,0:0:0
200,288,192566,6,0,B|224:320|264:336,1,70,4|0,0:0|0:0,0:0:0
253,331,192919,1,8,0:0:0
296,184,193272,2,0,B|334:196|363:228,2,70,0|0|8,0:0|0:0|0:0,0:0:0
144,160,193977,1,4,0:0:0
272,248,194330,2,0,B|312:272|352:312,1,70,8|0,0:0|0:0,0:0:0
296,136,194860,2,0,B|256:112|216:72,1,70,0|8,0:0|0:0,0:0:0
88,64,195389,5,4,0:0:0
240,64,195742,1,0,0:0:0
240,64,195919,2,0,B|304:104|384:120,1,140,0|8,0:0|0:0,0:0:0
432,160,196448,1,8,0:0:0
376,216,196625,5,0,0:0:0
376,216,196801,2,0,B|336:280|320:360,1,140,4|0,0:0|0:0,0:0:0
323,344,197330,1,0,0:0:0
168,320,197683,1,8,0:0:0
104,280,197860,1,8,0:0:0
96,200,198036,6,0,B|32:192|8:176,1,70,0|4,0:0|0:0,0:0:0
176,136,198566,2,0,B|184:72|200:48,1,70,0|0,0:0|0:0,0:0:0
240,216,199095,2,0,B|304:224|328:240,1,70,0|8,0:0|0:0,0:0:0
392,104,199625,2,0,B|440:120|488:120,2,70,0|0|8,0:0|0:0|0:0,0:0:0
248,160,200330,2,0,B|200:144|152:144,2,70,0|0|8,0:0|0:0|0:0,0:0:0
376,240,201036,5,4,0:0:0
264,344,201389,1,0,0:0:0
264,344,201566,2,0,B|176:336|120:312,1,140,0|0,0:0|0:0,0:0:0
136,160,202272,1,0,0:0:0
136,80,202448,2,0,B|88:56|64:40,2,70,0|0|8,0:0|0:0|0:0,0:0:0
200,128,202977,1,0,0:0:0
248,192,203154,2,0,B|296:216|320:232,2,70,0|0|8,0:0|0:0|0:0,0:0:0
256,192,203860,12,2,206330,0:0:0
304,144,206683,5,4,0:0:0
304,144,206860,2,0,B|344:160|376:176,1,70,0|8,0:0|0:0,0:0:0
368,328,207389,1,0,0:0:0
288,328,207566,1,8,0:0:0
208,320,207742,2,0,B|168:304|136:288,1,70,8|8,0:0|0:0,0:0:0
80,248,208095,6,0,B|40:184|24:120,1,140,4|8,0:0|0:0,0:0:0
72,56,208625,2,0,B|136:96|200:112,1,140,0|0,0:0|0:0,0:0:0
199,111,209154,1,8,0:0:0
352,112,209507,5,4,0:0:0
352,112,209683,2,0,B|392:128|424:144,2,70,0|8|0,0:0|0:0|0:0,0:0:0
424,248,210389,1,0,0:0:0
424,248,210566,2,0,B|384:264|352:280,1,70,8|0,0:0|0:0,0:0:0
312,336,210919,2,0,B|237:325|177:296,1,140,4|8,0:0|0:0,0:0:0
144,216,211448,2,0,B|218:226|278:255,1,140,2|0,0:0|0:0,0:0:0
277,255,211977,1,12,0:0:0
432,240,212330,6,0,B|422:166|393:106,1,140,4|8,0:0|0:0,0:0:0
256,176,213036,2,0,B|266:102|295:42,1,140,0|8,0:0|0:0,0:0:0
294,42,213566,1,0,0:0:0
144,64,213919,2,0,B|96:80|72:96,1,70,0|8,0:0|0:0,0:0:0
88,168,214272,2,0,B|40:184|16:200,2,70,0|0|0,0:0|0:0|0:0,0:0:0
168,160,214801,5,8,0:0:0
240,192,214977,1,0,0:0:0
304,232,215154,2,0,B|344:248|384:264|384:272,2,70,4|0|8,0:0|0:0|0:0,0:0:0
200,112,215860,2,0,B|160:96|120:80|120:72,2,70,0|0|8,0:0|0:0|0:0,0:0:0
352,72,216566,1,4,0:0:0
376,224,216919,2,0,B|424:240|448:248,1,70,8|2,0:0|0:0,0:0:0
304,312,217448,2,0,B|256:296|232:288,1,70,2|8,0:0|0:0,0:0:0
192,224,217801,1,0,0:0:0
192,144,217977,6,0,B|169:98|84:36,1,140,4|8,0:0|0:0,0:0:0
95,44,218507,1,2,0:0:0
88,200,218860,2,0,B|64:256|40:280,2,70,2|8|0,0:0|0:0|0:0,0:0:0
96,280,219389,6,0,B|159:240|223:223,1,140,4|8,0:0|0:0,0:0:0
232,304,219919,2,0,B|306:294|366:265,1,140
365,265,220448,1,8,0:0:0
424,216,220625,6,0,B|448:184|464:152,1,70,0|4,0:0|0:0,0:0:0
376,32,221154,2,0,B|352:64|336:96,1,70,8|2,0:0|0:0,0:0:0
256,216,221683,1,2,0:0:0
256,216,221860,2,0,B|216:210|182:199,1,70,8|0,0:0|0:0,0:0:0
120,168,222213,2,0,B|72:152|40:144,2,70,4|0|8,0:0|0:0|0:0,0:0:0
200,304,222919,2,0,B|248:320|280:328,2,70,0|0|8,0:0|0:0|0:0,0:0:0
64,232,223625,5,4,0:0:0
128,88,223977,1,0,0:0:0
200,56,224154,2,0,B|248:40|280:32,1,70,0|0,0:0|0:0,0:0:0
320,96,224507,2,0,B|365:118|393:135,1,70,0|8,0:0|0:0,0:0:0
424,192,224860,1,0,0:0:0
400,264,225036,6,0,B|336:303|272:320,1,140,4|8,0:0|0:0,0:0:0
200,288,225566,2,0,B|263:248|327:231,1,140,0|0,0:0|0:0,0:0:0
327,231,226095,1,8,0:0:0
392,88,226448,5,4,0:0:0
312,88,226625,1,0,0:0:0
240,56,226801,2,0,B|208:40|160:32,1,70,8|0,0:0|0:0,0:0:0
72,152,227330,1,0,0:0:0
72,152,227507,2,0,B|56:184|48:232,2,70,8|0|4,0:0|0:0|0:0,0:0:0
280,56,228389,5,2,0:0:0
400,152,228742,1,0,0:0:0
400,232,228919,2,0,B|400:304,2,70,2|0|4,0:0|0:0|0:0,0:0:0
