osu file format v9

[General]
AudioFilename: LucidDream.mp3
AudioLeadIn: 0
PreviewTime: 183389
Countdown: 0
SampleSet: Soft
StackLeniency: 0.6
Mode: 1
LetterboxInBreaks: 1

[Editor]
Bookmarks: 25978,116331
DistanceSpacing: 1.4
BeatDivisor: 4
GridSize: 8

[Metadata]
Title:Lucid Dream
Artist:EastNewSound
Creator:Natteke
Version:lepidon! - Taiko Oni
Source:Touhou
Tags:happy30 lepidopodus Chata

[Difficulty]
HPDrainRate:3
CircleSize:5
OverallDifficulty:5
ApproachRate:5
SliderMultiplier:1.4
SliderTickRate:1

[Events]
//Background and Video events
0,0,"Taiko_BG.jpg"
//Break Periods
//Storyboard Layer 0 (Background)
//Storyboard Layer 1 (Fail)
//Storyboard Layer 2 (Pass)
//Storyboard Layer 3 (Foreground)
//Storyboard Sound Samples
//Background Colour Transformations
3,100,163,162,255

[TimingPoints]
3390,352.941176470588,4,2,0,100,1,0
93742,-100,4,2,0,100,0,1
116331,-100,4,2,0,100,0,0
206684,-100,4,2,0,100,0,1
229272,-100,4,2,0,100,0,0

[HitObjects]
296,176,14684,1,0
384,216,14860,1,0
480,216,15037,1,8
392,264,15213,1,0
216,176,15566,1,0
312,168,15742,1,8
488,72,16095,1,0
440,160,16272,1,8
392,248,16448,1,8
392,264,16625,1,8
296,264,16801,1,0
240,344,16978,1,0
328,296,17154,1,0
224,128,17507,1,0
320,152,17684,1,0
440,160,17860,1,8
432,256,18037,1,0
408,160,18213,1,8
376,168,18389,1,8
392,264,18566,1,0
200,216,18919,1,0
296,216,19095,1,0
368,152,19272,1,8
456,200,19448,1,0
376,256,19625,1,0
344,288,19801,1,0
376,200,19978,1,8
184,152,20331,5,0
376,144,20684,1,8
408,232,20860,1,0
312,264,21037,1,0
216,288,21213,1,0
288,216,21389,1,8
240,24,21742,1,0
296,104,21919,1,8
352,184,22095,1,8
328,280,22272,1,8
376,200,22448,1,0
408,288,22625,1,0
312,264,22801,1,0
248,80,23154,1,0
320,144,23331,1,0
416,168,23507,1,8
432,264,23684,1,0
352,208,23860,1,8
312,184,23948,1,8
312,184,24037,1,8
408,192,24213,1,0
232,104,24566,1,0
328,112,24742,1,0
416,168,24919,1,8
432,264,25095,1,0
336,272,25272,1,0
400,88,25625,1,4
416,168,25801,1,12
320,192,25978,5,4
232,144,26154,1,0
328,152,26331,1,8
424,168,26507,1,0
472,184,26595,1,8
440,88,26772,1,8
448,136,26860,1,0
376,200,27037,1,8
344,232,27213,1,0
296,232,27301,1,0
256,192,27389,1,0
192,120,27566,1,0
424,168,27742,1,8
328,136,27919,1,0
344,184,28007,1,8
368,280,28184,1,8
400,240,28272,1,0
376,144,28448,1,8
216,248,28801,1,0
264,328,28978,1,0
352,288,29154,1,8
280,224,29331,1,0
312,184,29419,1,8
376,144,29595,1,8
400,240,29684,1,0
400,192,29860,1,8
304,176,30037,1,0
256,168,30125,1,0
208,168,30213,1,0
304,152,30389,1,0
400,144,30566,1,8
368,48,30742,1,0
408,80,30831,1,8
432,176,31007,1,0
424,224,31095,1,0
400,192,31272,1,8
208,232,31625,5,0
304,256,31801,1,0
400,192,31978,1,8
384,288,32154,1,0
384,288,32242,1,8
448,360,32419,1,0
440,312,32507,1,0
392,224,32684,1,8
448,144,32860,1,0
424,184,32948,1,0
392,224,33037,1,0
296,208,33213,1,0
288,112,33389,1,8
320,208,33566,1,0
312,256,33654,1,0
328,352,33831,1,0
368,328,33919,1,0
392,232,34095,1,8
208,232,34448,1,0
304,256,34624,1,0
400,192,34801,1,8
384,288,34977,1,0
384,288,35065,1,8
448,360,35242,1,0
440,312,35330,1,0
392,224,35507,1,8
448,144,35683,1,0
424,184,35771,1,0
392,224,35860,1,0
296,208,36036,1,0
288,112,36212,1,8
320,208,36389,1,0
312,256,36477,1,0
328,352,36654,1,0
368,328,36742,1,8
392,232,36918,1,8
376,184,37007,1,8
424,168,37095,1,0
424,184,37184,1,0
448,224,37272,5,0
352,200,37448,1,0
344,104,37625,1,8
440,104,37801,1,0
448,152,37889,1,8
424,184,38066,1,8
400,224,38154,1,0
368,216,38331,1,8
456,176,38507,1,0
416,208,38595,1,0
368,264,38684,1,0
296,200,38860,1,0
368,136,39037,1,8
368,216,39213,1,0
368,264,39301,1,8
448,152,39478,1,8
472,192,39566,1,0
456,240,39654,1,0
456,176,39742,1,8
260,156,40095,1,0
248,253,40272,1,0
456,240,40448,1,8
394,163,40625,1,0
435,188,40713,1,8
407,281,40889,1,8
393,233,40978,1,0
331,157,41154,1,8
356,251,41331,1,0
332,293,41419,1,0
299,329,41507,1,0
261,238,41684,1,0
340,181,41860,1,8
438,174,42037,1,0
411,215,42125,1,0
427,236,42301,1,8
438,174,42389,1,0
438,174,42478,1,0
438,174,42566,1,8
208,232,42919,5,0
304,256,43095,1,0
400,192,43272,1,8
384,288,43448,1,0
384,288,43536,1,8
448,360,43713,1,0
440,312,43801,1,0
392,224,43978,1,8
448,144,44154,1,0
424,184,44242,1,0
392,224,44331,1,0
296,208,44507,1,0
288,112,44683,1,8
320,208,44860,1,0
312,256,44948,1,0
328,352,45125,1,0
368,328,45213,1,0
324,305,45301,1,0
392,232,45389,1,8
208,232,45742,1,0
304,256,45918,1,0
400,192,46095,1,8
384,288,46271,1,0
384,288,46359,1,8
324,305,46448,1,0
448,360,46536,1,0
440,312,46624,1,0
392,224,46801,1,8
298,194,46978,1,0
298,194,47066,1,0
252,212,47154,1,0
340,169,47331,1,0
437,161,47507,1,8
409,66,47684,1,0
437,161,47772,1,8
402,196,47860,1,0
371,234,47948,1,0
324,305,48037,1,0
324,305,48125,1,0
357,269,48213,1,8
277,212,48389,1,8
301,169,48478,1,8
298,120,48566,5,0
301,169,48742,1,0
437,161,48919,1,8
437,161,49095,1,8
410,202,49184,1,8
431,246,49272,1,0
307,258,49448,1,0
365,178,49625,1,8
238,27,49978,1,0
307,96,50154,1,8
386,154,50331,1,8
397,251,50507,1,0
325,318,50684,1,0
369,297,50772,1,0
369,297,50860,1,0
406,206,51037,1,8
216,156,51389,1,0
313,166,51566,1,0
410,155,51742,1,8
377,247,51919,1,0
437,170,52095,1,8
474,202,52184,1,8
430,223,52272,1,0
369,145,52448,1,8
227,280,52801,1,0
371,147,53154,1,8
430,223,53331,1,0
374,303,53419,1,0
331,326,53595,1,0
331,326,53684,1,0
302,232,53860,1,8
298,35,54213,5,0
264,128,54389,1,0
352,168,54566,1,8
424,240,54742,1,8
448,192,54831,1,8
424,240,54919,1,0
424,192,55095,1,0
480,112,55272,1,8
368,272,55625,1,0
392,176,55801,1,8
424,272,55978,1,8
352,208,56154,1,0
264,256,56331,1,0
264,256,56419,1,0
264,256,56507,1,0
336,192,56684,1,8
504,96,57037,1,0
432,168,57213,1,0
368,240,57389,1,8
328,328,57566,1,8
384,248,57742,1,8
384,248,57831,1,8
360,208,57919,1,0
304,128,58095,1,8
112,176,58448,1,0
432,168,58801,1,8
376,248,58978,1,0
384,248,59066,1,0
296,296,59242,1,0
256,328,59331,1,0
304,312,59419,1,0
328,272,59507,1,8
256,208,59684,1,0
224,176,59772,1,0
248,136,59860,5,0
301,169,60037,1,0
437,161,60214,1,8
437,161,60390,1,8
410,202,60479,1,8
431,246,60567,1,0
307,258,60743,1,0
365,178,60920,1,8
238,27,61273,1,0
307,96,61449,1,8
386,154,61626,1,8
397,251,61802,1,0
325,318,61979,1,0
369,297,62067,1,0
369,297,62155,1,0
406,206,62332,1,8
216,156,62684,1,0
313,166,62861,1,0
410,155,63037,1,8
377,247,63214,1,0
437,170,63390,1,8
474,202,63479,1,8
430,223,63567,1,0
369,145,63743,1,8
227,280,64096,1,0
371,147,64449,1,8
430,223,64626,1,0
374,303,64713,1,0
331,326,64890,1,0
331,326,64979,1,0
302,232,65155,1,8
298,35,65508,5,0
264,128,65684,1,0
352,168,65861,1,8
424,240,66037,1,8
448,192,66126,1,8
424,240,66214,1,0
424,192,66390,1,0
480,112,66567,1,8
368,272,66920,1,0
392,176,67096,1,8
424,272,67273,1,8
352,208,67449,1,0
264,256,67626,1,0
264,256,67714,1,0
264,256,67802,1,0
336,192,67979,1,8
504,96,68332,1,0
432,168,68508,1,0
368,240,68684,1,8
328,328,68861,1,8
384,248,69037,1,8
384,248,69126,1,8
360,208,69214,1,0
304,128,69390,1,8
272,160,69478,1,0
232,184,69566,1,0
192,208,69654,1,0
160,240,69742,1,0
256,272,69919,1,0
368,240,70095,1,8
424,160,70272,1,0
424,160,70360,1,0
432,208,70448,1,8
432,208,70537,1,8
360,208,70625,1,0
280,272,70801,1,0
280,272,70889,1,0
272,320,70978,1,0
304,280,71066,1,0
344,304,71154,5,0
287,223,71331,1,0
350,149,71507,1,8
270,91,71684,1,0
282,138,71772,1,0
360,208,71948,1,0
407,221,72037,1,0
374,128,72213,1,8
430,207,72389,1,0
341,248,72566,1,0
388,162,72742,1,8
486,157,72919,1,8
442,244,73095,1,0
349,276,73272,1,0
300,284,73360,1,0
251,284,73448,1,0
201,280,73537,1,0
229,239,73625,1,8
342,78,73978,1,0
320,173,74154,1,0
390,241,74331,1,8
429,151,74507,1,0
429,151,74595,1,8
405,246,74772,1,0
405,294,74860,1,0
390,196,75037,1,8
390,241,75213,1,0
329,317,75389,1,0
254,252,75566,1,0
320,173,75742,1,8
417,163,75919,1,0
426,210,76007,1,0
405,294,76184,1,0
405,294,76272,1,0
366,324,76360,1,0
366,275,76448,1,8
344,304,76801,5,0
287,223,76978,1,0
350,149,77154,1,8
270,91,77331,1,0
282,138,77419,1,0
360,208,77595,1,0
407,221,77684,1,0
374,128,77860,1,8
430,207,78036,1,0
341,248,78213,1,0
388,162,78389,1,8
486,157,78566,1,8
442,244,78742,1,0
349,276,78919,1,0
300,284,79007,1,0
251,284,79095,1,0
201,280,79184,1,0
229,239,79272,1,8
342,78,79625,1,0
320,173,79801,1,0
390,241,79978,1,8
429,151,80154,1,0
429,151,80242,1,8
405,246,80419,1,0
405,294,80507,1,0
390,196,80684,1,8
390,241,80860,1,0
329,317,81036,1,0
254,252,81213,1,0
320,173,81389,1,8
417,163,81566,1,0
426,210,81654,1,0
405,294,81831,1,0
405,294,81919,1,0
366,324,82007,1,0
366,275,82095,1,8
284,220,82272,1,0
240,197,82360,1,0
344,304,82448,5,0
287,223,82625,1,0
350,149,82801,1,8
270,91,82978,1,0
282,138,83066,1,0
360,208,83242,1,0
407,221,83331,1,0
374,128,83507,1,8
430,207,83683,1,0
380,202,83772,1,0
341,248,83860,1,0
388,162,84036,1,8
486,157,84213,1,8
442,244,84389,1,0
349,276,84566,1,0
300,284,84654,1,0
251,284,84742,1,0
201,280,84831,1,0
229,239,84919,1,8
342,78,85272,1,0
320,173,85448,1,0
390,241,85625,1,8
429,151,85801,1,0
429,151,85889,1,8
405,246,86066,1,0
405,294,86154,1,0
390,196,86331,1,8
390,241,86507,1,0
329,317,86595,1,0
329,317,86683,1,0
254,252,86860,1,0
320,173,87036,1,8
417,163,87213,1,0
426,210,87301,1,0
405,294,87478,1,0
405,294,87566,1,0
366,324,87654,1,0
366,275,87742,1,8
344,304,88095,5,0
287,223,88272,1,0
350,149,88448,1,8
270,91,88625,1,0
282,138,88713,1,0
360,208,88889,1,0
407,221,88978,1,0
374,128,89154,1,8
430,207,89330,1,0
300,284,89419,1,0
341,248,89507,1,0
388,162,89683,1,8
486,157,89860,1,8
430,207,89948,1,8
442,244,90036,1,0
349,276,90213,1,0
300,284,90301,1,0
251,284,90389,1,0
201,280,90478,1,0
229,239,90566,1,8
311,291,90742,1,0
336,333,90831,1,0
342,78,90919,1,0
320,173,91095,1,0
390,241,91272,1,8
429,151,91448,1,0
429,151,91536,1,8
405,246,91713,1,0
405,294,91801,1,0
375,332,91889,1,0
390,196,91978,1,8
390,241,92154,1,0
298,204,92331,1,4
429,151,93037,1,12
456,244,93213,1,4
406,159,93389,1,12
457,242,93566,1,8
410,257,93654,1,8
379,293,93742,5,0
308,224,93919,1,0
221,177,94095,1,8
351,150,94272,1,8
386,116,94360,1,8
392,164,94448,1,0
406,211,94537,1,0
446,183,94625,1,8
386,116,94801,1,0
419,208,94978,1,8
352,136,95154,1,8
392,164,95331,1,0
424,200,95419,1,0
446,183,95507,1,8
397,268,95684,1,8
397,268,95772,1,8
371,226,95860,1,0
371,226,95948,1,0
353,179,96037,1,8
353,179,96213,1,0
392,164,96389,1,8
294,172,96566,1,0
198,151,96742,1,0
294,130,96919,1,8
392,152,97095,1,8
440,168,97184,1,8
408,208,97272,1,0
392,164,97448,1,8
424,256,97625,1,0
416,304,97713,1,0
392,264,97801,1,8
368,168,97978,1,0
368,168,98066,1,0
376,216,98154,1,0
440,168,98331,1,8
424,264,98507,1,0
424,256,98595,1,0
424,256,98684,1,0
328,256,98860,1,0
296,160,99037,1,8
352,240,99213,1,0
379,293,99389,1,0
308,224,99566,1,0
221,177,99742,1,8
351,150,99919,1,8
386,116,100007,1,8
392,164,100095,1,0
406,211,100184,1,0
446,183,100272,1,8
386,116,100448,1,0
419,208,100625,1,8
368,200,100713,1,8
352,136,100801,1,8
392,164,100978,1,0
424,200,101066,1,0
446,183,101154,1,8
397,268,101331,1,8
397,268,101419,1,8
371,226,101507,1,0
371,226,101595,1,0
353,179,101684,1,8
353,179,101860,1,0
392,164,102036,1,8
294,172,102213,1,0
198,151,102389,1,0
294,130,102566,1,8
392,152,102742,1,8
440,168,102831,1,8
408,208,102919,1,0
392,164,103095,1,8
424,256,103272,1,0
416,304,103360,1,0
392,264,103448,1,8
344,264,103537,1,8
368,168,103625,1,0
376,216,103801,1,0
328,208,103889,1,0
440,168,103978,1,8
424,264,104154,1,0
424,256,104242,1,0
424,256,104331,1,0
328,256,104507,1,0
296,160,104684,1,8
200,192,104860,1,0
160,224,104948,1,0
368,144,105037,5,0
296,160,105213,1,0
376,112,105389,1,8
304,176,105566,1,0
272,208,105654,1,0
216,288,105831,1,0
216,288,105919,1,0
352,240,106007,1,0
304,240,106095,1,8
400,272,106272,1,0
312,320,106448,1,0
280,224,106625,1,0
368,176,106801,1,8
448,120,106978,1,0
456,168,107066,1,8
448,264,107242,1,8
408,232,107331,1,0
352,240,107419,1,0
352,192,107507,1,8
256,176,107684,1,0
208,168,107772,1,0
224,216,107860,1,0
304,152,108037,1,0
400,128,108213,1,8
400,224,108389,1,8
376,272,108478,1,8
408,232,108566,1,0
384,136,108742,1,8
408,232,108919,1,0
448,264,109007,1,0
424,216,109095,1,8
256,176,109272,1,0
328,240,109448,1,0
344,288,109537,1,0
360,240,109625,1,8
384,144,109801,1,0
416,184,109889,1,0
416,184,109978,1,0
416,184,110066,1,0
416,184,110154,1,0
504,144,110331,1,8
416,184,110507,1,0
344,120,110684,5,0
288,200,110860,1,0
384,208,111037,1,8
424,296,111213,1,8
416,248,111301,1,0
368,264,111389,1,0
320,264,111478,1,0
344,224,111566,1,8
408,144,111742,1,0
504,160,111919,1,8
408,144,112095,1,0
312,152,112272,1,0
344,56,112448,1,8
424,112,112625,1,0
464,144,112713,1,8
464,192,112801,1,0
440,232,112889,1,0
416,272,112978,1,0
352,200,113154,1,8
192,312,113507,2,0,L|112:128|344:120,1,420
272,312,114919,1,4
344,248,115625,1,4
264,72,115978,1,0
288,112,116066,1,0
304,160,116154,1,0
256,160,116242,1,0
320,192,116331,5,0
232,144,116507,1,0
328,152,116684,1,8
424,168,116860,1,0
472,184,116948,1,8
440,88,117125,1,8
448,136,117213,1,0
376,200,117390,1,8
344,232,117566,1,0
296,232,117654,1,0
256,192,117742,1,0
192,120,117919,1,0
424,168,118095,1,8
328,136,118272,1,0
344,184,118360,1,8
368,280,118537,1,8
400,240,118625,1,0
352,224,118713,1,0
376,144,118801,1,8
216,248,119154,1,0
264,328,119331,1,0
352,288,119507,1,8
280,224,119684,1,0
312,184,119772,1,8
376,144,119948,1,8
400,240,120037,1,0
400,192,120213,1,8
304,176,120390,1,0
256,168,120478,1,0
208,168,120566,1,0
304,152,120742,1,0
400,144,120919,1,8
368,48,121095,1,0
408,80,121184,1,8
432,176,121360,1,0
424,224,121448,1,0
392,264,121537,1,0
400,192,121625,1,8
208,232,121978,5,0
304,256,122154,1,0
400,192,122331,1,8
384,288,122507,1,0
384,288,122595,1,8
448,360,122772,1,0
440,312,122860,1,0
392,224,123037,1,8
448,144,123213,1,0
424,184,123301,1,0
392,224,123390,1,0
296,208,123566,1,0
288,112,123742,1,8
320,208,123919,1,0
312,256,124007,1,0
328,352,124184,1,0
368,328,124272,1,0
320,336,124360,1,0
392,232,124448,1,8
208,232,124801,1,0
304,256,124977,1,0
400,192,125154,1,8
384,288,125330,1,0
384,288,125418,1,8
448,360,125595,1,0
440,312,125683,1,0
392,224,125860,1,8
448,144,126036,1,0
424,184,126124,1,0
392,224,126213,1,0
296,208,126389,1,0
288,112,126565,1,8
320,208,126742,1,0
312,256,126830,1,0
328,352,127007,1,0
368,328,127095,1,8
392,232,127271,1,8
376,184,127360,1,8
424,168,127448,1,0
424,184,127537,1,0
448,224,127625,5,0
352,200,127801,1,0
296,208,127889,1,0
344,104,127978,1,8
440,104,128154,1,0
448,152,128242,1,8
424,184,128419,1,8
400,224,128507,1,0
368,216,128684,1,8
456,176,128860,1,0
416,208,128948,1,0
368,264,129037,1,0
296,200,129213,1,0
368,136,129390,1,8
368,216,129566,1,0
368,264,129654,1,8
448,152,129831,1,8
472,192,129919,1,0
456,240,130007,1,0
456,176,130095,1,8
260,156,130448,1,0
248,253,130625,1,0
332,293,130713,1,0
456,240,130801,1,8
394,163,130978,1,0
435,188,131066,1,8
407,281,131242,1,8
393,233,131331,1,0
331,157,131507,1,8
356,251,131684,1,0
332,293,131772,1,0
299,329,131860,1,0
261,238,132037,1,0
340,181,132213,1,8
438,174,132390,1,0
411,215,132478,1,0
427,236,132654,1,8
438,174,132742,1,0
438,174,132831,1,0
438,174,132919,1,8
208,232,133272,5,0
304,256,133448,1,0
256,232,133537,1,0
400,192,133625,1,8
384,288,133801,1,0
384,288,133889,1,8
448,360,134066,1,0
440,312,134154,1,0
392,224,134331,1,8
448,144,134507,1,0
424,184,134595,1,0
392,224,134684,1,0
296,208,134860,1,0
288,112,135036,1,8
320,208,135213,1,0
312,256,135301,1,0
328,352,135478,1,0
368,328,135566,1,0
324,305,135654,1,0
392,232,135742,1,8
208,232,136095,1,0
304,256,136271,1,0
312,208,136360,1,0
352,184,136448,1,8
384,288,136624,1,0
384,288,136712,1,8
324,305,136801,1,0
448,360,136889,1,0
440,312,136977,1,0
392,224,137154,1,8
298,194,137331,1,0
298,194,137419,1,0
252,212,137507,1,0
340,169,137684,1,0
437,161,137860,1,8
409,66,138037,1,0
437,161,138125,1,8
402,196,138213,1,0
371,234,138301,1,0
324,305,138390,1,0
324,305,138478,1,0
357,269,138566,1,8
277,212,138742,1,8
301,169,138831,1,8
298,120,138919,5,0
301,169,139095,1,0
437,161,139272,1,8
437,161,139448,1,8
410,202,139537,1,8
431,246,139625,1,0
307,258,139801,1,0
365,178,139978,1,8
238,27,140331,1,0
307,96,140507,1,8
386,154,140684,1,8
397,251,140860,1,0
325,318,141037,1,0
369,297,141125,1,0
369,297,141213,1,0
406,206,141390,1,8
216,156,141742,1,0
313,166,141919,1,0
410,155,142095,1,8
377,247,142272,1,0
437,170,142448,1,8
474,202,142537,1,8
430,223,142625,1,0
369,145,142801,1,8
227,280,143154,1,0
371,147,143507,1,8
430,223,143684,1,0
374,303,143772,1,0
331,326,143948,1,0
331,326,144037,1,0
316,279,144125,1,0
302,232,144213,1,8
298,35,144566,5,0
264,128,144742,1,0
352,168,144919,1,8
424,240,145095,1,8
448,192,145184,1,8
424,240,145272,1,0
424,192,145448,1,0
480,112,145625,1,8
368,272,145978,1,0
392,176,146154,1,8
424,272,146331,1,8
352,208,146507,1,0
264,256,146684,1,0
264,256,146772,1,0
264,256,146860,1,0
336,192,147037,1,8
504,96,147390,1,0
432,168,147566,1,0
368,240,147742,1,8
328,328,147919,1,8
384,248,148095,1,8
384,248,148184,1,8
360,208,148272,1,0
384,248,148360,1,0
304,128,148448,1,8
112,176,148801,1,0
432,168,149154,1,8
376,248,149331,1,0
384,248,149419,1,0
296,296,149595,1,0
256,328,149684,1,0
304,312,149772,1,0
328,272,149860,1,8
256,208,150037,1,0
224,176,150125,1,0
248,136,150213,5,0
301,169,150390,1,0
437,161,150567,1,8
437,161,150743,1,8
410,202,150832,1,8
431,246,150920,1,0
307,258,151096,1,0
365,178,151273,1,8
268,169,151448,1,0
238,27,151626,1,0
307,96,151802,1,8
386,154,151979,1,8
397,251,152155,1,0
325,318,152332,1,0
369,297,152420,1,0
369,297,152508,1,0
406,206,152685,1,8
216,156,153037,1,0
313,166,153214,1,0
410,155,153390,1,8
377,247,153567,1,0
437,170,153743,1,8
474,202,153832,1,8
430,223,153920,1,0
369,145,154096,1,8
359,242,154272,1,0
227,280,154449,1,0
371,147,154802,1,8
430,223,154979,1,0
374,303,155066,1,0
331,326,155243,1,0
331,326,155332,1,0
303,286,155419,1,0
302,232,155508,1,8
298,35,155860,5,0
264,128,156036,1,0
352,168,156213,1,8
424,240,156389,1,8
448,192,156478,1,8
424,240,156566,1,0
424,192,156742,1,0
480,112,156919,1,8
417,187,157095,1,0
368,272,157272,1,0
392,176,157448,1,8
424,272,157625,1,8
352,208,157801,1,0
264,256,157978,1,0
264,256,158066,1,0
264,256,158154,1,0
336,192,158331,1,8
504,96,158684,1,0
432,168,158860,1,0
368,240,159036,1,8
328,328,159213,1,8
192,208,159301,1,0
384,248,159389,1,8
384,248,159478,1,8
360,208,159566,1,0
304,128,159742,1,8
272,160,159830,1,0
232,184,159918,1,0
192,208,160006,1,0
160,240,160094,1,0
256,272,160271,1,0
368,240,160447,1,8
424,160,160624,1,0
424,160,160712,1,0
432,208,160800,1,8
432,208,160889,1,8
360,208,160977,1,0
280,272,161153,1,0
280,272,161241,1,0
272,320,161330,1,0
304,280,161418,1,0
276,238,161507,5,0
427,113,161860,1,8
387,202,162037,1,0
376,249,162125,1,0
388,345,162301,1,8
406,299,162389,1,0
429,203,162566,1,8
261,101,162919,1,0
339,159,163095,1,0
436,170,163272,1,8
481,170,163448,1,0
481,170,163537,1,8
406,299,163713,1,0
406,299,163801,1,0
407,200,163978,1,8
211,190,164331,1,0
339,259,164507,1,0
356,162,164684,1,8
421,234,164860,1,8
444,191,164948,1,0
440,136,165125,1,8
444,191,165213,1,0
444,191,165389,1,8
344,24,165742,1,0
432,200,166095,1,8
488,120,166272,1,0
488,168,166360,1,8
408,240,166537,1,0
368,208,166625,1,8
304,136,166801,1,0
384,192,166978,1,8
276,238,167154,5,0
427,113,167507,1,8
387,202,167684,1,0
376,249,167772,1,0
328,232,167860,1,0
388,345,167948,1,8
406,299,168036,1,0
429,203,168213,1,8
261,101,168566,1,0
339,159,168742,1,0
436,170,168919,1,8
481,170,169095,1,0
481,170,169184,1,8
460,214,169272,1,0
406,299,169360,1,0
406,299,169448,1,0
407,200,169625,1,8
211,190,169978,1,0
339,259,170154,1,0
356,162,170331,1,8
421,234,170507,1,8
444,191,170595,1,0
400,160,170684,1,0
440,136,170772,1,8
444,191,170860,1,0
444,191,171036,1,8
344,24,171389,1,0
432,200,171742,1,8
488,120,171919,1,0
488,168,172007,1,8
432,200,172095,1,0
408,240,172184,1,0
368,208,172272,1,8
304,136,172448,1,0
384,192,172625,1,8
276,238,172801,5,4
427,113,173154,1,8
387,202,173331,1,0
376,249,173419,1,0
388,345,173595,1,8
406,299,173683,1,0
429,203,173860,1,8
328,208,174037,1,0
261,101,174213,1,0
339,159,174389,1,0
436,170,174566,1,8
481,170,174742,1,0
481,170,174831,1,8
406,299,175007,1,0
406,299,175095,1,0
407,200,175272,1,8
211,190,175625,1,0
339,259,175801,1,0
356,162,175978,1,8
421,234,176154,1,8
444,191,176242,1,0
440,136,176419,1,8
444,191,176507,1,0
444,191,176683,1,8
376,264,176860,1,0
344,24,177036,1,0
432,200,177389,1,8
488,120,177566,1,0
488,168,177654,1,8
408,240,177831,1,0
368,208,177919,1,8
304,136,178095,1,0
384,192,178272,1,8
276,238,178448,5,4
199,176,178625,1,0
427,113,178801,1,8
387,202,178978,1,0
376,249,179066,1,0
328,232,179154,1,0
388,345,179242,1,8
406,299,179330,1,0
429,203,179507,1,8
351,263,179684,1,0
261,101,179860,1,4
339,159,180036,1,0
436,170,180213,1,8
481,170,180389,1,0
481,170,180478,1,8
460,214,180566,1,0
406,299,180654,1,0
406,299,180742,1,0
407,200,180919,1,8
311,220,181095,1,0
323,122,181272,1,4
419,138,181448,1,0
436,170,181625,1,8
240,188,181978,1,4
334,164,182154,1,0
261,229,182331,1,8
420,115,182684,1,4
401,224,183389,1,8
405,223,183478,1,8
428,265,183566,1,0
428,265,183654,1,0
401,224,183742,1,8
401,224,183831,1,8
428,265,183919,1,0
337,184,184095,5,0
331,85,184272,1,0
419,126,184448,1,8
405,223,184625,1,0
362,310,184801,1,0
273,256,184978,1,0
345,190,185154,1,8
380,382,185507,1,0
382,283,185684,1,8
375,185,185860,1,8
473,181,186037,1,0
401,248,186213,1,0
382,283,186389,1,0
406,187,186566,1,8
211,159,186919,1,0
307,175,187095,1,0
394,130,187272,1,8
442,127,187360,1,8
406,187,187448,1,0
345,264,187625,1,0
348,312,187713,1,0
299,316,187801,1,0
365,244,187978,1,8
454,283,188154,1,0
406,272,188242,1,0
357,261,188331,1,0
283,196,188507,1,0
368,148,188684,1,8
453,195,188860,1,0
406,187,188948,1,0
360,206,189037,1,0
450,169,189213,1,0
375,105,189389,1,8
337,184,189742,5,0
331,85,189919,1,0
419,126,190095,1,8
405,223,190272,1,0
362,310,190448,1,0
273,256,190625,1,0
345,190,190801,1,8
380,382,191154,1,0
382,283,191331,1,8
375,185,191507,1,8
473,181,191684,1,0
401,248,191860,1,0
382,283,192036,1,0
406,187,192213,1,8
309,172,192389,1,0
259,166,192478,1,0
210,161,192566,1,0
382,283,192742,1,0
423,194,192919,1,8
425,145,193007,1,8
421,193,193095,1,8
323,208,193272,1,0
355,244,193360,1,0
366,196,193448,1,8
435,265,193625,1,0
430,167,193801,1,8
331,171,193978,1,0
333,219,194066,1,0
318,265,194154,1,0
384,192,194331,1,8
384,192,194507,1,0
405,235,194595,1,0
405,235,194684,1,0
369,326,194860,1,0
379,228,195037,1,8
235,95,195389,5,4
329,122,195566,1,0
422,149,195742,1,8
442,245,195919,1,0
262,324,196272,1,0
326,250,196448,1,8
371,162,196625,1,0
367,210,196713,1,0
367,258,196801,1,0
426,179,196978,1,8
460,177,197154,1,8
442,245,197331,1,0
356,292,197507,1,0
313,265,197595,1,0
272,240,197684,1,0
313,265,197860,1,0
410,95,198213,1,0
350,172,198389,1,0
447,185,198566,1,8
447,185,198654,1,8
447,136,198742,1,0
400,222,198919,1,8
390,319,199095,1,0
417,278,199184,1,0
416,229,199272,1,8
322,258,199448,1,0
280,285,199537,1,0
230,294,199625,1,0
279,209,199801,1,0
327,123,199978,1,8
134,159,200331,1,0
182,159,200419,1,8
230,161,200507,1,0
328,162,200684,1,8
322,258,201037,5,0
413,291,201213,1,0
443,197,201389,1,8
401,107,201566,1,0
318,284,201919,1,0
378,207,202095,1,8
282,182,202272,1,0
313,219,202360,1,0
185,164,202448,1,0
283,165,202625,1,8
380,170,202801,1,8
448,240,202978,1,8
350,237,203154,1,0
346,285,203242,1,0
310,318,203331,1,0
346,285,203419,1,0
374,244,203507,1,8
308,59,203860,1,4
376,129,204037,1,0
435,206,204213,1,8
239,212,204566,1,4
421,282,204919,1,8
322,112,205272,1,4
444,179,205978,1,12
351,211,206154,1,4
418,139,206331,1,12
418,139,206507,1,8
386,176,206595,1,8
379,293,206684,5,0
308,224,206861,1,0
221,177,207037,1,8
351,150,207214,1,8
386,116,207302,1,8
392,164,207390,1,0
406,211,207479,1,0
446,183,207567,1,8
386,116,207743,1,0
419,208,207920,1,8
352,136,208096,1,8
392,164,208273,1,0
424,200,208361,1,0
446,183,208449,1,8
397,268,208626,1,8
397,268,208714,1,8
371,226,208802,1,0
371,226,208890,1,0
353,179,208979,1,8
353,179,209155,1,0
392,164,209331,1,8
424,200,209419,1,8
294,172,209508,1,0
198,151,209684,1,0
294,130,209861,1,8
392,152,210037,1,8
440,168,210126,1,8
408,208,210214,1,0
348,185,210389,1,8
424,256,210567,1,0
416,304,210655,1,0
392,264,210743,1,8
368,168,210920,1,0
368,168,211008,1,0
376,216,211096,1,0
440,168,211273,1,8
424,264,211449,1,0
424,256,211537,1,0
424,256,211626,1,0
375,260,211713,1,0
328,256,211802,1,0
296,160,211979,1,8
352,240,212155,1,0
379,293,212331,1,0
308,224,212508,1,0
221,177,212684,1,8
351,150,212861,1,8
386,116,212949,1,8
392,164,213037,1,0
406,211,213126,1,0
446,183,213214,1,8
386,116,213390,1,0
419,208,213567,1,8
368,200,213655,1,8
352,136,213743,1,8
392,164,213920,1,0
424,200,214008,1,0
446,183,214096,1,8
397,268,214273,1,8
397,268,214361,1,8
371,226,214449,1,0
371,226,214537,1,0
353,179,214626,1,8
353,179,214802,1,0
392,164,214978,1,8
294,172,215155,1,8
198,151,215331,1,0
222,193,215419,1,0
294,130,215508,1,8
392,152,215684,1,8
440,168,215773,1,8
408,208,215861,1,0
392,164,216037,1,8
424,256,216214,1,0
416,304,216302,1,0
392,264,216390,1,8
344,264,216479,1,8
368,168,216567,1,0
376,216,216743,1,0
328,208,216831,1,0
440,168,216920,1,8
424,264,217096,1,0
424,256,217184,1,0
424,256,217273,1,0
376,246,217360,1,0
328,256,217449,1,0
296,160,217626,1,8
200,192,217802,1,0
160,224,217890,1,0
368,144,217979,5,0
296,160,218155,1,0
376,112,218331,1,8
304,176,218508,1,0
272,208,218596,1,0
216,288,218773,1,0
216,288,218861,1,0
352,240,218949,1,0
304,240,219037,1,8
400,272,219214,1,0
352,256,219301,1,0
312,320,219390,1,0
280,224,219567,1,0
368,176,219743,1,8
448,120,219920,1,0
456,168,220008,1,8
448,264,220184,1,8
408,232,220273,1,0
352,240,220361,1,0
352,192,220449,1,8
256,176,220626,1,8
208,168,220714,1,8
224,216,220802,1,0
304,152,220979,1,0
400,128,221155,1,8
400,224,221331,1,8
376,272,221420,1,8
408,232,221508,1,0
384,272,221595,1,0
384,136,221684,1,8
408,232,221861,1,0
424,216,222037,1,8
256,176,222214,1,0
288,216,222301,1,0
328,240,222390,1,0
344,288,222479,1,0
360,240,222567,1,8
384,144,222743,1,0
416,184,222831,1,0
416,184,222920,1,0
416,184,223008,1,0
416,184,223096,1,0
504,144,223273,1,8
416,184,223449,1,0
344,120,223626,5,0
288,200,223802,1,0
384,208,223979,1,8
424,296,224155,1,8
416,248,224243,1,0
368,264,224331,1,0
320,264,224420,1,0
344,224,224508,1,8
408,144,224684,1,0
392,192,224772,1,0
504,160,224861,1,8
408,144,225037,1,0
312,152,225214,1,0
288,192,225301,1,0
344,56,225390,1,8
424,112,225567,1,0
464,144,225655,1,8
464,192,225743,1,0
440,232,225831,1,0
416,272,225920,1,0
352,200,226096,1,8
192,312,226449,2,0,L|112:128|344:120,1,420
272,312,227861,1,4
344,248,228567,1,4
264,72,228920,1,0
288,112,229008,1,0
304,160,229096,1,0
256,160,229184,1,0
320,192,229272,5,0
232,144,229448,1,0
216,192,229537,1,0
328,152,229625,1,8
424,168,229801,1,0
472,184,229889,1,8
440,88,230066,1,8
448,136,230154,1,0
376,200,230331,1,8
344,232,230507,1,0
296,232,230595,1,0
256,192,230683,1,0
192,120,230860,1,0
424,168,231036,1,8
328,136,231213,1,0
344,184,231301,1,8
368,280,231478,1,8
400,240,231566,1,0
352,224,231654,1,0
376,144,231742,1,8
216,248,232095,1,0
264,328,232272,1,0
312,328,232360,1,0
352,288,232448,1,8
280,224,232625,1,0
312,184,232713,1,8
376,144,232889,1,8
400,240,232978,1,0
400,192,233154,1,8
304,176,233331,1,0
256,168,233419,1,0
208,168,233507,1,0
304,152,233683,1,0
400,144,233860,1,8
368,48,234036,1,0
408,80,234125,1,8
432,176,234301,1,0
424,224,234389,1,0
392,264,234478,1,0
400,192,234566,1,8
208,232,234919,5,0
304,256,235095,1,0
328,296,235184,1,0
400,192,235272,1,8
384,288,235448,1,0
384,288,235536,1,8
448,360,235713,1,0
440,312,235801,1,0
392,224,235978,1,8
448,144,236154,1,0
424,184,236242,1,0
392,224,236331,1,0
296,208,236507,1,0
288,112,236683,1,8
320,208,236860,1,0
312,256,236948,1,0
328,352,237125,1,0
368,328,237213,1,0
320,336,237301,1,0
392,232,237389,1,8
208,232,237742,1,0
304,256,237918,1,0
368,328,238007,1,0
400,192,238095,1,8
384,288,238271,1,0
384,288,238359,1,8
448,360,238536,1,0
440,312,238624,1,0
392,224,238801,1,8
448,144,238977,1,0
424,184,239065,1,0
392,224,239154,1,0
296,208,239330,1,0
288,112,239506,1,8
320,208,239683,1,0
312,256,239771,1,0
328,352,239948,1,0
368,328,240036,1,8
392,232,240212,1,8
376,184,240301,1,8
424,168,240389,1,0
424,184,240478,1,0
320,192,240566,5,0
232,144,240742,1,0
256,184,240831,1,0
328,152,240919,1,8
424,168,241095,1,0
472,184,241183,1,8
440,88,241360,1,8
448,136,241448,1,0
376,200,241625,1,8
344,232,241801,1,0
296,232,241889,1,0
256,192,241977,1,0
192,120,242154,1,0
424,168,242330,1,8
328,136,242507,1,0
344,184,242595,1,8
368,280,242772,1,8
400,240,242860,1,0
352,224,242948,1,0
376,144,243036,1,8
400,240,243213,1,0
416,288,243301,1,0
216,248,243389,1,0
264,328,243566,1,0
352,288,243742,1,8
280,224,243919,1,0
312,184,244007,1,8
376,144,244183,1,8
400,240,244272,1,0
400,192,244448,1,8
304,176,244625,1,0
256,168,244713,1,0
208,168,244801,1,0
304,152,244977,1,0
400,144,245154,1,8
368,48,245330,1,0
408,80,245419,1,8
432,176,245595,1,0
424,224,245683,1,0
392,264,245772,1,0
400,192,245860,1,8
496,168,246037,1,8
448,184,246125,1,8
208,232,246213,5,0
304,256,246389,1,0
400,192,246566,1,8
384,288,246742,1,0
384,288,246830,1,8
448,360,247007,1,0
440,312,247095,1,0
392,224,247272,1,8
448,144,247448,1,0
424,184,247536,1,0
392,224,247625,1,0
296,208,247801,1,0
288,112,247977,1,8
320,208,248154,1,0
312,256,248242,1,0
328,352,248419,1,0
368,328,248507,1,0
320,336,248595,1,0
392,232,248683,1,8
320,336,248860,1,0
320,336,248948,1,0
208,232,249036,1,0
304,256,249212,1,0
400,192,249389,1,8
384,288,249565,1,0
384,288,249653,1,8
448,360,249830,1,0
440,312,249918,1,0
392,224,250095,1,8
360,128,250272,1,12
