osu file format v9

[General]
AudioFilename: LucidDream.mp3
AudioLeadIn: 0
PreviewTime: 183389
Countdown: 0
SampleSet: Soft
StackLeniency: 0.6
Mode: 0
LetterboxInBreaks: 1

[Editor]
Bookmarks: 25978,116331,127625,206684,229272,250272
DistanceSpacing: 1.2
BeatDivisor: 4
GridSize: 8

[Metadata]
Title:Lucid Dream
Artist:EastNewSound
Creator:Natteke
Version:Lunakuren
Source:Touhou
Tags:happy30 lepidopodus Chata

[Difficulty]
HPDrainRate:6
CircleSize:4
OverallDifficulty:7
ApproachRate:8
SliderMultiplier:1.6
SliderTickRate:2

[Events]
//Background and Video events
0,0,"bg.jpg"
//Break Periods
2,116531,126522
//Storyboard Layer 0 (Background)
//Storyboard Layer 1 (Fail)
//Storyboard Layer 2 (Pass)
//Storyboard Layer 3 (Foreground)
//Storyboard Sound Samples
//Background Colour Transformations
3,100,163,162,255

[TimingPoints]
3390,352.941176470588,4,2,1,100,1,0
14684,-142.857142857143,4,2,1,41,0,0
25978,-100,4,1,1,70,0,0
48566,-100,4,1,0,70,0,0
48742,-142.857142857143,4,2,1,50,0,0
59860,-200,4,2,1,50,0,0
65507,-142.857142857143,4,2,1,50,0,0
69654,-100,4,2,1,31,0,0
71154,-100,4,2,1,51,0,0
92154,-100,4,1,1,60,0,0
93742,-100,4,1,1,60,0,1
93743,-100,4,1,1,60,0,0
138919,-100,4,2,1,60,0,0
160095,-100,4,1,1,30,0,0
161506,-200,4,2,0,70,0,0
169889,-200,4,2,0,0,0,0
169977,-200,4,2,0,70,0,0
183389,-100,4,1,1,59,0,0
184095,-125,4,2,1,59,0,0
195213,-100,4,2,1,59,0,0
203860,-100,4,1,1,60,0,0
250184,-200,4,1,1,60,0,0
250272,-200,4,1,1,60,0,1
250360,-200,4,2,1,0,0,0

[Colours]
Combo1 : 17,254,176
Combo2 : 173,255,95
Combo3 : 255,88,100
Combo4 : 255,94,55

[HitObjects]
64,104,14684,2,0,B|152:104|152:160|232:160,2,167.999995994568,4|4|2
64,104,16448,2,0,B|40:160|64:224,1,111.999997329712,4|0
456,160,17154,1,0
456,160,17331,1,0
456,160,17507,2,0,B|368:160|368:104|288:104,2,167.999995994568,4|4|0
456,160,19272,2,0,B|488:96|448:32,1,111.999997329712,4|0
144,232,19978,1,0
144,232,20154,1,0
144,232,20331,6,0,B|232:232|232:288|312:288,2,167.999995994568,4|4|2
144,232,22095,2,0,B|112:176|160:112,1,111.999997329712,4|0
397,218,22801,1,0
397,218,22978,1,0
398,218,23154,2,0,B|352:293|304:264|263:333,2,167.999995994568,4|4|2
398,218,24919,2,0,B|438:162|398:90,1,111.999997329712,4|0
408,112,25625,1,0
408,112,25801,1,0
408,112,25978,5,4
456,184,26154,1,0
408,256,26331,1,8
360,184,26507,1,0
312,256,26684,1,0
360,328,26860,1,0
408,256,27037,1,8
360,184,27213,6,0,B|296:184|296:184|272:160|272:160|184:160,1,160
160,88,27742,1,8
112,160,27919,1,0
160,232,28095,1,0
216,160,28272,1,0
264,232,28448,1,8
216,304,28625,1,0
264,376,28801,5,0
320,304,28978,1,0
264,232,29154,1,8
320,160,29331,1,0
376,232,29507,1,0
320,304,29684,1,0
376,368,29860,1,8
432,304,30037,6,0,B|432:240|432:240|456:216|456:216|456:152,1,160
408,56,30566,2,0,B|408:136,1,80,8|0
504,232,30919,2,0,B|504:152,1,80
408,208,31272,2,0,B|408:288,1,80,8|0
336,344,31625,5,0
280,272,31801,1,0
280,184,31978,1,8
328,112,32154,1,0
352,176,32331,5,0
336,232,32507,1,0
360,280,32684,1,8
416,224,32860,6,0,B|456:144|416:56,1,160
264,48,33389,2,0,B|240:88|272:136,1,80,8|0
320,352,33742,2,0,B|344:312|312:264,1,80
240,240,34095,1,8
152,248,34272,1,0
96,312,34448,5,0
152,248,34625,1,0
104,176,34801,1,8
112,88,34978,1,0
192,56,35154,1,0
112,88,35331,1,0
48,24,35507,1,8
112,88,35684,6,0,B|72:168|128:256,1,160
200,216,36213,2,0,B|296:208,1,80,8|0
320,96,36566,2,0,B|232:104,1,80
368,168,36919,2,0,B|464:160,1,80,8|0
488,80,37272,6,0,B|408:88,1,80,4|0
368,168,37625,1,8
368,256,37801,1,0
424,328,37978,1,0
424,328,38331,1,8
424,328,38507,6,0,B|336:312|256:368,1,160
368,256,39037,2,0,B|392:216|392:176,1,80,8|0
296,48,39389,2,0,B|272:88|272:128,1,80
256,296,39742,2,0,B|280:256|280:216,1,80,8|0
200,176,40095,5,0
112,192,40272,1,0
64,264,40448,1,8
96,344,40625,1,0
176,376,40801,1,0
176,376,41154,1,8
152,272,41331,6,0,B|96:192|176:112,1,160
224,200,41860,2,0,B|256:168|256:120,1,80,8|0
320,240,42213,2,0,B|288:272|288:320,1,80
416,280,42566,2,0,B|448:248|448:200,1,80,8|0
408,120,42919,5,0
304,216,43095,1,0
320,75,43272,1,8
392,208,43448,1,0
256,143,43625,1,0
336,152,43801,1,0
336,152,43978,1,8
336,152,44154,6,0,B|352:232|408:216|424:288,1,160
336,312,44684,2,0,B|328:272|272:248,1,80,8|0
160,240,45037,2,0,B|168:280|224:304,1,80
176,152,45389,2,0,B|168:112|112:88,1,80,8|0
56,128,45742,5,0
160,32,45918,1,0
144,173,46095,1,8
72,40,46271,1,0
208,105,46448,1,0
128,96,46625,1,0
128,96,46801,1,0
208,105,46978,5,0
288,112,47154,1,0
368,120,47331,1,0
368,120,47419,1,0
368,120,47507,1,8
448,136,47684,5,8
440,152,47772,1,0
432,168,47860,1,0
424,184,47948,1,8
416,200,48037,1,0
408,216,48125,1,0
400,232,48213,2,8,L|384:264|392:288|376:320,1,80
296,344,48566,5,4
184,264,48919,1,8
184,264,49095,2,4,B|160:208|200:136,1,111.999997329712,0|4
256,88,49625,1,8
256,88,49978,5,4
352,104,50154,1,0
448,96,50331,1,8
448,96,50507,2,0,B|488:176|432:264,1,167.999995994568,4|8
436,256,51389,5,4
344,264,51566,1,4
248,256,51742,1,8
152,256,51919,1,2
200,72,52272,1,4
296,64,52448,1,8
296,64,52801,5,4
384,232,53154,1,8
296,192,53331,2,0,B|192:192|168:296,1,167.999995994568,4|8
171,283,54213,5,4
184,192,54389,1,4
176,96,54566,1,8
176,96,54742,2,0,B|192:16,1,55.999998664856,2|0
272,88,55095,2,0,B|280:160,1,55.999998664856,4|8
368,112,55448,1,2
368,112,55625,5,4
355,203,55801,1,0
363,299,55978,1,8
363,299,56154,2,0,B|347:379,1,55.999998664856,4|0
267,307,56507,2,0,B|259:235,1,55.999998664856,0|8
171,283,56860,1,2
144,184,57037,6,4,B|80:136,1,55.999998664856
184,120,57389,2,0,B|152:72,1,55.999998664856,8|2
256,104,57742,2,0,B|256:40,1,55.999998664856,0|4
328,128,58094,2,4,B|373:84,1,55.999998664856,8|2
248,184,58448,6,4,B|312:232,1,55.999998664856,4|0
208,248,58800,2,0,B|240:296,1,55.999998664856,8|4
136,264,59153,2,0,B|136:328,1,55.999998664856,0|0
64,240,59507,2,4,B|19:284,1,55.999998664856,8|2
48,176,59860,5,4
24,128,60037,1,4
48,80,60213,1,8
96,64,60389,1,2
144,80,60566,1,0
168,128,60742,1,4
144,176,60919,1,8
96,184,61095,2,2,B|96:104,1,80
96,64,61625,5,8
72,112,61802,1,4
96,160,61978,1,0
144,176,62154,1,0
192,160,62331,1,8
216,112,62507,1,2
296,112,62684,5,4
344,88,62861,1,4
392,112,63037,1,8
408,160,63213,1,2
392,208,63390,1,0
344,232,63566,1,4
296,208,63743,1,8
288,160,63919,2,2,B|368:160,1,80
408,160,64449,5,8
360,136,64626,1,4
312,160,64802,1,0
296,208,64978,1,0
312,256,65155,1,8
360,280,65331,1,2
368,208,65507,5,4
312,160,65684,2,0,B|296:128|320:96,1,55.999998664856,4|8
224,80,66037,1,2
224,80,66213,2,0,B|240:112|216:144,1,55.999998664856,0|4
136,112,66566,1,8
136,112,66742,6,0,B|160:152|144:176|192:224,1,111.999997329712,2|2
181,213,67272,1,8
330,213,67448,1,4
216,272,67625,1,0
296,272,67801,1,2
256,328,67978,1,8
256,328,68154,1,2
208,144,68331,6,4,B|136:128,1,55.999998664856
304,144,68684,2,0,B|376:160,1,55.999998664856,8|2
192,96,69037,2,0,B|120:112,1,55.999998664856,0|4
320,96,69390,2,0,B|376:80,1,55.999998664856,8|2
256,48,69742,5,4
296,168,69919,1,4
192,96,70095,1,8
296,168,70272,1,2
304,176,70360,1,4
312,184,70448,1,2
320,192,70537,1,4
328,200,70625,1,0
336,208,70713,1,0
344,216,70801,2,0,B|400:256|400:128|464:128,1,160,8|4
456,128,71331,5,4
456,128,71507,2,0,B|504:208|448:296,1,160,8|0
360,296,72037,2,0,B|296:264|272:312|192:264,1,160,4|0
168,176,72566,5,4
256,184,72742,1,0
344,184,72919,1,8
344,184,73095,2,0,B|400:112|360:24,1,160,4|0
272,16,73625,1,8
184,16,73801,1,2
96,24,73978,6,4,B|80:64|96:104,1,80
184,104,74331,1,8
95,103,74507,2,0,B|127:183|87:263,1,160,0|4
24,200,75037,2,0,B|112:152|184:240,1,160,8|4
264,216,75566,5,2
344,240,75742,1,8
424,208,75919,1,4
344,168,76095,1,0
264,136,76272,1,2
344,96,76448,1,12
424,128,76625,1,2
344,168,76801,6,0,B|344:240|400:240|400:328,1,160,4|8
312,336,77331,2,0,B|312:264|256:264|256:176,1,160,0|4
168,192,77860,2,0,B|160:240|192:272,1,80,8|2
368,240,78213,2,0,B|376:192|344:160,1,80,4|2
248,312,78566,2,0,B|296:320|328:288,1,80,8|4
296,112,78919,2,0,B|248:104|216:136,1,80,0|2
264,216,79272,1,8
96,312,79625,5,4
96,312,79801,1,4
96,312,79978,2,0,B|40:232|104:144,1,160,8|2
192,40,80507,2,0,B|248:120|184:208,1,160,4|2
112,216,81037,2,0,B|192:160|280:224,1,160,4|2
384,312,81566,2,0,B|304:368|216:304,1,160,4|2
233,315,82095,1,8
448,264,82448,6,4,B|384:312,1,80
320,256,82801,2,0,B|264:192,1,80,8|2
268,195,83154,2,0,B|216:256,1,80,0|4
144,311,83507,2,0,B|80:264,1,80,8|2
112,176,83860,6,0,B|64:112,1,80,4|2
208,112,84213,2,0,B|208:16,1,80,8|4
320,112,84566,2,0,B|320:16,1,80,0|2
416,176,84919,2,0,B|464:112,1,80,8|0
328,224,85272,5,4
256,144,85448,1,4
184,224,85625,1,8
176,144,85801,5,0
256,272,85977,1,0
336,144,86154,1,4
384,72,86331,2,0,B|424:96|424:152,1,80,8|2
128,312,86684,2,0,B|88:288|88:232,1,80,4|2
128,104,87037,2,0,B|168:120|184:160,1,80,8|4
384,280,87389,2,0,B|344:264|328:224,1,80,0|2
256,152,87742,2,0,B|256:56,1,80,8|2
256,232,88095,6,0,B|240:320|128:328,1,160,4|8
256,232,88625,2,0,B|272:144|384:136,1,160,0|4
352,232,89154,2,0,B|376:272|360:320,1,80,8|2
160,152,89507,2,0,B|136:112|152:64,1,80,4|0
256,96,89860,5,8
256,96,90037,1,4
256,184,90213,1,0
256,184,90390,1,2
256,272,90566,1,8
256,272,90742,1,2
144,344,90919,5,4
144,344,91095,1,4
144,344,91272,2,0,B|24:256|128:112,1,240,8|4
113,133,91978,1,8
256,272,92331,5,4
208,56,93037,5,8
256,200,93213,1,0
304,56,93389,5,8
176,144,93566,1,0
336,144,93742,5,4
256,120,93919,1,0
256,296,94095,1,8
256,296,94272,2,0,B|192:232|96:256,1,160
109,253,94801,2,0,B|173:189|149:93,1,160,8|0
64,64,95331,5,0
151,106,95507,1,8
232,56,95684,2,0,B|312:24|400:64,1,160
387,58,96213,1,8
448,136,96389,1,0
448,136,96478,1,0
448,136,96566,6,0,B|432:176|456:240,1,80
447,214,96919,1,8
344,352,97095,2,0,B|392:272|328:192,1,160
240,208,97625,2,0,B|136:208,1,80,8|0
64,200,97978,6,0,B|16:120|80:40,1,160,0|8
168,32,98507,1,0
168,32,98595,1,0
168,32,98684,2,0,B|184:72|152:112,1,80
155,107,99037,1,8
336,32,99389,5,0
336,32,99566,1,0
384,112,99742,1,8
384,112,99919,2,0,B|384:176|384:176|408:200|408:200|408:280,1,160
344,384,100448,2,0,B|344:320|344:320|320:296|320:296|320:216,1,160,8|0
320,208,100889,1,0
320,184,100978,1,0
320,160,101066,1,0
320,136,101155,6,0,B|320:88|320:32,2,80,8|0|0
296,120,101684,2,0,B|266:82|231:38,2,80,0|0|0
264,136,102213,6,0,B|216:136|184:192,1,80
248,248,102566,2,0,B|296:248|328:192,1,80,8|0
184,120,102919,2,0,B|144:147|150:211,1,80
328,264,103272,2,0,B|367:236|361:172,1,80,8|0
128,192,103625,2,0,B|111:237|153:286,1,80
384,192,103978,2,0,B|400:146|358:97,1,80,8|0
256,80,104331,2,0,B|239:125|281:174,1,80,0|0
256,304,104684,2,0,B|271:260|243:229,1,80,8|0
176,168,105037,5,0
128,112,105213,1,0
80,168,105389,1,8
128,224,105566,1,0
128,224,105919,1,0
176,168,106095,1,8
224,224,106272,1,0
176,280,106448,5,0
224,336,106625,1,0
272,280,106801,1,8
224,224,106978,1,0
224,224,107331,1,0
272,168,107507,1,8
320,224,107684,1,0
272,280,107860,6,0,B|376:280|408:184,1,160,0|8
240,104,108389,2,0,B|136:104|104:200,1,160
111,181,108919,1,8
245,336,109272,6,0,B|168:312|168:208,1,160,0|8
266,47,109801,2,0,B|344:72|344:176,1,160
343,173,110331,1,8
256,272,110684,5,0
256,272,110772,1,0
256,272,110861,1,0
248,368,111037,2,0,B|160:352,1,80,8|0
264,352,111390,2,0,B|360:336,1,80
248,336,111743,2,0,B|152:312,1,80,8|0
256,112,112095,5,0
256,112,112183,1,0
256,112,112272,1,0
248,16,112448,2,0,B|160:32,1,80,8|0
264,32,112801,2,0,B|360:48,1,80
248,48,113154,2,0,B|152:72,1,80,8|0
216,192,113507,5,0
200,208,113595,1,0
176,208,113684,1,0
168,224,113772,1,0
152,232,113860,2,0,B|112:256|120:312,1,80,8|0
296,192,114213,5,0
312,176,114301,1,0
336,176,114390,1,0
344,160,114478,1,0
360,152,114566,2,0,B|400:128|392:72,1,80,8|0
256,88,114919,5,4
256,88,115625,5,4
192,160,115801,1,0
256,88,115978,1,4
320,160,116154,1,0
256,232,116331,5,4
312,304,127272,5,8
312,304,127448,1,8
312,304,127625,2,0,B|272:272|280:208,1,80,4|0
312,80,127978,2,0,B|272:112|280:176,1,80,8|0
136,192,128331,2,0,B|182:213|236:178,1,80
80,248,128684,1,8
184,128,128860,6,0,B|264:80|352:128,1,160,4|0
464,216,129389,2,0,B|456:168|400:152,1,80,8|0
440,16,129742,2,0,B|398:40|403:98,1,80
352,208,130095,1,8
352,208,130272,1,0
208,304,130448,6,0,B|248:272|240:208,1,80,4|0
208,80,130801,2,0,B|248:112|240:176,1,80,8|0
384,192,131154,2,0,B|337:213|283:178,1,80
440,248,131507,1,8
336,128,131683,6,0,B|256:80|168:128,1,160,4|0
56,216,132212,2,0,B|64:168|120:152,1,80,8|0
80,16,132565,2,0,B|121:40|116:98,1,80
168,208,132918,1,8
168,208,133007,1,0
168,208,133095,1,0
168,208,133184,1,8
168,208,133272,6,0,B|176:248|160:296,1,80,4|0
344,160,133625,2,0,B|336:200|352:248,1,80,8|0
168,96,133978,2,0,B|176:136|160:184,1,80
344,48,134331,1,8
256,128,134507,6,0,B|256:192|256:192|272:224|272:224|272:296,1,160,4|0
216,344,135037,2,0,B|184:312|184:312|192:272,1,80,8|0
336,176,135389,2,0,B|368:208|368:208|360:248,1,80
256,128,135742,1,8
256,112,135831,1,0
256,96,135919,1,0
256,80,136007,1,8
256,64,136095,6,0,B|240:16|192:8,1,80,4|0
320,81,136448,2,0,B|330:31|292:0,1,80,8|0
366,127,136801,2,0,B|400:90|383:44,1,80
384,192,137154,1,4
366,256,137331,1,4
312,208,137507,5,0
304,160,137684,1,0
264,128,137860,1,0
206,205,138037,1,0
198,207,138125,1,0
190,209,138213,1,0
182,211,138301,1,0
174,213,138389,1,0
166,215,138478,1,0
158,217,138566,1,0
64,239,138742,1,0
64,239,138919,6,0,B|32:152|88:72,1,160,4|8
256,192,139448,2,0,B|288:279|232:359,1,160,0|4
240,345,139978,1,8
144,344,140154,1,2
144,344,140331,6,0,B|96:277|128:190,1,160,4|8
320,239,140860,2,0,B|352:152|296:72,1,160,4|0
304,85,141390,1,8
208,87,141566,1,2
208,184,141742,6,0,B|168:208|96:168,2,80,4|4|8
304,200,142272,2,0,B|392:176|472:208,1,160,0|4
480,296,142801,1,8
384,312,142978,1,2
384,312,143066,1,0
384,312,143154,6,0,B|208:288,1,160,4|8
192,200,143684,2,0,B|350:221,1,160,4|0
408,144,144213,2,0,B|249:122,1,160,8|4
88,192,144742,5,4
184,192,144919,1,8
272,104,145095,5,2
176,104,145272,1,0
280,192,145448,5,4
376,192,145625,1,8
464,104,145801,5,2
368,104,145978,1,4
368,104,146331,1,8
368,104,146507,2,0,B|304:160|320:264,1,160,4|0
144,280,147037,2,0,B|208:224|192:120,1,160,8|4
193,134,147566,5,4
104,96,147742,1,8
104,96,147831,1,0
104,96,147919,1,2
64,184,148095,1,0
152,224,148272,1,4
152,224,148448,2,0,B|240:248|296:320,1,160,8|4
318,134,148978,5,2
408,96,149154,1,8
408,96,149243,1,0
408,96,149331,1,4
448,184,149507,1,0
360,224,149684,1,2
360,224,149860,2,0,B|272:248|216:320,1,160,8|4
226,307,150389,6,0,B|200:272|216:224,1,80,4|8
285,76,150742,2,0,B|312:112|296:160,1,80
197,295,151095,2,0,B|181:254|209:212,1,80,4|8
328,208,151448,2,2,B|350:280|302:368,1,160
200,216,151978,1,8
232,128,152154,1,4
320,160,152331,1,0
296,248,152507,1,0
264,184,152684,1,8
264,184,152860,1,0
168,152,153037,6,4,B|144:192|160:232,1,80
344,232,153389,2,0,B|368:192|352:152,1,80,8|0
160,176,153742,2,0,B|147:220|173:255,1,80,0|4
351,207,154095,1,8
351,207,154272,2,2,B|368:120|304:56,1,160
208,120,154801,6,0,B|168:144|128:120,1,80,8|4
208,208,155154,2,0,B|232:248|208:288,1,80,0|2
296,208,155507,2,0,B|336:184|376:208,1,80,8|0
296,120,155860,6,4,B|272:80|296:40,1,80,4|4
384,80,156213,1,8
480,104,156389,1,2
488,200,156566,1,0
400,240,156742,1,4
304,216,156919,1,8
392,160,157095,5,2
392,160,157448,1,2
400,256,157625,1,8
312,296,157801,1,4
216,272,157978,1,0
208,176,158154,1,2
296,216,158331,1,8
216,272,158507,1,2
128,232,158684,5,4
112,136,158860,1,4
200,88,159037,1,8
288,112,159213,1,2
296,216,159389,2,0,B|320:256|296:312,1,80,0|4
216,272,159742,1,8
128,232,159919,5,0
112,208,160007,1,0
96,184,160095,2,0,B|0:184,1,80
32,88,160448,1,0
112,32,160625,1,0
136,40,160713,1,0
160,48,160801,1,0
184,56,160889,1,0
208,64,160978,2,0,B|376:64,1,160
456,104,161507,6,0,B|416:160|464:232,2,120,4|2|0
456,104,162742,1,0
456,104,162919,2,0,B|376:104,1,80,0|2
328,120,163448,2,0,B|368:176|320:248,1,120,0|2
280,232,164154,1,0
232,232,164331,6,0,B|144:232,1,80,0|2
136,184,164860,2,0,B|152:136|128:96,2,80
176,160,165742,2,0,B|264:160,1,80,0|2
320,216,166272,2,0,B|232:216,1,80
240,216,166801,1,2
56,344,167154,6,0,B|40:296|64:256,1,80,4|2
224,272,167684,2,0,B|240:320|216:360,1,80
144,232,168213,2,0,B|88:160|144:80,1,160,2|2
368,152,169272,2,0,B|424:216|368:288,1,140
360,304,169978,2,0,B|256:304|256:248|112:248,1,240,0|2
128,248,171213,1,0
368,88,172801,6,0,B|336:128|376:176,1,80,4|2
400,128,173331,2,0,B|432:168|392:216,1,80
368,168,173860,2,0,B|328:240|376:328,1,160,2|2
372,321,174919,1,0
280,320,175272,1,2
184,320,175625,6,0,B|144:344|96:312,1,80,0|2
72,264,176154,2,0,B|112:240|160:272,2,80,0|2|0
72,264,177389,1,0
120,176,177742,1,2
96,80,178095,1,0
16,32,178448,6,0,B|88:32|88:96|168:96,1,160,4|0
256,144,179507,1,2
496,96,179860,6,0,B|424:96|424:160|344:160,1,160,4|0
256,240,180919,1,2
256,336,181272,6,0,B|176:320|176:240,1,120,4|0
256,240,181978,2,0,B|336:224|336:144,1,120,4|0
256,144,182684,1,4
198,227,183389,5,8
291,244,183566,1,0
313,156,183742,1,8
220,139,183919,1,0
256,192,184095,6,0,B|264:224|240:256,1,64,4|0
152,256,184448,1,0
88,192,184625,1,4
88,192,184801,2,0,B|72:120|136:64,1,128
124,75,185331,2,0,B|335:76,1,192,0|4
376,144,186037,1,0
432,216,186213,2,0,B|416:248|432:288,1,64
504,320,186566,2,0,B|520:288|504:248,1,64
504,168,186919,5,4
456,96,187095,1,0
376,144,187272,1,0
432,216,187448,1,4
392,344,187625,2,0,B|336:304|248:336,1,128
184,360,188154,1,0
192,272,188331,2,0,B|224:208|192:136,1,128,0|4
196,147,188860,2,0,B|7:111,1,192
456,88,189742,6,0,B|424:152|464:232,1,128,4|0
368,208,190272,2,0,B|400:272|360:352,1,128,4|0
288,296,190801,1,0
272,208,190978,1,0
192,248,191154,2,0,B|112:216|120:120,1,128,0|4
144,64,191684,1,0
232,64,191860,1,0
296,128,192037,1,0
272,208,192213,1,0
192,248,192389,1,0
104,240,192566,6,0,B|80:216|80:168,1,64,4|0
144,64,192919,2,0,B|168:88|168:136,1,64,0|4
176,208,193272,2,0,B|320:208,1,128
368,272,193801,1,0
416,128,193978,2,0,B|272:128,1,128,0|4
96,256,194507,2,0,B|240:256,1,128
208,336,195037,1,0
208,336,195389,6,0,B|144:296|104:368|32:304,1,160,4|0
304,336,195919,2,0,B|368:296|408:368|480:304,1,160,4|0
256,264,196448,2,0,B|256:152,1,80
208,104,196801,6,0,B|128:144|32:88,1,160,0|4
304,104,197331,2,0,B|384:64|480:120,1,160
512,184,197860,1,0
488,280,198037,1,0
384,304,198213,6,0,B|304:272|304:168,1,160,4|0
128,80,198742,2,0,B|208:112|208:216,1,160,4|0
152,288,199272,1,0
152,288,199448,2,0,B|288:376,1,160
360,288,199978,1,4
360,288,200331,2,0,B|224:376,1,160
208,144,201037,6,4,B|248:104|257:35|257:35|264:104|312:152,1,240
208,240,201919,2,0,B|248:280|257:349|257:349|264:280|312:232,1,240
344,152,202625,1,0
256,112,202801,1,4
168,152,202978,1,0
256,192,203154,1,0
344,232,203331,1,0
256,272,203507,1,0
168,232,203684,1,0
256,192,203860,5,4
256,184,204566,1,4
256,176,205272,1,4
176,32,205978,6,0,B|136:136,1,80,8|0
336,32,206331,2,0,B|376:136,1,80,8|0
296,240,206684,6,0,B|256:216|256:152,1,80
360,168,207037,1,8
424,248,207213,2,0,B|464:224|464:160,1,80
400,88,207566,2,0,B|360:63|303:93,1,80,0|8
360,168,207919,1,0
360,168,208095,6,0,B|416:240|360:336,1,160,0|8
152,320,208625,2,0,B|96:248|152:152,1,160
256,56,209154,2,0,B|280:96|256:136,1,80,8|0
168,88,209507,6,0,B|64:88|48:208,1,160,0|8
80,280,210037,1,0
96,296,210125,1,0
112,312,210213,2,0,B|224:312,1,80
320,240,210566,2,0,B|224:240,1,80,8|0
152,208,210919,6,0,B|136:120|200:48,1,160,0|8
320,58,211448,2,0,B|376:120|360:208,1,160,0|8
296,280,211978,2,0,B|208:280,1,80,8|0
152,208,212331,6,0,B|216:280|144:368,1,160,0|8
88,280,212860,2,0,B|24:208|96:120,1,160
152,72,213389,1,8
248,88,213566,1,0
336,128,213742,6,0,B|396:120|436:184|412:236,1,160,0|8
392,328,214272,2,0,B|331:335|291:271|315:219,1,160,0|0
314,220,214801,2,0,B|224:176,1,80,8|0
176,248,215154,5,0
80,232,215331,1,0
48,144,215507,1,8
48,144,215595,1,0
48,144,215684,1,0
88,56,215860,2,0,B|168:-8|264:64,1,160,0|8
288,128,216389,1,0
288,224,216566,6,0,B|280:320|384:352,1,160,0|8
224,160,217095,2,0,B|232:64|128:32,1,160,0|8
142,37,217625,1,8
64,96,217801,1,0
64,96,217889,1,0
64,96,217978,6,0,B|8:168|72:256,1,160,0|8
136,176,218507,2,0,B|192:152|224:208|304:176,1,160
376,136,219037,1,8
424,216,219213,1,0
344,264,219389,2,0,B|288:240|256:296|176:264,1,160,0|8
96,288,219919,2,0,B|64:256|88:200,1,80
168,88,220272,2,0,B|200:120|176:176,1,80,0|8
96,128,220625,1,0
168,248,220801,6,0,B|240:304|336:248,1,160,0|8
400,200,221331,2,0,B|464:136|392:104|448:32,2,160
312,168,222213,2,0,B|288:128|312:88,1,80
200,216,222566,2,0,B|224:256|200:296,1,80,8|0
96,168,222919,2,0,B|72:128|96:88,1,80
176,48,223272,2,0,B|264:48,1,80,8|0
272,64,223537,1,0
288,80,223625,6,0,B|312:120|296:160,1,80
272,248,223978,1,8
320,328,224154,2,0,B|392:256|504:312,1,160
467,296,224684,2,0,B|488:208,1,80,8|0
424,80,225037,6,0,B|408:160,1,80
392,256,225389,1,8
296,280,225566,2,0,B|272:312|296:360,1,80
293,355,225919,1,0
192,264,226095,2,0,B|216:232|192:184,1,80,8|0
194,188,226448,6,0,B|144:224|96:232|80:192|136:136,1,160,0|8
256,120,226978,1,0
387,148,227154,2,0,B|432:192|416:232|368:224|317:188,1,160,0|8
256,264,227684,1,0
256,120,227860,1,4
208,352,228566,6,0,B|168:320|176:272,1,80
337,282,228919,2,0,B|344:320|304:352,1,80
256,256,229272,5,0
288,168,229448,1,0
376,200,229625,1,8
336,288,229801,1,0
192,176,229978,2,0,B|168:136|192:96,1,80
376,200,230331,2,0,B|400:240|376:280,1,80,8|0
288,168,230684,2,0,B|264:128|288:88,1,80
472,192,231037,2,0,B|496:232|472:272,1,80,8|0
384,296,231389,2,0,B|320:288|304:344|216:320,1,160,0|8
229,323,231919,1,0
112,32,232272,5,0
200,56,232448,2,0,B|264:136|184:224,2,160,8|0|8
136,128,233331,1,0
96,216,233507,2,0,B|32:296|112:384,1,160,0|8
168,296,234037,1,0
168,296,234213,2,0,B|240:304|232:360|320:360,1,160,0|8
392,312,234742,1,0
368,64,234919,6,0,B|288:96|304:200,1,160,0|8
400,216,235448,1,0
480,160,235625,2,0,B|448:128|392:136,1,80
320,288,235978,2,0,B|352:320|408:312,1,80,8|0
328,184,236331,2,0,B|296:152|240:160,1,80
168,312,236684,2,0,B|200:344|256:336,1,80,8|0
320,288,237037,2,0,B|344:232|432:256|448:168,1,160,0|8
440,96,237566,2,0,B|424:48|464:16,2,80
360,144,238095,6,0,B|272:168|200:112,2,160,8|0|8
440,96,238978,1,0
360,240,239154,2,0,B|272:216|200:272,1,160,0|8
152,344,239684,1,0
80,280,239860,2,0,B|56:216|112:192|80:112,1,160,0|8
84,123,240389,1,0
84,123,240566,5,4
152,56,240742,1,0
248,80,240919,2,0,B|280:112|272:160,1,80,8|0
264,304,241272,2,0,B|232:272|240:224,1,80,0|0
288,64,241625,2,0,B|310:103|290:147,1,80,8|0
224,320,241978,2,0,B|201:280|221:236,1,80,0|0
312,232,242331,1,8
392,280,242507,1,0
328,352,242684,2,0,B|264:320|232:360|160:312,1,160,0|8
120,240,243213,1,0
392,144,243566,5,0
338,63,243742,2,0,B|280:24|248:64|184:32,2,160,8|0|8
296,152,244625,1,0
232,224,244801,2,0,B|136:264|88:160,1,160,0|8
392,48,245507,2,0,B|398:143|294:152,1,160,0|8
296,152,246037,1,0
384,232,246213,6,0,B|440:288,1,80
304,280,246566,2,0,B|320:360,1,80,8|0
208,280,246919,2,0,B|192:360,1,80
128,232,247272,2,0,B|72:288,1,80,8|0
176,168,247625,2,0,B|216:200|280:200|336:168,1,160,0|8
408,232,248154,1,0
327,172,248331,1,0
416,136,248507,1,0
327,172,248684,1,8
336,80,248860,1,0
327,172,249037,6,0,B|280:256|352:344,1,160,0|8
432,320,249566,1,0
488,240,249742,1,0
488,144,249919,1,0
456,56,250095,1,8
456,56,250272,2,0,B|392:32|360:88|272:64,1,160,4|0
