osu file format v8

[General]
AudioFilename: Lucid Dream.mp3
AudioLeadIn: 0
PreviewTime: 93043
Countdown: 0
SampleSet: Soft
StackLeniency: 0.7
Mode: 0
LetterboxInBreaks: 0

[Editor]
Bookmarks: 127625,229279
DistanceSpacing: 0.8
BeatDivisor: 4
GridSize: 8

[Metadata]
Title:Lucid Dream
Artist:EastNewSound
Creator:Leorda
Version:Weak Power
Source:Touhou
Tags:byakuren hijiri chata th12 undefined fantastic object 0989596108 Neethime

[Difficulty]
HPDrainRate:2
CircleSize:3
OverallDifficulty:2
ApproachRate:2
SliderMultiplier:0.8
SliderTickRate:1

[Events]
//Background and Video events
0,0,"konachan-com-67620-hijiri_byakuren-thighhighs-touhou.jpg"
Video,1833,"eastnewsound-luciddream.avi"
//Break Periods
2,116530,126065
//Storyboard Layer 0 (Background)
//Storyboard Layer 1 (Fail)
//Storyboard Layer 2 (Pass)
//Storyboard Layer 3 (Foreground)
//Storyboard Sound Samples
//Background Colour Transformations
3,100,163,162,255

[TimingPoints]
25978,352.941176470588,4,2,0,100,1,0
93749,-100,4,2,1,100,0,1
116337,-100,4,2,0,100,0,0
206690,-100,4,2,1,100,0,1
229279,-100,4,2,0,100,0,0

[Colours]
Combo1 : 128,0,255
Combo2 : 255,0,0
Combo3 : 255,255,0
Combo4 : 0,255,0
Combo5 : 0,0,255

[HitObjects]
144,48,48566,2,0,B|64:176|240:176|128:312,1,280,4|0
229,305,50330,1,0
293,305,50683,1,0
293,240,51036,1,8
383,149,51742,1,8
383,20,52448,1,8
318,20,52801,6,0,B|248:216|192:8,1,240,0|8
130,16,54213,1,0
130,144,54919,1,2
130,272,55625,1,0
257,272,56330,1,2
257,143,57036,6,0,B|384:96|336:240|480:128,1,240,0|8
474,196,58448,2,0,B|440:344|296:344,1,240,0|8
245,343,59860,5,4
154,252,60566,1,2
154,123,61272,1,0
244,32,61978,1,2
334,122,62683,1,0
334,250,63389,1,2
243,340,64095,6,0,B|243:81,1,240,0|8
307,100,65507,1,0
435,100,66213,1,2
435,227,66919,1,0
306,227,67625,1,2
306,355,68330,5,0
434,355,69036,1,8
256,192,69742,12,4,71154
128,48,71860,5,0
32,128,72566,2,0,B|120:176|192:144,1,160
272,48,73978,5,0
399,48,74683,1,0
336,160,75389,2,0,B|432:160,3,80,0|8|0|8
416,160,76801,6,0,B|448:224|416:296|344:304|280:288|256:224|296:152,2,320,0|2|0
352,48,80330,1,2
223,48,81036,1,0
96,48,81742,1,2
110,176,82448,6,0,B|256:232|256:112|432:184,1,320,4|0
416,304,85272,2,0,B|250:236|250:356|104:300,1,320,0|0
256,192,88095,12,4,92330
88,40,93742,5,4
88,296,95154,1,0
344,296,96566,1,2
344,40,97978,1,0
216,264,99389,6,0,B|216:88,2,160,0|2|0
304,184,101507,1,2
304,56,102213,2,0,B|384:48|424:64|456:96|480:128|488:184|464:264,2,320,0|2|4
352,176,105742,5,2
352,304,106448,1,0
287,304,106801,1,8
222,304,107154,1,0
131,213,107860,5,0
131,148,108213,1,8
131,83,108566,1,0
245,25,109272,1,0
309,25,109625,1,8
372,25,109978,1,0
334,149,110683,6,0,B|406:213,1,80,0|8
398,269,111389,2,0,B|334:333,1,80,0|8
278,325,112095,2,0,B|208:258,1,80,0|8
222,205,112801,2,0,B|296:144,1,80,0|8
294,101,113507,5,0
229,101,113860,1,8
164,101,114213,1,2
99,101,114566,1,8
256,192,114919,12,0,116330
256,32,127625,5,4
368,88,128330,1,8
432,200,129036,1,0
368,312,129742,1,8
256,368,130448,1,0
144,312,131154,1,8
80,200,131860,1,0
144,88,132566,1,8
256,192,133272,12,4,137330
160,64,138919,6,0,B|88:104|88:192|168:224|200:208|240:176|256:136,1,280,4|0
336,192,140683,1,8
336,320,141389,1,8
207,320,142095,1,8
207,191,142801,1,8
142,191,143154,6,0,B|104:144|112:64|184:32|272:24|328:112,1,320
262,128,144919,1,8
279,189,145272,1,2
336,224,145625,1,8
296,280,145978,2,0,B|200:272|144:200|160:104,1,240,0|8
93,117,147389,2,0,B|96:56|136:48|184:48|208:56|224:80|224:96|224:176,1,240,0|8
288,152,148801,2,0,B|288:224|400:216|400:360,1,240,0|8
336,352,150213,5,4
207,352,150919,1,2
78,352,151625,1,0
78,224,152330,1,2
206,224,153036,1,0
334,224,153742,1,2
334,95,154448,6,0,B|8:96,2,320,0|2|0
334,223,157978,1,2
205,223,158683,1,0
76,223,159389,1,2
256,192,160095,12,4,161507
256,184,162213,1,0
256,56,162919,1,0
384,56,163625,1,0
384,184,164330,1,0
384,312,165036,1,0
256,312,165742,1,0
128,312,166448,1,0
128,183,167154,6,0,B|128:80|240:80,2,160
128,311,169272,1,0
256,312,169977,2,0,B|384:160|353:353|473:145,1,280
384,40,172801,5,4
256,16,173507,1,0
128,32,174213,1,0
80,152,174919,1,0
128,272,175625,1,0
256,296,176330,1,0
384,272,177036,1,0
440,152,177742,1,0
256,192,178448,12,4,182683
64,56,184095,5,2
320,56,185507,1,2
456,272,186919,1,2
200,272,188330,1,2
416,128,189742,6,0,B|416:304,3,160,0|2|0|2
328,200,192566,1,0
199,200,193272,1,2
71,200,193978,1,0
136,88,194683,1,2
264,88,195389,6,0,B|320:24|424:40|480:80|520:152|496:240|416:304|376:312|208:304|256:136,2,640,4|2|0
256,192,201125,12,4,205272
80,56,206683,5,4
80,184,207389,1,2
80,312,208095,1,0
336,352,209507,6,0,B|288:144|400:240|320:32,2,320,0|2|0
224,120,213742,5,0
224,248,214448,1,2
112,296,215154,2,0,B|80:144|176:208|120:48,1,240,0|8
189,64,216566,2,0,B|239:207|143:143|175:295,1,240,0|8
239,293,217978,5,4
299,180,218683,1,2
368,72,219389,1,0
440,176,220095,1,2
360,280,220801,2,0,B|224:192|224:336|48:240,2,320,0|2|0
360,151,224330,5,2
231,151,225036,1,0
102,151,225742,1,2
256,192,226448,12,4,229272
