osu file format v8

[General]
AudioFilename: Lucid Dream.mp3
AudioLeadIn: 0
PreviewTime: 93043
Countdown: 0
SampleSet: Soft
StackLeniency: 0.7
Mode: 1
LetterboxInBreaks: 0

[Editor]
Bookmarks: 48573,138926,229279
DistanceSpacing: 0.8
BeatDivisor: 4
GridSize: 8

[Metadata]
Title:Lucid Dream
Artist:EastNewSound
Creator:Leorda
Version:Taiko Power
Source:Touhou
Tags:byakuren hijiri chata th12 undefined fantastic object 0989596108 Neethime

[Difficulty]
HPDrainRate:8
CircleSize:5
OverallDifficulty:6
ApproachRate:6
SliderMultiplier:1.4
SliderTickRate:1

[Events]
//Background and Video events
0,0,"konachan-com-67620-hijiri_byakuren-thighhighs-touhou.jpg"
Video,1840,"eastnewsound-luciddream.avi"
//Break Periods
//Storyboard Layer 0 (Background)
//Storyboard Layer 1 (Fail)
//Storyboard Layer 2 (Pass)
//Storyboard Layer 3 (Foreground)
//Storyboard Sound Samples
//Background Colour Transformations
3,100,163,162,255

[TimingPoints]
25978,352.941176470588,4,2,0,100,1,0
93749,-100,4,2,0,100,0,1
116337,-100,4,2,0,100,0,0
206690,-100,4,2,0,100,0,1
229279,-100,4,2,0,100,0,0

[Colours]
Combo1 : 128,0,255
Combo2 : 255,0,0
Combo3 : 255,255,0
Combo4 : 0,255,0
Combo5 : 0,0,255

[HitObjects]
232,216,40095,5,0
312,120,40272,1,2
272,176,40360,1,2
272,176,40448,1,2
344,152,40625,1,0
464,112,40801,1,2
368,176,40889,1,2
368,176,40978,1,2
408,144,41154,1,0
272,176,41330,1,2
296,216,41419,1,2
296,216,41507,1,2
368,176,41683,1,0
344,152,41860,1,2
296,216,41948,1,2
296,216,42036,1,2
192,192,42213,1,0
344,152,42389,1,2
264,232,42566,1,2
272,176,42919,1,0
344,152,43095,1,2
296,216,43183,1,2
344,152,43272,1,0
296,216,43448,1,0
376,144,43625,1,2
336,192,43713,1,2
272,176,43801,1,0
264,232,43978,1,0
312,168,44154,1,2
296,216,44242,1,2
376,144,44330,1,0
296,216,44507,1,0
448,112,44683,1,2
336,104,44772,1,2
344,152,44860,1,0
232,216,45036,1,0
216,152,45213,1,2
376,144,45389,1,0
88,160,45742,1,0
232,248,45919,1,0
232,248,46007,1,0
376,144,46095,1,2
376,144,46272,1,0
320,200,46448,1,0
320,200,46536,1,0
320,200,46625,1,2
376,144,46801,1,0
320,200,46978,1,0
448,136,47066,1,0
376,144,47154,1,2
376,144,47330,1,0
320,200,47507,1,0
320,200,47595,1,0
304,152,47683,1,2
376,144,47860,1,0
448,136,48036,1,0
328,168,48213,1,2
232,176,48566,1,0
256,240,48742,1,0
416,128,48919,1,2
376,144,49095,1,0
256,240,49272,1,0
352,240,49625,1,0
192,272,49801,1,0
232,176,49889,1,0
376,144,49978,1,2
376,144,50154,1,0
304,240,50330,1,0
256,192,50507,12,8,52272
336,160,52448,5,2
272,168,52625,1,0
272,248,52801,1,0
272,248,52978,1,0
272,248,53066,1,0
392,144,53154,1,2
336,160,53330,1,0
304,216,53507,1,0
304,216,53683,1,0
280,200,53860,1,2
272,248,54036,1,2
384,176,54213,1,0
56,88,54389,2,2,L|344:128,1,280
120,152,55272,1,0
224,176,55448,1,0
312,160,55625,1,2
336,192,55801,1,2
256,176,55978,1,0
288,232,56154,1,0
288,232,56242,1,0
344,160,56330,1,2
336,192,56507,1,0
176,248,56683,1,0
368,144,56860,1,0
416,128,57036,1,2
256,192,57213,12,2,59683
240,216,59860,5,0
240,216,60036,1,0
368,144,60213,1,2
368,144,60389,1,0
352,240,60566,1,0
424,184,60742,1,0
288,176,60919,1,2
272,248,61095,1,2
240,216,61272,1,0
240,216,61448,1,0
368,144,61625,1,2
368,144,61801,1,0
352,240,61978,1,0
424,184,62154,1,0
288,176,62330,1,2
272,248,62507,1,2
240,216,62683,1,2
240,216,62860,1,0
368,144,63036,1,2
368,144,63213,1,0
352,240,63389,1,0
424,184,63566,1,0
288,176,63742,1,2
272,248,63919,1,2
200,136,64095,1,2
192,200,64272,1,0
176,256,64360,1,0
176,256,64448,1,0
176,256,64536,1,0
400,104,64625,1,2
288,176,64801,1,2
272,128,64978,1,0
256,168,65154,1,2
224,192,65330,1,0
304,216,65507,1,0
256,192,65683,12,2,70625
304,216,70801,5,0
272,240,70978,1,0
296,176,71154,1,2
432,128,71330,1,2
400,208,71419,1,2
448,160,71507,1,2
264,200,71683,1,0
272,240,71860,1,0
264,200,72036,1,0
208,208,72213,1,2
272,240,72301,1,2
304,216,72389,1,2
336,176,72566,1,0
376,176,72742,1,0
336,176,72919,1,2
208,208,73095,1,0
224,232,73272,1,0
336,176,73625,1,0
304,216,73801,1,0
392,144,73978,1,2
376,176,74154,1,0
376,176,74242,1,0
392,144,74330,1,2
440,128,74507,1,0
304,216,74683,1,0
336,144,74860,1,2
304,216,75036,1,2
240,192,75213,1,0
200,240,75389,1,0
40,144,75566,2,0,L|488:208,1,420
224,160,76801,1,0
272,240,76978,1,0
360,240,77154,1,0
360,240,77242,1,0
400,136,77330,1,2
376,200,77507,1,2
336,160,77683,1,0
384,160,77860,1,2
360,240,78036,1,2
296,176,78213,1,0
336,160,78389,1,0
296,176,78566,1,2
296,176,78742,1,0
272,208,78919,1,0
240,256,79007,1,0
240,256,79095,1,0
168,256,79183,1,0
168,256,79272,1,0
296,176,79625,1,0
344,256,79801,1,0
344,256,79978,1,0
272,208,80066,1,0
264,136,80154,1,0
264,136,80242,1,0
376,136,80330,1,2
416,112,80419,1,2
416,112,80507,1,0
304,240,80683,1,0
304,240,80860,1,0
352,176,81036,1,2
168,88,82448,1,0
304,216,82625,1,0
120,160,82801,1,2
360,176,82889,1,2
376,144,82978,1,0
288,160,83154,1,2
272,192,83242,1,2
432,128,83330,1,0
272,192,83507,1,0
408,152,83683,1,2
376,144,83860,1,0
304,216,84036,1,0
240,192,84213,1,2
304,216,84919,1,0
264,256,85095,1,0
360,192,85272,1,0
344,232,85360,1,0
320,168,85448,1,2
304,112,85625,1,0
320,168,85713,1,0
368,144,85801,1,2
368,144,85978,1,0
248,216,86154,1,0
368,144,86330,1,2
464,120,86507,1,0
368,144,86683,1,2
176,216,87742,1,0
224,224,87919,1,0
424,136,88095,1,2
256,256,88272,1,2
424,136,88448,1,0
224,152,88625,1,2
304,184,88801,1,2
352,144,88978,1,0
304,184,89154,1,0
304,184,89242,1,0
304,184,89330,1,0
464,112,89419,1,2
392,144,89507,1,0
376,200,89595,1,2
392,144,89683,1,2
376,200,89772,1,2
424,136,89860,1,2
376,200,89948,1,0
288,240,90036,1,0
288,240,90125,1,0
392,144,90213,1,2
464,144,90389,1,0
352,224,90566,1,0
464,112,90742,1,2
328,200,90919,1,2
48,184,91095,2,0,L|488:192,1,420
216,160,92330,1,4
320,280,92507,1,2
240,216,92683,1,2
240,216,92860,1,2
176,240,93036,1,2
328,200,93125,1,2
240,216,93213,1,2
240,216,93301,1,2
240,216,93389,1,2
216,160,93477,1,2
216,160,93566,1,2
216,232,93742,1,0
240,216,93830,1,0
208,112,93919,1,0
256,184,94007,1,0
416,128,94095,1,0
288,176,94272,1,2
248,256,94448,1,2
248,136,94625,1,0
256,184,94801,1,0
416,128,94889,1,2
320,168,95066,1,2
256,184,95154,1,0
248,256,95330,1,0
288,176,95507,1,2
216,192,95683,1,0
208,224,95860,1,0
288,176,96036,1,0
352,152,96213,1,2
288,176,96566,1,0
312,312,96742,1,0
352,152,96919,1,2
312,224,97095,1,2
288,176,97272,1,0
312,256,97448,1,0
312,256,97536,1,0
352,152,97625,1,2
352,152,97801,1,0
248,248,97978,1,0
216,200,98154,1,0
320,96,98330,1,0
400,112,98419,1,2
352,152,98595,1,2
248,144,98683,1,0
184,256,98860,1,0
216,248,99036,1,0
152,216,99213,1,0
320,208,99389,1,0
248,248,99566,1,0
152,216,99742,1,2
320,160,99919,1,0
320,208,100095,1,0
320,208,100272,1,0
320,208,100360,1,0
360,144,100448,1,2
320,160,100625,1,0
288,200,100801,1,0
360,144,100978,1,0
248,248,101066,1,0
360,144,101154,1,2
288,200,101330,1,0
248,248,101507,1,0
248,248,101683,1,0
272,224,101772,1,0
320,160,101860,1,2
192,176,102036,1,0
168,200,102213,1,0
288,200,102389,1,2
208,208,102566,1,2
208,208,102919,1,0
208,208,103272,1,2
256,216,103625,1,0
256,216,103801,1,0
208,208,103978,1,2
256,216,104154,1,0
256,216,104330,1,0
256,216,104507,1,0
256,216,104595,1,0
208,208,104683,1,2
176,160,105036,1,0
288,232,105213,1,0
208,208,105389,1,2
288,232,105566,1,0
248,256,105742,1,0
248,256,105919,1,0
248,256,106007,1,0
208,208,106095,1,2
248,256,106448,1,0
248,256,106625,1,0
248,256,106713,1,0
208,208,106801,1,2
248,256,106978,1,0
248,256,107154,1,0
160,112,107330,1,0
208,208,107507,1,2
272,200,107683,1,0
288,224,107860,1,0
320,160,108036,1,2
320,224,108125,1,2
208,208,108213,1,2
320,160,108389,1,0
272,200,108566,1,0
320,160,108742,1,2
208,208,108919,1,2
320,160,109095,1,0
288,256,109272,1,0
288,224,109448,1,0
208,208,109625,1,2
136,152,109978,1,0
128,192,110154,1,0
208,208,110330,1,2
256,112,110507,1,2
208,208,110683,1,2
208,208,111036,1,2
320,112,111213,1,0
224,176,111389,1,0
224,176,111478,1,0
416,128,111566,1,2
368,160,111654,1,2
208,208,111742,1,2
208,208,111919,1,0
144,224,112095,1,0
208,208,112448,1,2
192,144,112801,1,2
304,160,112978,1,0
208,208,113154,1,2
224,152,113330,1,2
192,144,113419,1,2
192,144,113507,1,2
224,152,113595,1,2
376,120,113683,1,0
208,208,113860,1,2
264,160,114036,1,0
240,112,114213,1,0
224,152,114389,1,0
208,208,114566,1,2
376,120,114742,1,2
320,120,114919,1,0
264,192,115095,1,0
208,208,115272,1,2
264,160,115448,1,0
264,192,115625,1,0
264,192,115801,1,0
264,192,115889,1,0
208,208,115978,1,2
264,192,116154,1,0
224,184,116330,5,0
160,160,116507,1,0
248,240,116595,1,0
176,184,116683,1,0
248,240,116772,1,0
192,208,116860,1,0
264,200,117036,1,0
216,280,117125,1,0
264,200,117213,1,0
248,240,117301,1,0
264,200,117389,1,0
264,200,117566,1,0
216,280,117654,1,0
264,200,117742,1,0
216,280,117830,1,0
264,200,117919,1,0
264,200,118095,1,0
216,280,118183,1,0
264,200,118272,1,0
216,280,118360,1,0
264,200,118448,1,0
296,176,118625,1,0
424,128,118801,1,2
208,152,119154,1,0
320,192,119330,1,0
320,224,119507,1,0
424,128,119595,1,0
296,176,119683,1,2
208,152,119860,1,0
264,200,120036,1,0
296,176,120125,1,0
272,120,120213,1,2
296,176,120389,1,0
264,200,120566,1,0
264,200,120654,1,0
344,128,120742,1,2
376,136,120919,1,0
264,200,121095,1,0
264,200,121183,1,0
208,152,121272,1,2
296,176,121448,1,0
320,192,121625,1,2
208,152,121978,1,0
296,176,122154,1,2
248,232,122330,1,2
248,232,122419,1,2
240,176,122507,1,0
168,120,122683,1,2
296,176,122860,1,2
296,176,122948,1,2
368,152,123036,1,0
352,128,123213,1,2
336,160,123389,1,2
336,160,123478,1,2
280,120,123566,1,0
296,176,123742,1,2
296,176,123919,1,2
320,192,124007,1,2
368,152,124095,1,0
168,184,124272,1,2
336,160,124448,1,0
280,224,124801,1,0
328,128,124978,1,2
296,176,125066,1,2
280,120,125154,1,0
232,208,125242,1,2
232,208,125330,1,2
232,208,125507,1,2
232,208,125595,1,2
232,208,125683,1,0
232,208,125772,1,2
232,208,125860,1,2
232,128,126036,1,2
224,168,126125,1,2
232,208,126213,1,0
176,192,126301,1,2
176,192,126389,1,2
176,192,126566,1,2
176,192,126654,1,2
232,208,126742,1,0
176,192,126830,1,2
176,192,126919,1,2
176,192,127095,1,2
368,136,127272,1,2
304,168,127625,1,0
280,224,127801,1,0
280,224,127889,1,0
368,136,127978,1,2
336,168,128154,1,0
280,224,128330,1,0
368,136,128507,1,2
336,168,128595,1,2
336,168,128683,1,0
280,224,128860,1,0
368,136,129036,1,2
336,168,129213,1,0
280,224,129389,1,0
280,224,129478,1,0
368,136,129566,1,2
336,168,129742,1,0
272,176,129919,1,2
368,136,130095,1,0
240,152,130448,1,0
256,112,130625,1,2
256,112,130801,1,0
240,200,130889,1,0
256,112,130978,1,2
256,112,131154,1,2
256,112,131330,1,0
256,112,131507,1,2
256,112,131683,1,2
240,200,131772,1,2
256,112,131860,1,0
256,112,132036,1,2
256,112,132213,1,2
240,200,132301,1,2
256,112,132389,1,0
256,112,132566,1,2
240,136,132742,1,0
288,176,132919,1,0
192,160,133272,1,0
240,200,133448,1,0
288,208,133536,1,0
320,88,133625,1,2
352,160,133713,1,2
288,176,133801,1,2
240,136,133978,1,0
240,200,134066,1,0
352,104,134154,1,2
288,176,134242,1,2
288,176,134330,1,2
328,136,134507,1,0
288,208,134595,1,0
352,160,134683,1,2
288,176,134772,1,2
288,208,134860,1,2
352,104,135036,1,0
288,176,135125,1,0
352,160,135213,1,2
352,160,135301,1,2
424,104,135389,1,2
392,128,135566,1,0
184,184,135742,1,2
144,144,136095,1,0
392,128,136272,1,2
352,160,136360,1,2
192,120,136448,1,0
424,104,136536,1,2
352,160,136625,1,0
392,128,136801,1,2
352,160,136889,1,2
192,120,136978,1,0
424,104,137066,1,2
352,160,137154,1,0
392,128,137330,1,2
352,160,137419,1,2
192,120,137507,1,0
424,104,137595,1,2
352,160,137683,1,0
392,128,137860,1,2
352,160,137948,1,2
192,120,138036,1,0
424,104,138125,1,2
352,160,138213,1,0
224,104,138389,1,2
352,160,138566,1,0
256,160,138919,5,0
216,248,139095,1,0
256,160,139272,1,2
400,128,139448,1,0
312,208,139625,1,0
288,224,139801,1,0
352,152,139978,1,2
288,224,140330,1,0
208,168,140507,1,0
320,160,140683,1,2
272,184,140860,1,0
256,232,141036,1,0
256,232,141213,1,0
320,160,141389,1,2
240,120,141742,1,0
168,192,141919,1,0
384,128,142095,1,2
296,240,142272,1,2
368,104,142448,1,0
320,192,142625,1,0
272,208,142801,1,0
272,208,143154,1,0
272,208,143330,1,0
368,104,143507,1,2
320,192,143683,1,2
368,104,143860,1,0
320,192,144036,1,0
320,192,144213,1,0
272,208,144566,1,0
144,288,144742,1,0
224,176,144919,1,2
344,152,145095,1,0
424,112,145272,1,2
344,152,145448,1,2
320,192,145625,1,2
384,112,145978,1,0
320,192,146154,1,0
344,152,146330,1,2
344,152,146507,1,0
336,224,146683,1,0
296,176,146860,1,2
224,200,147036,1,0
264,208,147389,1,0
224,200,147566,1,0
344,152,147742,1,2
208,224,147919,1,2
368,184,148095,1,2
296,176,148272,1,0
384,136,148448,1,2
296,176,148801,1,0
240,280,148978,1,0
296,176,149154,1,2
384,136,149330,1,2
304,144,149507,1,0
416,136,149683,1,0
240,216,149860,1,2
208,176,150213,1,0
136,112,150389,2,2,L|280:112,1,140
320,184,151272,1,0
240,216,151448,1,0
416,128,151625,1,2
256,152,151978,1,0
192,192,152154,1,0
360,120,152330,1,2
416,128,152507,1,0
304,224,152683,1,0
400,176,152860,1,0
328,152,153036,1,2
48,160,153213,2,2,L|192:160,1,140
288,160,154095,1,0
240,224,154272,1,0
448,120,154448,1,2
328,152,154625,1,0
272,216,154801,1,0
368,136,154978,1,2
192,216,155154,1,0
256,136,155330,1,0
368,136,155507,1,0
328,152,155683,1,2
240,224,155860,1,2
256,192,156036,12,2,160625
248,208,161154,5,0
192,248,161330,1,0
296,168,161507,1,2
184,160,161683,1,0
304,216,161860,1,0
304,216,161948,1,0
248,208,162036,1,2
296,168,162213,1,0
384,144,162389,1,2
304,216,162566,1,2
336,152,162742,1,0
304,216,162919,1,0
296,168,163095,1,0
248,208,163272,1,2
184,256,163448,1,0
160,176,163625,1,0
232,152,163978,1,0
208,224,164154,1,0
376,144,164330,1,2
224,256,164507,1,2
376,144,164683,1,0
328,216,164860,1,0
376,144,165036,1,2
336,176,165213,1,0
272,232,165301,1,0
376,144,165389,1,2
280,200,165566,1,0
208,224,165742,1,0
80,144,165919,2,0,L|376:152,1,280
272,232,166801,1,8
280,200,166978,1,0
248,192,167154,1,0
192,248,167330,1,0
240,160,167507,1,0
392,144,167683,1,2
352,160,167860,1,0
272,232,168036,1,0
144,216,168213,1,2
176,176,168389,1,0
128,288,168566,1,0
312,176,168742,1,0
80,168,168919,2,0,B|464:176|320:296,1,350
272,176,169978,1,0
328,160,170154,1,0
376,136,170330,1,2
160,192,170507,1,0
208,240,170683,1,0
232,208,171036,1,0
304,232,171213,1,0
304,232,171301,1,0
272,176,171389,1,2
256,192,171566,12,2,172625
224,216,172801,5,0
384,224,172978,1,0
304,184,173154,1,0
272,160,173330,1,2
360,168,173507,1,0
320,216,173683,1,0
384,144,173860,1,2
304,184,174036,1,2
192,168,174213,1,2
272,160,174389,1,0
320,216,174478,1,0
384,144,174566,1,2
328,168,174654,1,0
256,224,174742,1,0
256,224,174830,1,0
384,144,174919,1,2
328,168,175007,1,2
360,168,175095,1,0
208,232,175272,1,0
256,224,175448,1,0
304,120,175625,1,2
304,192,175801,1,2
280,152,175978,1,0
256,224,176154,1,0
384,144,176330,1,2
416,144,176507,1,0
328,152,176683,1,2
304,192,176772,1,0
304,192,176860,1,0
304,192,176948,1,0
240,120,177036,1,2
256,192,177213,12,2,178272
288,160,178448,5,0
144,256,178625,1,0
288,160,178801,1,2
288,160,178978,1,0
296,216,179154,1,0
240,184,179330,1,2
240,224,179419,1,2
320,168,179507,1,0
272,240,179683,1,0
296,216,179860,1,6
192,168,180566,1,0
240,264,180742,1,0
240,264,180919,1,0
192,264,181095,1,0
304,160,181272,1,6
240,264,181978,1,12
192,224,182154,1,0
160,248,182330,1,0
160,248,182507,1,0
240,264,182683,1,12
272,152,182860,1,2
288,184,183036,1,0
296,224,183213,1,0
240,264,183389,1,12
416,160,183566,1,0
240,264,183742,1,12
408,200,183919,1,0
256,192,184095,1,8
240,264,184183,1,8
200,240,184272,1,8
200,240,184360,1,8
200,240,184448,1,8
288,184,184625,1,0
200,240,184801,1,0
160,248,184978,1,0
288,184,185154,1,2
360,152,185330,1,0
288,240,185507,1,0
184,208,186566,1,0
240,200,186742,1,0
320,160,186919,1,2
288,240,187095,1,2
400,144,187272,1,0
432,136,187448,1,2
312,208,187625,1,2
240,200,187978,1,0
160,112,188330,1,0
368,264,188683,1,2
296,128,189036,1,2
192,240,189389,1,2
192,168,189742,1,0
240,264,189919,1,0
312,208,190095,1,0
288,248,190272,1,0
400,144,190448,1,2
336,184,190625,1,2
360,160,190801,1,0
280,200,190978,1,0
400,144,191066,1,0
360,160,191154,1,2
272,256,192213,1,0
56,136,192389,1,2
248,168,192566,1,2
280,176,192742,1,2
320,152,192919,1,0
272,256,193095,1,0
384,144,193272,1,2
320,152,193448,1,0
320,208,193625,1,0
320,208,193801,1,0
384,144,193978,1,2
232,160,194330,1,0
280,200,194683,1,0
280,200,195036,1,2
232,216,195389,1,2
352,144,195742,1,0
248,256,195919,1,0
280,200,196095,1,2
232,160,196448,1,0
232,160,196625,1,0
304,160,196801,1,2
416,128,197154,1,0
368,192,197330,1,0
368,192,197419,1,0
384,144,197507,1,2
352,160,197860,1,0
248,200,198036,1,0
248,200,198125,1,0
416,128,198213,1,2
288,168,198566,1,0
288,168,198654,1,0
368,192,198742,1,0
224,216,198830,1,0
288,168,198919,1,2
288,168,199272,1,0
248,200,199360,1,0
248,200,199448,1,0
248,200,199536,1,0
248,200,199625,1,2
184,160,199801,1,0
208,272,199978,1,0
272,272,200154,1,0
288,168,200330,1,2
376,144,200507,1,0
344,160,200683,1,2
248,200,200860,1,2
344,160,201036,1,0
216,144,201213,1,0
336,240,201389,1,0
184,216,201566,1,2
264,224,201742,1,2
264,224,201919,1,2
264,224,202095,1,2
248,200,202272,1,0
256,256,202448,1,0
256,256,202536,1,0
296,168,202625,1,2
384,144,202713,1,0
264,224,202801,1,0
320,216,203507,1,0
352,224,203683,1,0
352,224,203860,1,0
368,112,204036,1,2
296,168,204213,1,2
416,136,204389,1,0
344,176,204566,1,0
344,176,204742,1,0
344,176,204830,1,0
344,176,204919,1,2
208,248,205095,1,0
296,168,205272,1,2
224,168,205448,1,0
224,168,205536,1,0
224,168,205625,1,0
224,168,205713,1,0
416,136,205801,1,2
296,168,205978,1,2
256,128,206154,1,0
224,168,206242,1,0
296,168,206330,1,2
224,168,206419,1,0
296,168,206507,1,2
216,296,206683,1,0
304,200,206860,1,0
160,192,206948,1,0
256,184,207036,1,8
416,136,207125,1,0
400,192,207213,1,0
256,128,207389,1,0
304,128,207566,1,2
296,168,207742,1,8
352,152,207919,1,0
296,168,208095,1,0
256,176,208272,1,0
256,176,208360,1,0
304,200,208448,1,8
184,192,208625,1,0
208,240,208801,1,0
208,240,208978,1,0
208,240,209066,1,0
256,176,209154,1,8
296,168,209330,1,0
312,272,209507,1,0
392,120,209683,1,2
256,176,209860,1,8
216,104,210036,1,0
304,216,210213,1,0
280,232,210301,1,0
208,240,210389,1,0
376,144,210478,1,2
256,176,210566,1,8
352,208,210742,1,0
296,168,210919,1,0
232,256,211007,1,0
232,256,211095,1,0
376,144,211183,1,2
256,176,211272,1,8
256,176,211448,1,0
168,272,211625,1,0
408,160,211801,1,2
256,176,211978,1,8
376,144,212330,1,0
232,256,212507,1,0
256,176,212683,1,8
232,256,212860,1,0
232,256,213036,1,0
232,256,213213,1,0
232,256,213301,1,0
256,176,213389,1,8
400,112,213566,1,2
336,152,213742,1,0
304,192,213919,1,0
256,176,214095,1,8
48,248,214272,1,2
304,192,214360,1,2
304,192,214448,1,2
256,240,214625,1,0
256,176,214801,1,8
336,152,214978,1,2
288,224,215154,1,2
336,152,215330,1,0
256,176,215507,1,8
304,192,215683,1,0
240,216,215860,1,0
424,136,216036,1,2
368,168,216125,1,2
256,176,216213,1,8
424,136,216301,1,2
456,136,216389,1,0
304,192,216566,1,0
288,224,216742,1,0
256,176,216919,1,8
256,176,217625,1,8
288,224,217801,1,2
360,152,217978,1,0
304,192,218154,1,0
256,176,218330,1,8
288,224,218683,1,0
200,240,218860,1,0
256,176,219036,1,8
256,208,219389,1,0
200,240,219566,1,0
200,240,219654,1,0
256,176,219742,1,8
256,248,219919,1,0
288,224,220095,1,0
288,224,220272,1,0
312,208,220360,1,0
256,176,220448,1,8
256,176,220801,1,0
200,240,220889,1,0
200,240,220978,1,0
200,240,221066,1,0
256,176,221154,1,8
296,184,221242,1,0
296,184,221330,1,0
296,184,221419,1,0
296,184,221507,1,0
296,184,221595,1,0
296,184,221683,1,0
296,184,221772,1,0
256,176,221860,1,8
200,240,222213,1,0
240,248,222389,1,0
256,176,222566,1,8
392,152,222742,1,2
344,192,222830,1,2
344,192,222919,1,2
392,152,223095,1,0
256,176,223272,1,8
344,160,223448,1,2
256,216,223625,1,0
240,248,223801,1,0
256,176,223889,1,0
256,176,223978,1,8
264,288,224154,1,0
168,264,224330,1,0
256,176,224507,1,0
256,176,224595,1,0
256,176,224683,1,8
304,200,224860,1,0
304,200,224948,1,0
304,200,225036,1,0
304,200,225213,1,0
256,176,225389,1,8
304,200,225566,1,0
240,240,225742,1,0
208,256,225830,1,0
208,256,225919,1,0
208,256,226007,1,0
256,176,226095,1,8
288,176,226272,1,2
240,240,226448,1,2
304,200,226625,1,0
256,176,226801,1,8
304,200,226978,1,0
280,224,227154,1,0
280,224,227330,1,0
256,176,227507,1,8
280,224,227683,1,0
280,224,227860,1,0
240,240,227948,1,0
240,240,228036,1,0
280,224,228125,1,0
256,176,228213,1,8
280,224,228389,1,0
304,200,228566,1,0
392,144,228742,1,2
256,176,228919,1,8
256,176,229095,1,0
240,240,229272,1,0
256,192,229448,12,0,234919
