osu file format v8

[General]
AudioFilename: Lucid Dream.mp3
AudioLeadIn: 0
PreviewTime: 93043
Countdown: 0
SampleSet: Soft
StackLeniency: 0.7
Mode: 0
LetterboxInBreaks: 0

[Editor]
Bookmarks: 25985,48573,71161,93749,116337,138926,161514,184102,206690,229279
DistanceSpacing: 1
BeatDivisor: 4
GridSize: 8

[Metadata]
Title:Lucid Dream
Artist:EastNewSound
Creator:Leorda
Version:Neet Power
Source:Touhou
Tags:byakuren hijiri chata th12 undefined fantastic object 0989596108 Neethime

[Difficulty]
HPDrainRate:7
CircleSize:4
OverallDifficulty:8
ApproachRate:8
SliderMultiplier:1.7
SliderTickRate:1

[Events]
//Background and Video events
0,0,"konachan-com-67620-hijiri_byakuren-thighhighs-touhou.jpg"
Video,1840,"eastnewsound-luciddream.avi"
//Break Periods
2,37472,41816
2,116530,126875
//Storyboard Layer 0 (Background)
//Storyboard Layer 1 (Fail)
//Storyboard Layer 2 (Pass)
//Storyboard Layer 3 (Foreground)
//Storyboard Sound Samples
//Background Colour Transformations
3,100,163,162,255

[TimingPoints]
25978,352.941176470588,4,2,1,40,1,0
48389,-200,4,1,1,70,0,0
49978,-100,4,1,1,50,0,0
52801,-200,4,1,1,50,0,0
54213,-100,4,1,1,50,0,0
55625,-200,4,1,1,50,0,0
57036,-100,4,1,1,50,0,0
59860,-200,4,1,1,50,0,0
61095,-100,4,1,1,50,0,0
64095,-200,4,1,1,50,0,0
65507,-100,4,1,1,50,0,0
70978,-200,4,2,1,50,0,0
82360,-200,4,2,1,40,0,0
82536,-200,4,2,1,50,0,0
86066,-200,4,2,1,55,0,0
86419,-200,4,2,1,60,0,0
86948,-200,4,2,1,40,0,0
92860,-100,4,2,1,50,0,0
93742,-100,4,2,1,60,0,1
116330,-100,4,2,1,50,0,0
127448,-100,4,2,1,40,0,0
128860,-200,4,2,1,40,0,0
129389,-100,4,2,1,40,0,0
131507,-200,4,2,1,40,0,0
132036,-100,4,2,1,40,0,0
134507,-200,4,2,1,40,0,0
135036,-100,4,2,1,40,0,0
138830,-200,4,1,1,50,0,0
161330,-200,4,2,1,50,0,0
172713,-200,4,2,1,40,0,0
172889,-200,4,2,1,50,0,0
176419,-200,4,2,1,55,0,0
176772,-200,4,2,1,60,0,0
177301,-200,4,2,1,40,0,0
183036,-100,4,2,1,50,0,0
184095,-200,4,2,1,50,0,0
205625,-100,4,2,1,50,0,0
206683,-100,4,2,1,50,0,1
229272,-100,4,2,1,50,0,0

[Colours]
Combo1 : 128,0,255
Combo2 : 255,0,0
Combo3 : 255,255,0
Combo4 : 0,255,0
Combo5 : 0,0,255

[HitObjects]
104,104,25977,2,0,B|200:104,1,85,4|0
272,104,26330,1,8
272,104,26507,1,0
316,31,26683,2,0,B|396:111|300:199,1,170,0|8
232,181,27213,2,0,B|152:261|248:349,1,170
312,328,27742,2,0,B|408:312,1,85,8|0
352,240,28095,2,0,B|448:224,1,85
392,152,28448,5,8
392,152,28625,1,0
392,64,28801,2,0,B|320:64|320:152|216:152,1,170,0|8
249,148,29330,1,0
164,148,29507,2,0,B|76:148,2,85,0|0|8
208,224,30036,2,0,B|208:304|336:304|309:183,1,170,2|0
312,136,30566,2,0,B|312:40,1,85,8|0
384,104,30919,2,0,B|384:192,1,85
384,272,31272,6,0,B|336:264|312:224,1,85,8|0
240,184,31625,1,4
240,184,31801,1,0
160,152,31977,1,8
160,152,32154,1,0
80,136,32330,2,0,B|80:312,1,170,0|8
80,306,32860,2,0,B|168:336|256:304,1,170,2|0
328,288,33389,2,0,B|432:264,1,85,8|0
413,183,33742,2,0,B|325:204,1,85
248,224,34095,5,8
160,152,34272,1,0
248,80,34448,2,0,B|296:72|334:81,1,85
376,152,34801,2,0,B|424:160|464:152,1,85,8|0
416,80,35154,2,0,B|379:72|330:81,1,85
248,80,35507,1,8
248,168,35683,2,0,B|248:272|360:272,1,170,2|0
440,272,36213,2,0,B|480:192,1,85,8|0
384,96,36566,2,0,B|345:172,1,85
256,320,36919,5,8
256,192,37095,1,0
256,64,37272,1,4
256,104,42566,5,8
256,104,42742,1,0
256,104,42919,2,0,B|344:96|432:104,1,170,4|8
424,192,43448,1,0
424,280,43625,2,0,B|342:287|254:279,1,170,0|8
256,280,44154,2,0,B|174:287|86:279,1,170,2|0
32,216,44683,2,0,B|64:168|72:128,1,85,8|0
112,56,45036,2,0,B|117:84|149:132,1,85
192,216,45389,2,0,B|224:168|232:128,1,85,8|0
291,81,45742,5,0
376,81,45919,1,0
435,141,46095,1,8
445,225,46272,1,0
407,300,46448,1,0
327,331,46625,1,0
243,317,46801,1,8
243,317,46978,1,4
256,192,47154,12,0,48213
154,192,48566,6,0,B|186:120|255:104|324:120|354:193,1,255,4|8
352,189,49801,1,0
352,256,49978,2,0,B|448:256,2,85,0|0|8
283,256,50507,1,0
144,256,50860,2,0,B|48:256,1,85,0|8
212,257,51389,5,0
178,197,51566,1,0
211,138,51742,1,8
179,77,51919,1,0
384,80,52448,5,8
384,80,52801,2,0,B|416:152|376:216,2,127.5,0|0|8
256,96,54213,2,0,B|256:192,1,85
256,181,54566,2,0,B|256:280,1,85,8|0
128,80,55272,5,8
128,80,55625,2,0,B|96:152|136:216,2,127.5,0|0|8
256,269,57036,2,0,B|256:181,1,85
256,184,57389,2,0,B|256:93,1,85,8|0
184,272,57919,5,0
256,320,58095,1,8
328,272,58272,1,0
352,192,58448,2,0,B|368:144|368:104,1,85
160,192,58801,2,0,B|144:144|144:104,1,85,8|0
256,184,59330,5,0
256,256,59507,1,8
256,184,59683,1,0
150,154,59860,6,0,B|182:90|258:75|335:90|369:170,1,255,4|8
360,153,61095,1,0
392,216,61272,2,0,B|392:312,1,85
392,301,61625,1,8
392,301,61801,1,0
256,288,62154,5,0
192,304,62330,1,8
128,288,62507,1,0
96,232,62683,2,0,B|96:144,1,85
208,72,63036,2,0,B|208:160,1,85,8|0
424,136,63742,5,8
480,216,64095,2,0,B|424:264|360:215,2,127.5,0|0|8
408,88,65507,2,0,B|368:112|320:120,1,85
104,88,65860,2,0,B|144:112|192:120,1,85,8|0
256,312,66389,5,0
256,312,66566,2,0,B|256:224,1,85,8|0
256,160,66919,2,0,B|256:64,3,85,0|0|8|0
96,192,67801,5,0
96,192,67889,1,0
96,192,67978,2,0,B|152:184|176:160,1,85,8|0
240,112,68330,2,0,B|280:88|328:80,1,85
296,168,68683,2,0,B|352:160|384:128,1,85,8|0
384,56,69036,2,0,B|424:32|472:24,1,85
432,104,69389,2,0,B|488:96|520:64,1,85,8|0
256,192,69742,12,4,70801
168,152,71154,5,4
256,104,71683,1,0
344,152,72213,1,2
317,214,72566,2,0,B|253:246|191:211,2,127.5,2|0|2
381,190,73978,6,0,B|421:167|466:168,1,85,0|2
462,167,74507,1,0
496,112,74860,1,2
432,112,75213,1,0
398,112,75389,2,0,B|360:103|323:126|301:106,3,85,0|2|0|2
245,113,76801,6,0,B|195:112|150:125|121:158,1,127.5,2|0
100,250,77860,2,0,B|112:296|144:328|192:336|244:332|280:296|290:241,1,255,2|0
192,160,79625,2,0,B|216:112|264:112|288:160|288:160|424:160,1,255,2|2
417,160,80860,1,0
417,160,81036,6,0,B|416:256,1,85,0|2
392,272,81566,1,0
368,296,81742,2,0,B|264:296,1,85,0|2
248,296,82272,1,0
216,296,82448,5,4
160,216,82978,1,0
216,128,83507,1,2
280,148,83860,2,0,B|312:212|277:274,2,127.5,0|0|2
348,147,85272,6,0,B|436:147,1,85,0|2
433,147,85801,1,0
433,147,86154,1,2
433,147,86507,1,2
376,64,87036,2,0,B|332:80|288:64,2,85,2|0|2
256,192,88095,12,4,92330
144,192,93036,5,4
256,80,93213,1,0
368,192,93389,1,4
256,304,93566,1,0
80,280,93742,6,0,B|80:184,1,85,0|0
80,112,94095,1,8
208,224,94448,6,0,B|208:128,1,85,0|0
208,56,94801,1,8
344,160,95154,5,0
432,160,95330,1,0
432,160,95419,1,0
432,160,95507,2,0,B|432:216|384:240,1,85,8|0
321,273,95860,1,0
239,295,96036,1,0
153,298,96213,1,8
73,269,96389,1,0
32,192,96566,6,0,B|128:88,1,127.5,0|2
152,80,96919,2,0,B|288:48,1,127.5,8|2
320,56,97272,2,0,B|448:112,1,127.5,0|2
464,144,97625,2,0,B|472:280,1,127.5,8|2
440,304,97978,2,0,B|264:328,1,170,0|8
271,326,98507,1,0
192,296,98683,2,0,B|192:240,2,42.5,2|0|0
112,328,99036,1,8
112,328,99213,1,0
48,272,99389,5,4
88,200,99566,2,0,B|48:160,2,42.5,0|0|8
152,144,99919,1,0
232,120,100095,2,0,B|272:112|320:120,1,85
392,168,100448,2,0,B|356:175|308:167,1,85,8|0
360,232,100801,5,2
360,232,100889,1,0
360,232,100978,1,0
272,232,101154,2,0,B|224:240|184:232,1,85,8|0
104,216,101507,1,0
104,216,101683,1,0
40,160,101860,5,8
40,160,102036,2,0,B|72:72|144:32|216:32,1,212.5,0|2
240,32,102566,2,0,B|376:32,1,127.5,8|2
384,72,102919,2,0,B|248:72,1,127.5,0|2
280,112,103272,2,0,B|416:112,1,127.5,8|2
432,144,103625,5,4
376,224,103801,1,0
296,168,103978,1,8
256,264,104154,1,0
168,208,104330,1,2
168,208,104419,1,0
168,208,104507,1,0
128,304,104683,2,0,B|48:256,1,85,8|0
48,176,105036,6,0,B|136:152|224:160,1,170,4|8
304,168,105566,1,0
384,184,105742,1,0
464,216,105919,2,0,B|520:216,2,42.5,0|0|8
400,272,106272,6,0,B|384:320|336:344,1,85
264,328,106625,1,0
176,336,106801,2,0,B|141:319|125:271,1,85,8|0
104,184,107154,2,0,B|112:128|136:104,2,85,0|0|8
184,152,107683,5,0
184,152,107860,2,0,B|264:120|360:152,1,170,0|8
350,149,108389,1,2
488,248,108742,1,2
344,336,109095,2,0,B|256:352|168:336,1,170,2|0
104,288,109625,5,8
104,288,109801,1,0
80,208,109978,1,0
80,208,110154,1,0
104,128,110330,1,8
104,128,110507,1,0
176,80,110683,6,0,B|352:80,1,170
346,80,111213,1,2
256,224,111566,1,2
176,80,111919,1,2
176,80,112095,6,0,B|128:152,1,85
176,256,112448,2,0,B|223:185,1,85,8|0
344,176,112801,2,0,B|296:248,1,85
344,360,113154,2,0,B|391:289,1,85,8|0
256,192,113507,12,0,114566
256,192,114919,5,4
256,80,115625,5,4
368,192,115801,1,0
256,304,115978,1,4
144,192,116154,1,0
256,192,116330,1,4
56,192,127625,5,4
152,336,127978,1,8
240,192,128330,1,0
328,48,128683,1,8
328,48,128860,2,0,B|384:56|408:80,1,85,2|0
453,127,129389,1,8
472,192,129566,1,0
463,259,129742,1,0
418,310,129919,1,0
256,320,130095,5,8
256,320,130272,1,0
176,304,130448,2,0,B|136:272|136:224,1,85,4|0
200,176,130801,2,0,B|240:160|256:112,1,85,8|0
280,32,131154,2,0,B|328:32|360:64,1,85
352,144,131507,1,8
352,144,131683,2,0,B|392:184|432:192,1,85,2|0
392,272,132213,2,0,B|304:312,1,85,8|0
264,240,132566,2,0,B|176:280,1,85
104,304,132919,5,8
69,208,133095,1,0
95,109,133272,2,0,B|139:89|191:84,1,85,4|0
252,199,133625,2,0,B|208:219|156:224,1,85
257,117,133978,2,0,B|301:97|353:92,1,85
421,202,134330,1,8
421,202,134507,2,0,B|377:222|325:227,1,85,2|0
272,235,135036,1,8
203,236,135213,1,0
136,224,135389,1,0
73,196,135566,1,0
80,72,135742,5,8
80,72,135919,1,0
168,72,136095,1,4
336,72,136448,1,8
256,224,136801,1,0
256,224,137154,1,2
256,224,137330,1,4
256,192,137507,12,0,138566
24,192,138919,6,0,B|288:192,1,255,4|8
279,192,140154,1,0
320,192,140330,5,0
376,128,140683,1,8
432,192,141036,1,0
376,256,141389,1,8
320,192,141742,5,0
376,256,142095,1,8
432,192,142448,1,0
376,128,142801,1,8
320,192,143154,6,0,B|176:192,2,127.5,0|0|8
384,136,144566,6,0,B|384:80,2,42.5,0|0|8
448,192,145272,2,0,B|496:192,2,42.5,8|0|8
384,248,145978,2,0,B|384:304,2,42.5,0|0|8
328,192,146683,2,0,B|280:192,2,42.5,8|0|8
328,192,147389,5,0
288,176,147566,1,0
248,192,147742,1,8
208,176,147919,1,0
168,192,148095,1,0
128,176,148272,1,0
88,192,148448,1,8
96,280,148801,6,0,B|128:320|176:328,1,85,0|8
208,328,149330,1,0
248,328,149507,2,0,B|285:322|317:282,1,85,8|8
448,192,150213,6,0,B|448:104|376:80|296:104|296:200,1,255,0|8
296,191,151448,1,0
296,232,151625,6,0,B|296:320,1,85,0|8
256,296,152154,1,0
224,272,152330,2,0,B|224:184,1,85,0|8
192,160,152860,1,0
152,136,153036,2,0,B|152:224,1,85,0|8
112,240,153566,1,0
72,264,153742,2,0,B|72:160,1,85,0|8
40,152,154272,1,0
8,128,154448,6,0,B|16:64|96:40,2,127.5,0|0|8
80,168,155860,5,0
80,168,156036,1,0
80,168,156213,1,8
152,216,156566,1,8
152,216,156742,1,0
152,216,156919,1,8
216,168,157272,5,0
216,168,157448,1,0
216,168,157625,1,8
288,216,157978,1,8
288,216,158154,1,0
288,216,158330,1,8
256,192,158683,12,0,161154
40,120,161507,6,0,B|104:152|168:120,1,127.5,4|2
256,80,162566,1,0
256,80,162919,1,2
349,122,163448,2,0,B|408:152|472:120,1,127.5,0|2
472,192,164330,6,0,B|472:280,1,85,0|2
472,277,164860,1,0
424,328,165213,1,2
376,280,165566,1,0
344,280,165742,2,0,B|304:288|256:280,1,85,0|2
192,280,166448,2,0,B|152:272|104:280,1,85,0|2
48,248,167154,6,0,B|48:168|128:168,1,127.5
224,168,168213,2,0,B|360:168|360:168|408:176|440:200|448:256,1,255,2|2
344,336,169978,2,0,B|302:330|278:298|270:250|270:250|270:114,1,255,0|2
270,116,171213,1,0
304,116,171389,6,0,B|364:116,3,42.5,0|0|2|0
380,115,172095,2,0,B|440:115,3,42.5,0|0|2|0
456,117,172801,6,0,B|456:192|456:192|455:236|410:236,1,127.5,4|2
327,234,173860,1,0
327,234,174213,1,2
225,235,174742,2,0,B|199:236|198:193|198:193|198:118,1,127.5,0|2
200,56,175625,6,0,B|144:56|112:72,1,85,0|2
116,69,176154,1,0
116,69,176507,1,2
116,69,176860,1,2
48,144,177389,2,0,B|32:192|48:240,2,85,0|2|0
256,192,178448,12,4,182683
72,192,183389,5,4
192,192,183566,1,0
312,192,183742,1,4
432,192,183919,1,0
432,192,184095,5,4
376,64,184801,2,0,B|312:48|240:64,1,127.5,2|0
216,64,185507,2,0,B|128:64,1,85,0|2
96,120,186213,2,0,B|192:120,1,85,0|2
249,120,186919,5,0
317,120,187272,1,2
381,140,187625,1,2
429,187,187978,1,2
429,187,188154,1,0
429,187,188330,2,0,B|461:233|469:267,1,85,2|2
467,262,188860,1,2
72,299,189742,6,0,B|169:289|228:226,1,170,2|2
291,153,190978,1,0
328,152,191154,2,0,B|328:64,1,85,2|0
384,104,191860,2,0,B|384:200,1,85,0|2
384,189,192389,6,0,B|332:251|270:183,1,127.5,0|2
223,144,193272,1,0
160,116,193625,1,2
95,94,193978,2,0,B|57:73|12:70,1,85,0|2
14,70,194507,1,0
392,296,195389,6,0,B|296:296,1,85,4|2
307,296,195919,1,0
168,296,196625,1,0
168,296,196801,2,0,B|112:280|104:240,1,85,2|0
105,244,197330,1,2
104,112,198036,5,2
104,112,198213,2,0,B|128:64|176:56,1,85,2|0
166,58,198742,1,2
234,58,199095,1,0
301,59,199448,2,0,B|431:59|431:197,1,212.5,2|0
430,191,200683,1,0
256,192,201036,12,0,203507
256,192,203860,5,4
256,192,204566,1,4
256,192,205272,1,4
376,192,205978,5,4
256,312,206154,1,0
136,192,206330,1,4
256,72,206507,1,0
168,72,206683,6,0,B|72:72,1,85,4|0
8,136,207036,1,8
80,192,207213,1,0
160,240,207389,2,0,B|256:240,1,85
328,192,207742,1,8
400,136,207919,1,0
400,232,208095,5,0
328,192,208272,1,0
328,192,208360,1,0
328,192,208448,2,0,B|248:144,1,85,8|0
168,104,208801,1,0
80,144,208978,1,0
80,240,209154,1,8
168,280,209330,1,0
256,240,209507,6,0,B|376:160,1,127.5,0|2
383,127,209860,2,0,B|303:7,1,127.5,8|2
265,29,210213,2,0,B|158:99,1,127.5,0|2
138,142,210566,2,0,B|208:248,1,127.5,8|0
256,248,210919,5,0
256,248,211095,1,0
352,248,211272,1,8
352,248,211448,1,0
448,248,211625,1,2
448,248,211713,1,0
448,248,211801,1,0
400,168,211978,2,0,B|400:80,1,85,8|0
320,128,212330,6,0,B|232:128,1,85,4|0
144,128,212683,1,8
144,128,212860,1,0
192,208,213036,5,0
288,208,213213,1,0
328,208,213301,1,0
368,208,213389,1,8
464,208,213566,1,0
416,128,213742,6,0,B|336:80,1,85
296,168,214095,2,0,B|216:216,1,85,8|0
176,128,214448,2,0,B|96:80,1,85,0|0
72,168,214801,2,0,B|-8:216,1,85,8|0
64,280,215154,5,0
152,296,215330,1,0
248,288,215507,1,8
336,264,215683,1,0
408,208,215860,5,2
408,208,215948,1,0
432,120,216125,1,2
432,120,216213,1,8
344,144,216389,1,2
344,144,216566,6,0,B|264:112,3,85,0|0|8|0
288,200,217272,2,0,B|368:232,3,85,0|0|8|0
448,184,217978,6,0,B|472:280|384:328,1,170,4|8
296,344,218507,1,0
208,328,218683,2,0,B|121:281|145:185,1,170,0|8
192,104,219213,6,0,B|216:64|264:48,1,85
328,104,219566,1,0
400,56,219742,1,8
400,56,219919,1,0
400,152,220095,5,0
352,248,220272,1,0
256,304,220448,1,8
144,320,220625,1,0
144,320,220801,2,0,B|64:288|48:184,1,170,0|8
48,188,221330,2,0,B|48:96|136:48,2,170
48,188,222213,6,0,B|136:176,1,85
192,248,222566,2,0,B|279:235,1,85,8|0
328,152,222919,1,0
328,152,223095,1,0
400,208,223272,1,8
400,208,223448,1,0
328,152,223625,6,0,B|264:88|168:56,1,170,0|8
96,200,224154,2,0,B|159:263|238:289,2,170
96,200,225036,5,0
160,128,225213,1,0
200,104,225301,1,0
240,96,225389,1,8
336,96,225566,1,0
416,144,225742,2,0,B|400:192|368:216,1,85
200,264,226095,2,0,B|216:216|248:192,1,85,8|0
256,192,226448,12,4,227860
256,304,228566,5,4
144,192,228742,1,0
256,80,228919,1,4
368,192,229095,1,0
256,192,229272,1,4
