osu file format v8

[General]
AudioFilename: Lucid Dream.mp3
AudioLeadIn: 0
PreviewTime: 93043
Countdown: 0
SampleSet: Soft
StackLeniency: 0.7
Mode: 0
LetterboxInBreaks: 0

[Editor]
Bookmarks: 127625,229279
DistanceSpacing: 0.8
BeatDivisor: 4
GridSize: 8

[Metadata]
Title:Lucid Dream
Artist:EastNewSound
Creator:Leorda
Version:Average Power
Source:Touhou
Tags:byakuren hijiri chata th12 undefined fantastic object 0989596108 Neethime

[Difficulty]
HPDrainRate:4
CircleSize:4
OverallDifficulty:4
ApproachRate:4
SliderMultiplier:1.2
SliderTickRate:1

[Events]
//Background and Video events
0,0,"konachan-com-67620-hijiri_byakuren-thighhighs-touhou.jpg"
Video,1833,"eastnewsound-luciddream.avi"
//Break Periods
2,116530,126305
//Storyboard Layer 0 (Background)
//Storyboard Layer 1 (Fail)
//Storyboard Layer 2 (Pass)
//Storyboard Layer 3 (Foreground)
//Storyboard Sound Samples
//Background Colour Transformations
3,100,163,162,255

[TimingPoints]
25978,352.941176470588,4,2,0,100,1,0
93749,-100,4,2,1,100,0,1
116337,-100,4,2,0,100,0,0
206690,-100,4,2,1,100,0,1
229279,-100,4,2,0,100,0,0

[Colours]
Combo1 : 128,0,255
Combo2 : 255,0,0
Combo3 : 255,255,0
Combo4 : 0,255,0
Combo5 : 0,0,255

[HitObjects]
88,192,48566,2,0,B|48:128|120:80,3,120,0|8|0|8
301,87,50330,1,8
464,192,51036,1,8
328,327,51742,5,8
231,327,52095,1,0
134,327,52448,1,8
56,152,53154,5,8
248,152,53860,1,8
344,152,54213,2,2,B|480:152|480:248|336:248|336:248|208:248|208:248|160:248|160:312|232:312,2,480
256,192,57125,12,4,59860
136,48,61272,5,0
136,240,61978,1,2
304,152,62683,2,0,B|384:152|384:64,3,120,0|8|0|8
288,64,64095,5,0
192,56,64448,1,8
120,120,64801,1,2
144,216,65154,1,8
224,264,65507,2,0,B|408:352|496:136|360:112|240:56|216:208,2,480
128,240,68683,5,8
112,144,69036,1,2
128,56,69389,1,8
256,192,69742,12,0,71154
256,120,71507,6,0,B|192:120|192:224,1,120,8|0
272,232,72213,1,8
360,208,72566,1,0
400,128,72919,1,8
360,48,73272,1,0
264,24,73625,1,8
168,40,73978,6,0,B|128:48|136:128|192:136,1,120,0|8
88,152,74683,1,0
160,216,75036,1,8
256,200,75389,2,0,B|320:176|264:128|344:112,1,120,0|8
360,208,76095,2,0,B|344:272|248:288,1,120,0|8
184,320,76801,5,2
16,224,77507,1,0
48,136,77860,1,8
136,104,78213,1,0
328,112,78919,1,8
256,288,79625,6,2,B|120:288|120:288|64:288|64:208|120:208|120:208|208:208|208:208|248:208|248:136,1,420
96,136,82448,5,4
120,48,82801,1,8
208,8,83154,1,0
296,40,83507,1,8
304,136,83860,2,0,B|296:184|248:192|272:256,1,120,0|8
176,224,84566,2,0,B|120:240|120:192|56:176,1,120,0|8
56,272,85272,5,0
120,336,85625,1,8
208,336,85977,1,0
272,264,86330,1,8
208,192,86683,2,0,B|160:128|112:200,3,120,0|8|0|8
256,192,88095,12,4,92330
120,48,93742,6,0,B|152:104|80:104|128:176,1,120,0|8
56,240,94448,1,0
144,272,94801,1,8
232,240,95154,2,0,B|272:192|240:120,1,120,0|8
336,120,95860,2,0,B|312:48|240:40,1,120,0|8
168,80,96566,6,0,B|96:80|96:160,1,120,0|8
96,252,97272,2,0,B|96:328|192:328,1,120,0|8
272,328,97977,2,0,B|348:328|348:252,1,120,0|8
348,157,98683,2,0,B|348:80|276:80,1,120,0|8
256,176,99389,5,2
160,200,99742,1,8
64,224,100095,1,0
80,312,100448,1,8
176,288,100801,2,0,B|304:256,3,120,0|8|0|8
352,184,102213,6,0,B|408:152|392:72,3,120,0|8|0|8
304,120,103625,2,0,B|256:176|272:240,3,120,0|8|0|8
176,208,105036,6,0,B|160:272|72:272,1,120,4|8
72,176,105742,2,0,B|64:112|160:104,1,120,0|8
256,104,106448,1,0
336,152,106801,1,8
336,248,107154,1,0
256,304,107507,1,8
256,208,107860,6,0,B|176:208|112:208,3,120,0|8|0|8
136,304,109272,2,0,B|272:304,3,120,0|8|0|8
352,288,110683,5,2
392,200,111036,1,8
384,112,111389,1,2
312,48,111742,1,8
224,40,112095,1,0
152,96,112448,1,8
128,176,112801,1,2
160,256,113154,1,8
232,320,113507,6,2,B|352:272|248:104|424:32,1,360
256,192,114919,12,4,116330
104,40,127625,6,0,B|48:88|112:152,1,120,4|8
176,208,128330,1,0
272,232,128683,1,8
368,208,129036,1,0
432,136,129389,1,8
448,40,129742,1,0
256,32,130448,6,0,B|192:32|192:128,1,120,0|8
192,213,131154,2,0,B|192:298|128:298,1,120,0|8
88,216,131860,2,0,B|24:216|24:120,1,120,0|8
104,80,132566,2,0,B|189:79|189:143,1,120,0|8
256,192,133272,12,4,137330
88,192,138919,6,0,B|64:136|144:96,1,120,0|8
64,48,139625,1,0
160,24,139977,1,8
224,96,140330,1,0
216,192,140683,1,8
136,248,141036,1,0
48,216,141389,1,8
16,128,141742,2,0,B|80:88|144:104,3,120,0|8|0|8
224,112,143154,5,0
304,168,143507,1,8
344,256,143860,1,2
288,336,144213,1,8
192,360,144566,2,0,B|120:320|112:248,1,120,0|8
112,176,145272,2,0,B|104:104|168:72,1,120,0|8
256,48,145977,2,0,B|320:24|392:56,1,120,0|8
448,112,146683,2,0,B|496:176|440:240,1,120,0|8
256,192,147389,12,4,150213
96,40,151625,6,0,C|72:64|112:88|80:104,1,120,0|8
176,128,152330,2,0,C|152:152|192:176|160:192,1,120,0|8
256,216,153036,2,0,C|232:240|272:264|240:280,1,120,0|8
336,304,153742,2,0,C|312:328|352:352|320:368,1,120,0|8
232,360,154448,5,0
152,328,154801,1,8
112,248,155154,1,0
144,160,155507,1,8
232,120,155860,2,0,B|232:40|320:40|320:40|320:136|320:136|320:216|320:216|400:216|400:128,2,420,0|0|0
232,216,158683,1,2
39,216,159389,1,0
256,192,160095,12,4,161507
176,80,162213,1,0
120,160,162566,1,0
176,240,162919,1,0
368,240,163625,1,0
424,160,163978,1,0
368,80,164331,1,0
176,80,165036,6,0,B|128:208|240:144|168:328,2,240
360,40,167154,6,0,B|416:96|352:160,1,120
448,192,167860,2,0,B|504:248|440:312,1,120
360,328,168566,2,0,B|328:264|272:240|200:264|168:336,1,240
48,184,169977,2,0,B|56:112|80:48|152:16|256:32|304:64|312:208,1,420
120,224,172801,6,0,B|120:280|184:288|248:288|240:208,2,180
88,136,174213,1,0
136,56,174566,1,0
224,24,174919,1,0
320,48,175272,1,0
400,104,175625,2,0,B|463:96|463:160|455:224|399:224,2,180,0|0|0
240,208,177389,5,0
240,208,177742,1,0
240,208,178095,1,0
256,192,178448,12,4,182683
192,352,184095,5,4
104,304,184448,1,2
72,216,184801,1,0
104,128,185154,1,2
192,88,185507,1,0
280,128,185860,1,2
312,216,186213,1,0
280,304,186566,1,2
208,240,186919,6,0,B|121:123,3,120,0|2|0|2
232,160,188330,2,0,B|328:72,3,120,0|2|0|2
344,176,189742,5,0
456,16,190448,1,2
263,16,191154,1,0
152,176,191860,1,2
368,224,192566,6,0,B|368:152|368:152|368:96|280:96|280:168|280:168|280:224|280:224|280:320|136:320|192:160|192:160,2,480,0|2|4
224,96,196095,5,2
32,96,196801,1,0
32,288,197507,1,2
224,288,198213,5,0
416,288,198919,1,2
416,96,199625,1,0
224,96,200330,1,2
256,192,201036,12,4,205272
176,296,206683,5,0
96,248,207036,1,8
96,152,207389,1,0
176,96,207742,1,8
256,144,208095,1,0
256,240,208448,1,8
336,288,208801,1,0
416,240,209154,1,8
416,143,209507,6,0,B|416:8|224:8,2,240,0|2|0
319,143,211272,1,8
222,143,211625,1,2
126,143,211977,1,8
126,239,212330,6,2,B|344:240|344:240|400:240|472:240|472:344|392:344|392:344|320:344,2,480
88,152,215507,1,8
144,72,215860,1,0
240,48,216213,1,8
312,112,216566,1,0
336,208,216919,1,8
272,280,217272,1,0
176,288,217625,1,8
216,200,217977,6,0,B|224:120|128:120,1,120,4|8
104,208,218683,2,0,B|80:272|-8:240,1,120,0|8
32,152,219389,2,0,B|24:72|112:56,1,120,0|8
152,136,220095,2,0,B|216:136|224:224,1,120,0|8
320,216,220801,5,2
392,152,221154,1,8
416,56,221507,1,0
496,104,221860,1,8
472,200,222213,1,0
416,280,222566,1,8
328,320,222919,1,0
232,304,223272,1,8
135,304,223625,6,2,B|136:144|136:144|136:80|40:80|40:144|40:144|47:208|215:184,2,480
224,264,226801,1,8
304,216,227154,1,0
368,144,227507,1,8
256,192,227860,12,4,229272
