osu file format v13

[General]
AudioFilename: Lucid Dream.mp3
AudioLeadIn: 0
PreviewTime: -1
Countdown: 0
SampleSet: Normal
StackLeniency: 0.7
Mode: 3
LetterboxInBreaks: 1
SpecialStyle: 0
WidescreenStoryboard: 1

[Editor]
DistanceSpacing: 1.2
BeatDivisor: 4
GridSize: 4
TimelineZoom: 2.599999

[Metadata]
Title:Lucid Dream
TitleUnicode:Lucid Dream
Artist:EastNewSound
ArtistUnicode:EastNewSound
Creator:Entozer
Version:T3
Source:
Tags:
BeatmapID:454532
BeatmapSetID:190916

[Difficulty]
HPDrainRate:9
CircleSize:7
OverallDifficulty:8
ApproachRate:5
SliderMultiplier:1.4
SliderTickRate:1

[Events]
//Background and Video events
//Break Periods
2,103413,175425
//Storyboard Layer 0 (Background)
//Storyboard Layer 1 (Fail)
//Storyboard Layer 2 (Pass)
//Storyboard Layer 3 (Foreground)
//Storyboard Sound Samples
//Background Colour Transformations
3,100,163,162,255

[TimingPoints]
155,352.941176470588,4,1,0,5,1,0
182272,-400,4,1,0,5,0,0

[HitObjects]
256,192,1213,5,0,0:0:0:0:
329,192,1390,1,0,0:0:0:0:
402,192,1566,1,0,0:0:0:0:
329,192,1743,1,0,0:0:0:0:
256,192,1919,1,0,0:0:0:0:
182,192,2096,1,0,0:0:0:0:
109,192,2272,1,0,0:0:0:0:
182,192,2449,1,0,0:0:0:0:
329,192,2625,1,0,0:0:0:0:
475,192,2802,1,0,0:0:0:0:
402,192,3154,1,0,0:0:0:0:
329,192,3331,1,0,0:0:0:0:
256,192,3507,1,0,0:0:0:0:
182,192,3684,1,0,0:0:0:0:
109,192,3860,1,0,0:0:0:0:
256,192,4037,1,0,0:0:0:0:
329,192,4213,1,0,0:0:0:0:
402,192,4390,1,0,0:0:0:0:
329,192,4566,1,0,0:0:0:0:
256,192,4743,1,0,0:0:0:0:
182,192,4919,1,0,0:0:0:0:
109,192,5096,1,0,0:0:0:0:
182,192,5272,1,0,0:0:0:0:
329,192,5449,1,0,0:0:0:0:
475,192,5625,1,0,0:0:0:0:
402,192,5978,1,0,0:0:0:0:
329,192,6154,1,0,0:0:0:0:
256,192,6331,1,0,0:0:0:0:
182,192,6507,1,0,0:0:0:0:
109,192,6684,1,0,0:0:0:0:
256,192,6860,1,0,0:0:0:0:
329,192,7037,1,0,0:0:0:0:
402,192,7213,1,0,0:0:0:0:
329,192,7390,1,0,0:0:0:0:
256,192,7566,1,0,0:0:0:0:
182,192,7743,1,0,0:0:0:0:
109,192,7919,1,0,0:0:0:0:
182,192,8096,1,0,0:0:0:0:
329,192,8272,1,0,0:0:0:0:
475,192,8449,1,0,0:0:0:0:
402,192,8802,1,0,0:0:0:0:
329,192,8978,1,0,0:0:0:0:
256,192,9154,1,0,0:0:0:0:
182,192,9331,1,0,0:0:0:0:
109,192,9507,1,0,0:0:0:0:
256,192,9684,1,0,0:0:0:0:
329,192,9860,1,0,0:0:0:0:
402,192,10037,1,0,0:0:0:0:
329,192,10213,1,0,0:0:0:0:
256,192,10390,1,0,0:0:0:0:
182,192,10566,1,0,0:0:0:0:
109,192,10743,1,0,0:0:0:0:
182,192,10919,1,0,0:0:0:0:
329,192,11096,1,0,0:0:0:0:
475,192,11272,1,0,0:0:0:0:
402,192,11625,1,0,0:0:0:0:
329,192,11802,5,0,0:0:0:0:
256,192,11978,1,0,0:0:0:0:
182,192,12154,1,0,0:0:0:0:
109,192,12331,1,0,0:0:0:0:
256,192,12507,1,0,0:0:0:0:
329,192,12684,1,0,0:0:0:0:
109,192,12860,5,0,0:0:0:0:
402,192,12860,1,0,0:0:0:0:
329,192,13037,1,0,0:0:0:0:
36,192,13037,1,0,0:0:0:0:
182,192,13125,1,0,0:0:0:0:
256,192,13213,1,0,0:0:0:0:
36,192,13213,1,0,0:0:0:0:
182,192,13390,1,0,0:0:0:0:
402,192,13390,1,0,0:0:0:0:
329,192,13478,1,0,0:0:0:0:
109,192,13566,1,0,0:0:0:0:
475,192,13566,1,0,0:0:0:0:
329,192,13654,1,0,0:0:0:0:
182,192,13743,1,0,0:0:0:0:
475,192,13743,1,0,0:0:0:0:
329,192,13919,1,0,0:0:0:0:
36,192,13919,1,0,0:0:0:0:
475,192,14096,1,0,0:0:0:0:
182,192,14272,1,0,0:0:0:0:
402,192,14449,1,0,0:0:0:0:
36,192,14449,1,0,0:0:0:0:
329,192,14625,1,0,0:0:0:0:
36,192,14625,1,0,0:0:0:0:
109,192,14625,1,0,0:0:0:0:
256,192,14802,1,0,0:0:0:0:
36,192,14802,1,0,0:0:0:0:
182,192,14978,1,0,0:0:0:0:
475,192,14978,1,0,0:0:0:0:
109,192,15154,1,0,0:0:0:0:
329,192,15154,1,0,0:0:0:0:
256,192,15331,1,0,0:0:0:0:
182,192,15331,1,0,0:0:0:0:
329,192,15507,1,0,0:0:0:0:
402,192,15684,1,0,0:0:0:0:
109,192,15684,1,0,0:0:0:0:
182,192,15684,1,0,0:0:0:0:
36,192,15772,1,0,0:0:0:0:
329,192,15860,1,0,0:0:0:0:
182,192,15860,1,0,0:0:0:0:
36,192,15949,1,0,0:0:0:0:
256,192,16037,1,0,0:0:0:0:
475,192,16037,128,0,16213:0:0:0:0:
182,192,16213,1,0,0:0:0:0:
402,192,16213,1,0,0:0:0:0:
109,192,16390,1,0,0:0:0:0:
329,192,16390,1,0,0:0:0:0:
182,192,16566,1,0,0:0:0:0:
475,192,16566,128,0,16743:0:0:0:0:
329,192,16743,1,0,0:0:0:0:
36,192,16743,1,0,0:0:0:0:
475,192,16919,1,0,0:0:0:0:
182,192,16919,1,0,0:0:0:0:
256,192,17096,1,0,0:0:0:0:
402,192,17272,1,0,0:0:0:0:
36,192,17272,1,0,0:0:0:0:
182,192,17360,1,0,0:0:0:0:
329,192,17449,1,0,0:0:0:0:
36,192,17449,1,0,0:0:0:0:
109,192,17449,1,0,0:0:0:0:
256,192,17625,1,0,0:0:0:0:
475,192,17713,1,0,0:0:0:0:
182,192,17802,1,0,0:0:0:0:
329,192,17802,1,0,0:0:0:0:
475,192,17890,1,0,0:0:0:0:
109,192,17978,1,0,0:0:0:0:
329,192,17978,1,0,0:0:0:0:
256,192,18154,1,0,0:0:0:0:
475,192,18154,1,0,0:0:0:0:
329,192,18331,1,0,0:0:0:0:
402,192,18507,1,0,0:0:0:0:
109,192,18507,1,0,0:0:0:0:
329,192,18684,1,0,0:0:0:0:
36,192,18684,1,0,0:0:0:0:
182,192,18772,1,0,0:0:0:0:
256,192,18860,1,0,0:0:0:0:
36,192,18860,1,0,0:0:0:0:
182,192,19037,1,0,0:0:0:0:
402,192,19037,1,0,0:0:0:0:
329,192,19125,1,0,0:0:0:0:
109,192,19213,1,0,0:0:0:0:
475,192,19213,1,0,0:0:0:0:
329,192,19302,1,0,0:0:0:0:
182,192,19390,1,0,0:0:0:0:
475,192,19390,1,0,0:0:0:0:
329,192,19566,1,0,0:0:0:0:
36,192,19566,1,0,0:0:0:0:
475,192,19743,1,0,0:0:0:0:
182,192,19919,1,0,0:0:0:0:
402,192,20096,1,0,0:0:0:0:
36,192,20096,1,0,0:0:0:0:
329,192,20272,1,0,0:0:0:0:
36,192,20272,1,0,0:0:0:0:
109,192,20272,1,0,0:0:0:0:
256,192,20449,1,0,0:0:0:0:
36,192,20449,1,0,0:0:0:0:
182,192,20625,1,0,0:0:0:0:
475,192,20625,1,0,0:0:0:0:
109,192,20802,1,0,0:0:0:0:
329,192,20802,1,0,0:0:0:0:
256,192,20978,1,0,0:0:0:0:
182,192,20978,1,0,0:0:0:0:
329,192,21154,1,0,0:0:0:0:
402,192,21331,1,0,0:0:0:0:
182,192,21331,1,0,0:0:0:0:
109,192,21331,1,0,0:0:0:0:
36,192,21419,1,0,0:0:0:0:
329,192,21507,1,0,0:0:0:0:
182,192,21507,1,0,0:0:0:0:
36,192,21596,1,0,0:0:0:0:
256,192,21684,1,0,0:0:0:0:
475,192,21684,128,0,21860:0:0:0:0:
182,192,21860,1,0,0:0:0:0:
402,192,21860,1,0,0:0:0:0:
109,192,22037,1,0,0:0:0:0:
329,192,22037,1,0,0:0:0:0:
182,192,22213,1,0,0:0:0:0:
475,192,22213,128,0,22390:0:0:0:0:
329,192,22390,1,0,0:0:0:0:
36,192,22390,1,0,0:0:0:0:
475,192,22566,1,0,0:0:0:0:
182,192,22566,1,0,0:0:0:0:
256,192,22743,1,0,0:0:0:0:
402,192,22919,1,0,0:0:0:0:
36,192,22919,1,0,0:0:0:0:
182,192,23007,1,0,0:0:0:0:
329,192,23096,1,0,0:0:0:0:
36,192,23096,1,0,0:0:0:0:
109,192,23096,1,0,0:0:0:0:
256,192,23272,1,0,0:0:0:0:
475,192,23360,1,0,0:0:0:0:
182,192,23449,1,0,0:0:0:0:
329,192,23449,1,0,0:0:0:0:
475,192,23537,1,0,0:0:0:0:
109,192,23625,1,0,0:0:0:0:
329,192,23625,1,0,0:0:0:0:
475,192,23802,1,0,0:0:0:0:
256,192,23802,128,0,23978:0:0:0:0:
329,192,23802,1,0,0:0:0:0:
329,192,23978,128,0,24154:0:0:0:0:
402,192,23978,1,0,0:0:0:0:
402,192,24154,1,0,0:0:0:0:
36,192,24154,1,0,0:0:0:0:
182,192,24154,1,0,0:0:0:0:
109,192,24154,1,0,0:0:0:0:
475,192,24154,128,0,24331:0:0:0:0:
329,192,24331,1,0,0:0:0:0:
36,192,24331,1,0,0:0:0:0:
402,192,24331,128,0,24507:0:0:0:0:
182,192,24419,1,0,0:0:0:0:
256,192,24507,1,0,0:0:0:0:
109,192,24507,1,0,0:0:0:0:
36,192,24507,1,0,0:0:0:0:
329,192,24507,128,0,24684:0:0:0:0:
182,192,24684,1,0,0:0:0:0:
475,192,24684,1,0,0:0:0:0:
109,192,24684,128,0,24860:0:0:0:0:
36,192,24772,1,0,0:0:0:0:
256,192,24860,1,0,0:0:0:0:
475,192,24860,1,0,0:0:0:0:
402,192,24860,1,0,0:0:0:0:
182,192,24860,128,0,25037:0:0:0:0:
36,192,24949,1,0,0:0:0:0:
109,192,24949,1,0,0:0:0:0:
329,192,25037,1,0,0:0:0:0:
256,192,25037,128,0,25213:0:0:0:0:
402,192,25037,1,0,0:0:0:0:
182,192,25213,1,0,0:0:0:0:
36,192,25213,1,0,0:0:0:0:
402,192,25213,128,0,25390:0:0:0:0:
475,192,25213,1,0,0:0:0:0:
329,192,25213,1,0,0:0:0:0:
475,192,25390,128,0,25743:0:0:0:0:
256,192,25566,1,0,0:0:0:0:
182,192,25566,1,0,0:0:0:0:
109,192,25743,1,0,0:0:0:0:
329,192,25743,1,0,0:0:0:0:
36,192,25743,128,0,25919:0:0:0:0:
182,192,25919,1,0,0:0:0:0:
329,192,25919,1,0,0:0:0:0:
256,192,25919,1,0,0:0:0:0:
402,192,25919,1,0,0:0:0:0:
109,192,25919,128,0,26096:0:0:0:0:
256,192,26096,1,0,0:0:0:0:
475,192,26096,1,0,0:0:0:0:
182,192,26096,128,0,26272:0:0:0:0:
36,192,26184,1,0,0:0:0:0:
329,192,26272,1,0,0:0:0:0:
402,192,26272,1,0,0:0:0:0:
475,192,26272,1,0,0:0:0:0:
256,192,26272,128,0,26449:0:0:0:0:
109,192,26360,1,0,0:0:0:0:
36,192,26360,1,0,0:0:0:0:
402,192,26449,1,0,0:0:0:0:
329,192,26449,128,0,26625:0:0:0:0:
475,192,26625,1,0,0:0:0:0:
182,192,26625,1,0,0:0:0:0:
402,192,26625,1,0,0:0:0:0:
36,192,26625,1,0,0:0:0:0:
109,192,26625,128,0,26802:0:0:0:0:
36,192,26802,1,0,0:0:0:0:
182,192,26802,128,0,26978:0:0:0:0:
402,192,26978,1,0,0:0:0:0:
109,192,26978,1,0,0:0:0:0:
36,192,26978,1,0,0:0:0:0:
475,192,26978,128,0,27154:0:0:0:0:
182,192,27066,1,0,0:0:0:0:
329,192,27154,1,0,0:0:0:0:
109,192,27154,1,0,0:0:0:0:
36,192,27154,1,0,0:0:0:0:
402,192,27154,128,0,27331:0:0:0:0:
182,192,27243,1,0,0:0:0:0:
256,192,27331,1,0,0:0:0:0:
109,192,27331,1,0,0:0:0:0:
36,192,27331,1,0,0:0:0:0:
475,192,27331,1,0,0:0:0:0:
329,192,27331,128,0,27507:0:0:0:0:
182,192,27507,1,0,0:0:0:0:
475,192,27507,1,0,0:0:0:0:
109,192,27507,128,0,27684:0:0:0:0:
36,192,27596,1,0,0:0:0:0:
256,192,27684,1,0,0:0:0:0:
402,192,27684,1,0,0:0:0:0:
475,192,27684,1,0,0:0:0:0:
182,192,27684,128,0,27860:0:0:0:0:
109,192,27772,1,0,0:0:0:0:
36,192,27772,1,0,0:0:0:0:
329,192,27860,1,0,0:0:0:0:
256,192,27860,128,0,28037:0:0:0:0:
402,192,28037,128,0,28213:0:0:0:0:
182,192,28037,1,0,0:0:0:0:
329,192,28037,1,0,0:0:0:0:
36,192,28037,1,0,0:0:0:0:
475,192,28037,1,0,0:0:0:0:
475,192,28213,128,0,28566:0:0:0:0:
329,192,28213,1,0,0:0:0:0:
256,192,28390,1,0,0:0:0:0:
182,192,28390,1,0,0:0:0:0:
36,192,28566,128,0,28743:0:0:0:0:
109,192,28566,1,0,0:0:0:0:
329,192,28566,1,0,0:0:0:0:
475,192,28654,1,0,0:0:0:0:
109,192,28743,128,0,28919:0:0:0:0:
182,192,28743,1,0,0:0:0:0:
329,192,28743,1,0,0:0:0:0:
182,192,28919,128,0,29096:0:0:0:0:
256,192,28919,1,0,0:0:0:0:
475,192,28919,1,0,0:0:0:0:
36,192,29007,1,0,0:0:0:0:
256,192,29096,128,0,29272:0:0:0:0:
329,192,29096,1,0,0:0:0:0:
475,192,29096,1,0,0:0:0:0:
402,192,29096,1,0,0:0:0:0:
109,192,29184,1,0,0:0:0:0:
36,192,29184,1,0,0:0:0:0:
329,192,29272,128,0,29449:0:0:0:0:
402,192,29272,1,0,0:0:0:0:
475,192,29272,1,0,0:0:0:0:
182,192,29272,1,0,0:0:0:0:
256,192,29449,1,0,0:0:0:0:
182,192,29449,1,0,0:0:0:0:
475,192,29449,1,0,0:0:0:0:
36,192,29449,1,0,0:0:0:0:
109,192,29449,128,0,29625:0:0:0:0:
182,192,29625,128,0,29802:0:0:0:0:
256,192,29625,1,0,0:0:0:0:
475,192,29802,128,0,29978:0:0:0:0:
402,192,29802,1,0,0:0:0:0:
109,192,29802,1,0,0:0:0:0:
36,192,29802,1,0,0:0:0:0:
402,192,29978,128,0,30154:0:0:0:0:
329,192,29978,1,0,0:0:0:0:
109,192,29978,1,0,0:0:0:0:
329,192,30154,128,0,30331:0:0:0:0:
256,192,30154,1,0,0:0:0:0:
36,192,30154,1,0,0:0:0:0:
182,192,30154,1,0,0:0:0:0:
109,192,30331,128,0,30507:0:0:0:0:
182,192,30331,1,0,0:0:0:0:
475,192,30331,1,0,0:0:0:0:
36,192,30419,1,0,0:0:0:0:
182,192,30507,128,0,30684:0:0:0:0:
256,192,30507,1,0,0:0:0:0:
402,192,30507,1,0,0:0:0:0:
475,192,30507,1,0,0:0:0:0:
36,192,30596,1,0,0:0:0:0:
109,192,30596,1,0,0:0:0:0:
256,192,30684,128,0,30860:0:0:0:0:
402,192,30684,1,0,0:0:0:0:
329,192,30684,1,0,0:0:0:0:
402,192,30860,128,0,31037:0:0:0:0:
329,192,30860,1,0,0:0:0:0:
182,192,30860,1,0,0:0:0:0:
36,192,30860,1,0,0:0:0:0:
475,192,31037,128,0,31390:0:0:0:0:
329,192,31037,1,0,0:0:0:0:
256,192,31213,1,0,0:0:0:0:
182,192,31213,1,0,0:0:0:0:
36,192,31390,128,0,31566:0:0:0:0:
109,192,31390,1,0,0:0:0:0:
402,192,31390,1,0,0:0:0:0:
109,192,31566,128,0,31743:0:0:0:0:
182,192,31566,1,0,0:0:0:0:
329,192,31566,1,0,0:0:0:0:
402,192,31566,1,0,0:0:0:0:
182,192,31743,128,0,31919:0:0:0:0:
256,192,31743,1,0,0:0:0:0:
475,192,31743,1,0,0:0:0:0:
36,192,31831,1,0,0:0:0:0:
256,192,31919,128,0,32096:0:0:0:0:
329,192,31919,1,0,0:0:0:0:
402,192,31919,1,0,0:0:0:0:
475,192,31919,1,0,0:0:0:0:
109,192,32007,1,0,0:0:0:0:
36,192,32007,1,0,0:0:0:0:
329,192,32096,128,0,32272:0:0:0:0:
402,192,32096,1,0,0:0:0:0:
182,192,32096,1,0,0:0:0:0:
475,192,32096,1,0,0:0:0:0:
109,192,32272,128,0,32449:0:0:0:0:
182,192,32272,1,0,0:0:0:0:
402,192,32272,1,0,0:0:0:0:
36,192,32272,1,0,0:0:0:0:
182,192,32449,128,0,32625:0:0:0:0:
256,192,32449,1,0,0:0:0:0:
475,192,32625,128,0,32802:0:0:0:0:
402,192,32625,1,0,0:0:0:0:
109,192,32625,1,0,0:0:0:0:
36,192,32625,1,0,0:0:0:0:
182,192,32713,1,0,0:0:0:0:
402,192,32802,128,0,32978:0:0:0:0:
329,192,32802,1,0,0:0:0:0:
109,192,32802,1,0,0:0:0:0:
36,192,32802,1,0,0:0:0:0:
182,192,32890,1,0,0:0:0:0:
329,192,32978,128,0,33154:0:0:0:0:
256,192,32978,1,0,0:0:0:0:
36,192,32978,1,0,0:0:0:0:
109,192,32978,1,0,0:0:0:0:
475,192,32978,1,0,0:0:0:0:
109,192,33154,128,0,33331:0:0:0:0:
182,192,33154,1,0,0:0:0:0:
475,192,33154,1,0,0:0:0:0:
36,192,33243,1,0,0:0:0:0:
182,192,33331,128,0,33507:0:0:0:0:
256,192,33331,1,0,0:0:0:0:
402,192,33331,1,0,0:0:0:0:
475,192,33331,1,0,0:0:0:0:
109,192,33419,1,0,0:0:0:0:
36,192,33419,1,0,0:0:0:0:
256,192,33507,128,0,33684:0:0:0:0:
329,192,33507,1,0,0:0:0:0:
402,192,33507,1,0,0:0:0:0:
475,192,33507,1,0,0:0:0:0:
402,192,33684,128,0,33860:0:0:0:0:
475,192,33684,1,0,0:0:0:0:
182,192,33684,1,0,0:0:0:0:
36,192,33684,1,0,0:0:0:0:
475,192,33860,128,0,34213:0:0:0:0:
329,192,33860,1,0,0:0:0:0:
256,192,34037,1,0,0:0:0:0:
182,192,34037,1,0,0:0:0:0:
36,192,34213,128,0,34390:0:0:0:0:
109,192,34213,1,0,0:0:0:0:
402,192,34213,1,0,0:0:0:0:
475,192,34302,1,0,0:0:0:0:
109,192,34390,128,0,34566:0:0:0:0:
182,192,34390,1,0,0:0:0:0:
402,192,34390,1,0,0:0:0:0:
329,192,34390,1,0,0:0:0:0:
182,192,34566,128,0,34743:0:0:0:0:
256,192,34566,1,0,0:0:0:0:
475,192,34566,1,0,0:0:0:0:
36,192,34654,1,0,0:0:0:0:
256,192,34743,128,0,34919:0:0:0:0:
329,192,34743,1,0,0:0:0:0:
402,192,34743,1,0,0:0:0:0:
475,192,34743,1,0,0:0:0:0:
109,192,34831,1,0,0:0:0:0:
36,192,34831,1,0,0:0:0:0:
329,192,34919,128,0,35096:0:0:0:0:
402,192,34919,1,0,0:0:0:0:
475,192,34919,1,0,0:0:0:0:
182,192,34919,1,0,0:0:0:0:
109,192,35096,128,0,35272:0:0:0:0:
182,192,35096,1,0,0:0:0:0:
256,192,35096,1,0,0:0:0:0:
36,192,35096,1,0,0:0:0:0:
402,192,35096,1,0,0:0:0:0:
182,192,35272,128,0,35449:0:0:0:0:
256,192,35272,1,0,0:0:0:0:
329,192,35272,1,0,0:0:0:0:
329,192,35360,1,0,0:0:0:0:
475,192,35449,128,0,35625:0:0:0:0:
402,192,35449,1,0,0:0:0:0:
256,192,35449,1,0,0:0:0:0:
109,192,35449,1,0,0:0:0:0:
36,192,35449,1,0,0:0:0:0:
402,192,35625,128,0,35802:0:0:0:0:
329,192,35625,1,0,0:0:0:0:
109,192,35625,1,0,0:0:0:0:
182,192,35625,1,0,0:0:0:0:
36,192,35713,1,0,0:0:0:0:
329,192,35802,128,0,35978:0:0:0:0:
256,192,35802,1,0,0:0:0:0:
182,192,35802,1,0,0:0:0:0:
109,192,35802,1,0,0:0:0:0:
475,192,35802,1,0,0:0:0:0:
109,192,35978,128,0,36154:0:0:0:0:
182,192,35978,1,0,0:0:0:0:
475,192,35978,1,0,0:0:0:0:
36,192,36066,1,0,0:0:0:0:
182,192,36154,128,0,36331:0:0:0:0:
256,192,36154,1,0,0:0:0:0:
402,192,36154,1,0,0:0:0:0:
475,192,36154,1,0,0:0:0:0:
109,192,36243,1,0,0:0:0:0:
36,192,36243,1,0,0:0:0:0:
256,192,36331,128,0,36507:0:0:0:0:
329,192,36331,1,0,0:0:0:0:
402,192,36331,1,0,0:0:0:0:
475,192,36331,1,0,0:0:0:0:
402,192,36507,128,0,36684:0:0:0:0:
475,192,36507,1,0,0:0:0:0:
182,192,36507,1,0,0:0:0:0:
109,192,36507,1,0,0:0:0:0:
36,192,36507,1,0,0:0:0:0:
475,192,36684,128,0,37037:0:0:0:0:
329,192,36684,1,0,0:0:0:0:
256,192,36860,1,0,0:0:0:0:
182,192,36860,1,0,0:0:0:0:
36,192,37037,128,0,37213:0:0:0:0:
109,192,37037,1,0,0:0:0:0:
402,192,37037,1,0,0:0:0:0:
109,192,37213,128,0,37390:0:0:0:0:
182,192,37213,1,0,0:0:0:0:
402,192,37213,1,0,0:0:0:0:
475,192,37213,1,0,0:0:0:0:
329,192,37213,1,0,0:0:0:0:
182,192,37390,128,0,37566:0:0:0:0:
256,192,37390,1,0,0:0:0:0:
475,192,37390,1,0,0:0:0:0:
329,192,37390,1,0,0:0:0:0:
36,192,37478,1,0,0:0:0:0:
256,192,37566,128,0,37743:0:0:0:0:
329,192,37566,1,0,0:0:0:0:
475,192,37566,1,0,0:0:0:0:
402,192,37566,1,0,0:0:0:0:
109,192,37654,1,0,0:0:0:0:
36,192,37654,1,0,0:0:0:0:
329,192,37743,128,0,37919:0:0:0:0:
402,192,37743,1,0,0:0:0:0:
475,192,37743,1,0,0:0:0:0:
182,192,37743,1,0,0:0:0:0:
109,192,37919,128,0,38096:0:0:0:0:
182,192,37919,1,0,0:0:0:0:
402,192,37919,1,0,0:0:0:0:
36,192,37919,1,0,0:0:0:0:
182,192,38096,128,0,38272:0:0:0:0:
256,192,38096,1,0,0:0:0:0:
475,192,38272,128,0,38449:0:0:0:0:
402,192,38272,1,0,0:0:0:0:
109,192,38272,1,0,0:0:0:0:
36,192,38272,1,0,0:0:0:0:
182,192,38360,1,0,0:0:0:0:
402,192,38449,128,0,38625:0:0:0:0:
329,192,38449,1,0,0:0:0:0:
109,192,38449,1,0,0:0:0:0:
36,192,38449,1,0,0:0:0:0:
182,192,38537,1,0,0:0:0:0:
329,192,38625,128,0,38802:0:0:0:0:
256,192,38625,1,0,0:0:0:0:
109,192,38625,1,0,0:0:0:0:
36,192,38625,1,0,0:0:0:0:
475,192,38625,1,0,0:0:0:0:
109,192,38802,128,0,38978:0:0:0:0:
182,192,38802,1,0,0:0:0:0:
475,192,38802,1,0,0:0:0:0:
36,192,38890,1,0,0:0:0:0:
182,192,38978,128,0,39154:0:0:0:0:
256,192,38978,1,0,0:0:0:0:
402,192,38978,1,0,0:0:0:0:
475,192,38978,1,0,0:0:0:0:
109,192,39066,1,0,0:0:0:0:
36,192,39066,1,0,0:0:0:0:
256,192,39154,128,0,39331:0:0:0:0:
329,192,39154,1,0,0:0:0:0:
402,192,39154,1,0,0:0:0:0:
475,192,39154,1,0,0:0:0:0:
402,192,39331,128,0,39507:0:0:0:0:
475,192,39331,1,0,0:0:0:0:
182,192,39331,1,0,0:0:0:0:
36,192,39331,1,0,0:0:0:0:
329,192,39331,1,0,0:0:0:0:
475,192,39507,128,0,39860:0:0:0:0:
329,192,39507,1,0,0:0:0:0:
256,192,39684,1,0,0:0:0:0:
182,192,39684,1,0,0:0:0:0:
36,192,39860,128,0,40037:0:0:0:0:
109,192,39860,1,0,0:0:0:0:
402,192,39860,1,0,0:0:0:0:
475,192,39949,1,0,0:0:0:0:
109,192,40037,128,0,40213:0:0:0:0:
182,192,40037,1,0,0:0:0:0:
402,192,40037,1,0,0:0:0:0:
329,192,40037,1,0,0:0:0:0:
182,192,40213,128,0,40390:0:0:0:0:
256,192,40213,1,0,0:0:0:0:
475,192,40213,1,0,0:0:0:0:
402,192,40213,1,0,0:0:0:0:
36,192,40302,1,0,0:0:0:0:
256,192,40390,128,0,40566:0:0:0:0:
329,192,40390,1,0,0:0:0:0:
402,192,40390,1,0,0:0:0:0:
475,192,40390,1,0,0:0:0:0:
109,192,40478,1,0,0:0:0:0:
36,192,40478,1,0,0:0:0:0:
329,192,40566,128,0,40743:0:0:0:0:
402,192,40566,1,0,0:0:0:0:
182,192,40566,1,0,0:0:0:0:
475,192,40566,1,0,0:0:0:0:
109,192,40743,128,0,40919:0:0:0:0:
182,192,40743,1,0,0:0:0:0:
402,192,40743,1,0,0:0:0:0:
36,192,40743,1,0,0:0:0:0:
182,192,40919,128,0,41096:0:0:0:0:
256,192,40919,1,0,0:0:0:0:
475,192,41096,128,0,41272:0:0:0:0:
402,192,41096,1,0,0:0:0:0:
109,192,41096,1,0,0:0:0:0:
36,192,41096,1,0,0:0:0:0:
182,192,41184,1,0,0:0:0:0:
402,192,41272,128,0,41449:0:0:0:0:
329,192,41272,1,0,0:0:0:0:
109,192,41272,1,0,0:0:0:0:
36,192,41272,1,0,0:0:0:0:
182,192,41360,1,0,0:0:0:0:
329,192,41449,128,0,41625:0:0:0:0:
256,192,41449,1,0,0:0:0:0:
109,192,41449,1,0,0:0:0:0:
36,192,41449,1,0,0:0:0:0:
475,192,41449,1,0,0:0:0:0:
109,192,41625,128,0,41802:0:0:0:0:
182,192,41625,1,0,0:0:0:0:
475,192,41625,1,0,0:0:0:0:
36,192,41713,1,0,0:0:0:0:
182,192,41802,128,0,41978:0:0:0:0:
256,192,41802,1,0,0:0:0:0:
402,192,41802,1,0,0:0:0:0:
475,192,41802,1,0,0:0:0:0:
109,192,41890,1,0,0:0:0:0:
36,192,41890,1,0,0:0:0:0:
256,192,41978,128,0,42154:0:0:0:0:
329,192,41978,1,0,0:0:0:0:
402,192,41978,1,0,0:0:0:0:
475,192,41978,1,0,0:0:0:0:
402,192,42154,128,0,42331:0:0:0:0:
475,192,42154,1,0,0:0:0:0:
182,192,42154,1,0,0:0:0:0:
36,192,42154,1,0,0:0:0:0:
329,192,42154,1,0,0:0:0:0:
475,192,42331,128,0,42684:0:0:0:0:
329,192,42331,1,0,0:0:0:0:
182,192,42507,1,0,0:0:0:0:
256,192,42507,1,0,0:0:0:0:
36,192,42684,128,0,42860:0:0:0:0:
109,192,42684,1,0,0:0:0:0:
329,192,42684,1,0,0:0:0:0:
109,192,42860,128,0,43037:0:0:0:0:
182,192,42860,1,0,0:0:0:0:
402,192,42860,1,0,0:0:0:0:
329,192,42860,1,0,0:0:0:0:
182,192,43037,128,0,43213:0:0:0:0:
256,192,43037,1,0,0:0:0:0:
402,192,43037,1,0,0:0:0:0:
475,192,43037,1,0,0:0:0:0:
36,192,43125,1,0,0:0:0:0:
256,192,43213,128,0,43390:0:0:0:0:
329,192,43213,1,0,0:0:0:0:
402,192,43213,1,0,0:0:0:0:
475,192,43213,1,0,0:0:0:0:
109,192,43302,1,0,0:0:0:0:
36,192,43302,1,0,0:0:0:0:
329,192,43390,128,0,43566:0:0:0:0:
402,192,43390,1,0,0:0:0:0:
182,192,43390,1,0,0:0:0:0:
475,192,43390,1,0,0:0:0:0:
109,192,43566,128,0,43743:0:0:0:0:
182,192,43566,1,0,0:0:0:0:
36,192,43566,1,0,0:0:0:0:
475,192,43566,1,0,0:0:0:0:
256,192,43566,1,0,0:0:0:0:
182,192,43743,128,0,43919:0:0:0:0:
256,192,43743,1,0,0:0:0:0:
475,192,43919,128,0,44096:0:0:0:0:
402,192,43919,1,0,0:0:0:0:
36,192,43919,1,0,0:0:0:0:
109,192,43919,1,0,0:0:0:0:
182,192,44007,1,0,0:0:0:0:
402,192,44096,128,0,44272:0:0:0:0:
329,192,44096,1,0,0:0:0:0:
36,192,44096,1,0,0:0:0:0:
109,192,44096,1,0,0:0:0:0:
182,192,44184,1,0,0:0:0:0:
329,192,44272,128,0,44449:0:0:0:0:
256,192,44272,1,0,0:0:0:0:
109,192,44272,1,0,0:0:0:0:
36,192,44272,1,0,0:0:0:0:
475,192,44272,1,0,0:0:0:0:
109,192,44449,128,0,44625:0:0:0:0:
182,192,44449,1,0,0:0:0:0:
402,192,44449,1,0,0:0:0:0:
36,192,44537,1,0,0:0:0:0:
182,192,44625,128,0,44802:0:0:0:0:
256,192,44625,1,0,0:0:0:0:
402,192,44625,1,0,0:0:0:0:
109,192,44713,1,0,0:0:0:0:
36,192,44713,1,0,0:0:0:0:
256,192,44802,128,0,44978:0:0:0:0:
329,192,44802,1,0,0:0:0:0:
402,192,44802,1,0,0:0:0:0:
402,192,44978,128,0,45154:0:0:0:0:
475,192,44978,1,0,0:0:0:0:
182,192,44978,1,0,0:0:0:0:
36,192,44978,1,0,0:0:0:0:
475,192,45154,128,0,46743:0:0:0:0:
329,192,45154,1,0,0:0:0:0:
182,192,45154,1,0,0:0:0:0:
36,192,45154,128,0,46743:0:0:0:0:
256,192,45331,1,0,0:0:0:0:
256,192,45507,1,0,0:0:0:0:
182,192,45684,1,0,0:0:0:0:
329,192,45684,1,0,0:0:0:0:
402,192,45860,1,0,0:0:0:0:
109,192,45949,1,0,0:0:0:0:
329,192,46037,1,0,0:0:0:0:
182,192,46125,1,0,0:0:0:0:
402,192,46213,1,0,0:0:0:0:
256,192,46213,1,0,0:0:0:0:
329,192,46390,1,0,0:0:0:0:
256,192,46390,128,0,46743:0:0:0:0:
182,192,46478,1,0,0:0:0:0:
329,192,46566,1,0,0:0:0:0:
182,192,46654,1,0,0:0:0:0:
329,192,46743,1,0,0:0:0:0:
402,192,46743,1,0,0:0:0:0:
182,192,46743,1,0,0:0:0:0:
109,192,46743,1,0,0:0:0:0:
182,192,46919,1,0,0:0:0:0:
329,192,46919,1,0,0:0:0:0:
475,192,47007,1,0,0:0:0:0:
109,192,47096,1,0,0:0:0:0:
256,192,47096,128,0,47272:0:0:0:0:
402,192,47096,1,0,0:0:0:0:
182,192,47272,1,0,0:0:0:0:
36,192,47360,1,0,0:0:0:0:
182,192,47449,1,0,0:0:0:0:
36,192,47537,1,0,0:0:0:0:
182,192,47625,1,0,0:0:0:0:
329,192,47625,1,0,0:0:0:0:
475,192,47713,1,0,0:0:0:0:
402,192,47802,128,0,47978:0:0:0:0:
256,192,47802,1,0,0:0:0:0:
109,192,47802,1,0,0:0:0:0:
182,192,48154,1,0,0:0:0:0:
402,192,48154,1,0,0:0:0:0:
36,192,48331,1,0,0:0:0:0:
36,192,48507,1,0,0:0:0:0:
329,192,48507,1,0,0:0:0:0:
475,192,48507,1,0,0:0:0:0:
182,192,48507,128,0,48684:0:0:0:0:
329,192,48684,1,0,0:0:0:0:
109,192,48684,1,0,0:0:0:0:
36,192,48684,1,0,0:0:0:0:
475,192,48772,1,0,0:0:0:0:
329,192,48860,1,0,0:0:0:0:
475,192,48949,1,0,0:0:0:0:
109,192,49037,1,0,0:0:0:0:
182,192,49213,1,0,0:0:0:0:
402,192,49213,1,0,0:0:0:0:
256,192,49213,128,0,49390:0:0:0:0:
329,192,49566,1,0,0:0:0:0:
109,192,49566,1,0,0:0:0:0:
182,192,49654,1,0,0:0:0:0:
329,192,49743,1,0,0:0:0:0:
109,192,49743,1,0,0:0:0:0:
256,192,49831,1,0,0:0:0:0:
182,192,49919,1,0,0:0:0:0:
475,192,49919,1,0,0:0:0:0:
36,192,49919,128,0,50096:0:0:0:0:
329,192,50096,1,0,0:0:0:0:
475,192,50184,1,0,0:0:0:0:
182,192,50272,1,0,0:0:0:0:
36,192,50360,1,0,0:0:0:0:
182,192,50449,1,0,0:0:0:0:
256,192,50449,1,0,0:0:0:0:
402,192,50449,1,0,0:0:0:0:
329,192,50493,1,0,0:0:0:0:
475,192,50537,1,0,0:0:0:0:
256,192,50581,1,0,0:0:0:0:
402,192,50625,1,0,0:0:0:0:
109,192,50625,128,0,50802:0:0:0:0:
182,192,50625,1,0,0:0:0:0:
475,192,50978,1,0,0:0:0:0:
182,192,50978,1,0,0:0:0:0:
329,192,51154,1,0,0:0:0:0:
36,192,51243,1,0,0:0:0:0:
475,192,51331,1,0,0:0:0:0:
329,192,51331,1,0,0:0:0:0:
182,192,51331,128,0,51507:0:0:0:0:
402,192,51507,1,0,0:0:0:0:
256,192,51507,1,0,0:0:0:0:
36,192,51507,1,0,0:0:0:0:
182,192,51596,1,0,0:0:0:0:
36,192,51684,1,0,0:0:0:0:
182,192,51772,1,0,0:0:0:0:
329,192,51860,1,0,0:0:0:0:
109,192,51860,1,0,0:0:0:0:
475,192,51949,1,0,0:0:0:0:
256,192,52037,1,0,0:0:0:0:
36,192,52037,1,0,0:0:0:0:
402,192,52037,128,0,52213:0:0:0:0:
182,192,52390,1,0,0:0:0:0:
329,192,52390,1,0,0:0:0:0:
182,192,52566,1,0,0:0:0:0:
329,192,52566,1,0,0:0:0:0:
402,192,52654,1,0,0:0:0:0:
256,192,52743,128,0,52919:0:0:0:0:
36,192,52743,1,0,0:0:0:0:
475,192,52743,1,0,0:0:0:0:
402,192,52919,1,0,0:0:0:0:
109,192,53007,1,0,0:0:0:0:
402,192,53096,1,0,0:0:0:0:
109,192,53184,1,0,0:0:0:0:
182,192,53272,1,0,0:0:0:0:
329,192,53272,1,0,0:0:0:0:
36,192,53360,1,0,0:0:0:0:
256,192,53449,1,0,0:0:0:0:
109,192,53449,1,0,0:0:0:0:
475,192,53449,128,0,53625:0:0:0:0:
182,192,53802,1,0,0:0:0:0:
402,192,53802,1,0,0:0:0:0:
36,192,53978,1,0,0:0:0:0:
36,192,54154,1,0,0:0:0:0:
256,192,54154,1,0,0:0:0:0:
475,192,54154,1,0,0:0:0:0:
402,192,54154,128,0,54331:0:0:0:0:
329,192,54331,1,0,0:0:0:0:
182,192,54331,1,0,0:0:0:0:
256,192,54331,1,0,0:0:0:0:
109,192,54419,1,0,0:0:0:0:
329,192,54507,1,0,0:0:0:0:
109,192,54596,1,0,0:0:0:0:
256,192,54684,1,0,0:0:0:0:
329,192,54860,1,0,0:0:0:0:
36,192,54860,1,0,0:0:0:0:
475,192,54860,128,0,55037:0:0:0:0:
182,192,55213,1,0,0:0:0:0:
402,192,55213,1,0,0:0:0:0:
36,192,55302,1,0,0:0:0:0:
182,192,55390,1,0,0:0:0:0:
402,192,55390,1,0,0:0:0:0:
36,192,55478,1,0,0:0:0:0:
109,192,55566,1,0,0:0:0:0:
329,192,55566,1,0,0:0:0:0:
475,192,55566,128,0,55743:0:0:0:0:
329,192,55831,1,0,0:0:0:0:
182,192,55919,1,0,0:0:0:0:
329,192,56007,1,0,0:0:0:0:
36,192,56096,1,0,0:0:0:0:
475,192,56096,1,0,0:0:0:0:
182,192,56096,1,0,0:0:0:0:
109,192,56140,1,0,0:0:0:0:
402,192,56184,1,0,0:0:0:0:
329,192,56228,1,0,0:0:0:0:
109,192,56272,1,0,0:0:0:0:
475,192,56272,1,0,0:0:0:0:
256,192,56272,128,0,56449:0:0:0:0:
36,192,56625,1,0,0:0:0:0:
329,192,56625,1,0,0:0:0:0:
182,192,56802,1,0,0:0:0:0:
475,192,56890,1,0,0:0:0:0:
182,192,56978,1,0,0:0:0:0:
329,192,56978,1,0,0:0:0:0:
36,192,56978,128,0,57154:0:0:0:0:
475,192,57154,1,0,0:0:0:0:
182,192,57243,1,0,0:0:0:0:
402,192,57331,1,0,0:0:0:0:
109,192,57419,1,0,0:0:0:0:
329,192,57507,1,0,0:0:0:0:
256,192,57684,1,0,0:0:0:0:
402,192,57684,1,0,0:0:0:0:
109,192,57684,128,0,57860:0:0:0:0:
36,192,57684,128,0,57949:0:0:0:0:
402,192,57860,1,0,0:0:0:0:
182,192,57860,128,0,58125:0:0:0:0:
402,192,57949,1,0,0:0:0:0:
475,192,58037,128,0,58302:0:0:0:0:
36,192,58037,1,0,0:0:0:0:
256,192,58037,1,0,0:0:0:0:
402,192,58037,1,0,0:0:0:0:
109,192,58037,1,0,0:0:0:0:
329,192,58037,1,0,0:0:0:0:
329,192,58213,128,0,58478:0:0:0:0:
182,192,58213,1,0,0:0:0:0:
109,192,58213,1,0,0:0:0:0:
256,192,58213,1,0,0:0:0:0:
36,192,58302,1,0,0:0:0:0:
182,192,58390,128,0,58654:0:0:0:0:
475,192,58390,1,0,0:0:0:0:
109,192,58390,1,0,0:0:0:0:
256,192,58390,1,0,0:0:0:0:
402,192,58390,128,0,58566:0:0:0:0:
36,192,58566,128,0,58831:0:0:0:0:
329,192,58566,1,0,0:0:0:0:
256,192,58566,1,0,0:0:0:0:
475,192,58654,1,0,0:0:0:0:
402,192,58743,128,0,59007:0:0:0:0:
182,192,58743,1,0,0:0:0:0:
256,192,58743,1,0,0:0:0:0:
475,192,58831,1,0,0:0:0:0:
109,192,58919,128,0,59184:0:0:0:0:
36,192,58919,1,0,0:0:0:0:
329,192,58919,1,0,0:0:0:0:
256,192,58919,1,0,0:0:0:0:
402,192,59096,1,0,0:0:0:0:
182,192,59096,128,0,59537:0:0:0:0:
475,192,59096,1,0,0:0:0:0:
36,192,59096,1,0,0:0:0:0:
256,192,59096,128,0,59272:0:0:0:0:
329,192,59272,128,0,59713:0:0:0:0:
109,192,59272,1,0,0:0:0:0:
36,192,59449,1,0,0:0:0:0:
402,192,59449,1,0,0:0:0:0:
475,192,59625,128,0,59890:0:0:0:0:
182,192,59625,1,0,0:0:0:0:
109,192,59625,1,0,0:0:0:0:
402,192,59802,128,0,60066:0:0:0:0:
329,192,59802,1,0,0:0:0:0:
109,192,59802,1,0,0:0:0:0:
256,192,59802,1,0,0:0:0:0:
36,192,59802,1,0,0:0:0:0:
329,192,59978,128,0,60243:0:0:0:0:
475,192,59978,1,0,0:0:0:0:
36,192,59978,1,0,0:0:0:0:
256,192,60066,1,0,0:0:0:0:
182,192,60154,128,0,60419:0:0:0:0:
402,192,60154,1,0,0:0:0:0:
36,192,60154,1,0,0:0:0:0:
256,192,60243,1,0,0:0:0:0:
109,192,60331,128,0,60596:0:0:0:0:
329,192,60331,1,0,0:0:0:0:
36,192,60331,1,0,0:0:0:0:
36,192,60507,128,0,60772:0:0:0:0:
182,192,60507,1,0,0:0:0:0:
475,192,60507,1,0,0:0:0:0:
256,192,60507,1,0,0:0:0:0:
402,192,60507,128,0,60684:0:0:0:0:
182,192,60684,128,0,60949:0:0:0:0:
109,192,60684,1,0,0:0:0:0:
475,192,60860,128,0,61125:0:0:0:0:
36,192,60860,1,0,0:0:0:0:
256,192,60860,1,0,0:0:0:0:
402,192,60860,1,0,0:0:0:0:
109,192,60949,1,0,0:0:0:0:
329,192,61037,128,0,61302:0:0:0:0:
182,192,61037,1,0,0:0:0:0:
402,192,61037,1,0,0:0:0:0:
256,192,61037,1,0,0:0:0:0:
109,192,61125,1,0,0:0:0:0:
182,192,61213,128,0,61478:0:0:0:0:
475,192,61213,1,0,0:0:0:0:
36,192,61213,1,0,0:0:0:0:
256,192,61213,1,0,0:0:0:0:
402,192,61213,128,0,61390:0:0:0:0:
36,192,61390,128,0,61654:0:0:0:0:
329,192,61390,1,0,0:0:0:0:
256,192,61478,1,0,0:0:0:0:
475,192,61478,1,0,0:0:0:0:
402,192,61566,128,0,61831:0:0:0:0:
182,192,61566,1,0,0:0:0:0:
329,192,61566,1,0,0:0:0:0:
256,192,61654,1,0,0:0:0:0:
475,192,61654,1,0,0:0:0:0:
109,192,61743,128,0,62007:0:0:0:0:
36,192,61743,1,0,0:0:0:0:
329,192,61743,1,0,0:0:0:0:
182,192,61743,1,0,0:0:0:0:
475,192,61787,1,0,0:0:0:0:
256,192,61831,1,0,0:0:0:0:
36,192,61875,1,0,0:0:0:0:
182,192,61919,128,0,62360:0:0:0:0:
402,192,61919,1,0,0:0:0:0:
329,192,61919,1,0,0:0:0:0:
256,192,61919,1,0,0:0:0:0:
475,192,61919,128,0,62096:0:0:0:0:
329,192,62096,128,0,62537:0:0:0:0:
109,192,62096,1,0,0:0:0:0:
256,192,62272,1,0,0:0:0:0:
36,192,62272,1,0,0:0:0:0:
475,192,62449,128,0,62713:0:0:0:0:
182,192,62449,1,0,0:0:0:0:
109,192,62449,1,0,0:0:0:0:
256,192,62537,1,0,0:0:0:0:
402,192,62625,128,0,62890:0:0:0:0:
329,192,62625,1,0,0:0:0:0:
109,192,62625,1,0,0:0:0:0:
182,192,62625,1,0,0:0:0:0:
36,192,62625,128,0,62802:0:0:0:0:
329,192,62802,128,0,63066:0:0:0:0:
475,192,62802,1,0,0:0:0:0:
256,192,62802,1,0,0:0:0:0:
182,192,62802,1,0,0:0:0:0:
36,192,62890,1,0,0:0:0:0:
182,192,62978,128,0,63243:0:0:0:0:
402,192,62978,1,0,0:0:0:0:
109,192,62978,1,0,0:0:0:0:
256,192,62978,1,0,0:0:0:0:
36,192,63066,1,0,0:0:0:0:
109,192,63154,128,0,63419:0:0:0:0:
329,192,63154,1,0,0:0:0:0:
475,192,63154,1,0,0:0:0:0:
182,192,63331,1,0,0:0:0:0:
36,192,63331,128,0,63596:0:0:0:0:
402,192,63331,1,0,0:0:0:0:
475,192,63331,1,0,0:0:0:0:
256,192,63331,128,0,63507:0:0:0:0:
182,192,63507,128,0,63772:0:0:0:0:
109,192,63507,1,0,0:0:0:0:
36,192,63684,1,0,0:0:0:0:
475,192,63684,128,0,63949:0:0:0:0:
402,192,63684,1,0,0:0:0:0:
256,192,63684,1,0,0:0:0:0:
329,192,63860,128,0,64125:0:0:0:0:
182,192,63860,1,0,0:0:0:0:
256,192,63860,1,0,0:0:0:0:
402,192,63860,1,0,0:0:0:0:
36,192,63949,1,0,0:0:0:0:
475,192,64037,1,0,0:0:0:0:
182,192,64037,128,0,64302:0:0:0:0:
256,192,64037,1,0,0:0:0:0:
402,192,64037,1,0,0:0:0:0:
109,192,64037,128,0,64213:0:0:0:0:
329,192,64213,1,0,0:0:0:0:
36,192,64213,128,0,64478:0:0:0:0:
475,192,64302,1,0,0:0:0:0:
182,192,64390,1,0,0:0:0:0:
402,192,64390,128,0,64654:0:0:0:0:
256,192,64390,1,0,0:0:0:0:
475,192,64478,1,0,0:0:0:0:
36,192,64566,1,0,0:0:0:0:
109,192,64566,128,0,64831:0:0:0:0:
256,192,64566,1,0,0:0:0:0:
329,192,64566,1,0,0:0:0:0:
182,192,64566,1,0,0:0:0:0:
402,192,64743,1,0,0:0:0:0:
182,192,64743,128,0,65184:0:0:0:0:
256,192,64743,1,0,0:0:0:0:
36,192,64743,1,0,0:0:0:0:
475,192,64743,128,0,64919:0:0:0:0:
329,192,64919,128,0,65360:0:0:0:0:
109,192,64919,1,0,0:0:0:0:
256,192,65096,1,0,0:0:0:0:
36,192,65096,1,0,0:0:0:0:
182,192,65272,1,0,0:0:0:0:
475,192,65272,128,0,65537:0:0:0:0:
109,192,65272,1,0,0:0:0:0:
402,192,65449,128,0,65713:0:0:0:0:
329,192,65449,1,0,0:0:0:0:
109,192,65449,1,0,0:0:0:0:
256,192,65449,1,0,0:0:0:0:
475,192,65625,1,0,0:0:0:0:
329,192,65625,128,0,65890:0:0:0:0:
182,192,65625,1,0,0:0:0:0:
256,192,65625,1,0,0:0:0:0:
36,192,65625,1,0,0:0:0:0:
109,192,65713,1,0,0:0:0:0:
182,192,65802,128,0,66066:0:0:0:0:
402,192,65802,1,0,0:0:0:0:
36,192,65802,1,0,0:0:0:0:
256,192,65890,1,0,0:0:0:0:
109,192,65978,128,0,66243:0:0:0:0:
329,192,65978,1,0,0:0:0:0:
36,192,65978,1,0,0:0:0:0:
36,192,66154,128,0,66419:0:0:0:0:
182,192,66154,1,0,0:0:0:0:
475,192,66154,1,0,0:0:0:0:
256,192,66154,1,0,0:0:0:0:
402,192,66154,128,0,66331:0:0:0:0:
109,192,66331,1,0,0:0:0:0:
182,192,66331,128,0,66596:0:0:0:0:
475,192,66507,128,0,66772:0:0:0:0:
36,192,66507,1,0,0:0:0:0:
256,192,66507,1,0,0:0:0:0:
402,192,66507,1,0,0:0:0:0:
109,192,66596,1,0,0:0:0:0:
182,192,66684,1,0,0:0:0:0:
329,192,66684,128,0,66949:0:0:0:0:
256,192,66684,1,0,0:0:0:0:
402,192,66684,1,0,0:0:0:0:
109,192,66772,1,0,0:0:0:0:
182,192,66860,128,0,67125:0:0:0:0:
475,192,66860,1,0,0:0:0:0:
36,192,66860,1,0,0:0:0:0:
402,192,66860,1,0,0:0:0:0:
256,192,66860,128,0,67037:0:0:0:0:
36,192,67037,128,0,67302:0:0:0:0:
329,192,67037,1,0,0:0:0:0:
475,192,67125,1,0,0:0:0:0:
109,192,67125,1,0,0:0:0:0:
402,192,67213,128,0,67478:0:0:0:0:
182,192,67213,1,0,0:0:0:0:
329,192,67213,1,0,0:0:0:0:
256,192,67302,1,0,0:0:0:0:
475,192,67302,1,0,0:0:0:0:
109,192,67390,128,0,67654:0:0:0:0:
36,192,67390,1,0,0:0:0:0:
182,192,67390,1,0,0:0:0:0:
329,192,67390,1,0,0:0:0:0:
256,192,67434,1,0,0:0:0:0:
475,192,67478,1,0,0:0:0:0:
329,192,67522,1,0,0:0:0:0:
182,192,67566,128,0,68007:0:0:0:0:
402,192,67566,1,0,0:0:0:0:
256,192,67566,1,0,0:0:0:0:
36,192,67566,128,0,67743:0:0:0:0:
109,192,67743,1,0,0:0:0:0:
329,192,67743,128,0,68184:0:0:0:0:
256,192,67743,1,0,0:0:0:0:
475,192,67787,1,0,0:0:0:0:
402,192,67831,1,0,0:0:0:0:
36,192,67875,1,0,0:0:0:0:
109,192,67919,1,0,0:0:0:0:
256,192,67919,1,0,0:0:0:0:
475,192,68096,128,0,68360:0:0:0:0:
182,192,68096,1,0,0:0:0:0:
256,192,68096,1,0,0:0:0:0:
329,192,68272,5,0,0:0:0:0:
402,192,68272,128,0,68537:0:0:0:0:
36,192,68272,1,0,0:0:0:0:
329,192,68449,128,0,68713:0:0:0:0:
475,192,68449,1,0,0:0:0:0:
109,192,68449,1,0,0:0:0:0:
36,192,68537,1,0,0:0:0:0:
402,192,68625,1,0,0:0:0:0:
182,192,68625,128,0,68978:0:0:0:0:
109,192,68625,1,0,0:0:0:0:
256,192,68625,1,0,0:0:0:0:
475,192,68669,1,0,0:0:0:0:
36,192,68713,1,0,0:0:0:0:
402,192,68713,1,0,0:0:0:0:
329,192,68757,1,0,0:0:0:0:
475,192,68802,1,0,0:0:0:0:
109,192,68802,128,0,69154:0:0:0:0:
256,192,68802,1,0,0:0:0:0:
402,192,68846,1,0,0:0:0:0:
329,192,68890,1,0,0:0:0:0:
475,192,68934,1,0,0:0:0:0:
36,192,68978,1,0,0:0:0:0:
256,192,68978,1,0,0:0:0:0:
402,192,69022,1,0,0:0:0:0:
182,192,69066,1,0,0:0:0:0:
329,192,69110,1,0,0:0:0:0:
36,192,69154,1,0,0:0:0:0:
475,192,69154,1,0,0:0:0:0:
256,192,69199,1,0,0:0:0:0:
402,192,69243,1,0,0:0:0:0:
182,192,69287,1,0,0:0:0:0:
109,192,69331,128,0,69596:0:0:0:0:
256,192,69331,1,0,0:0:0:0:
36,192,69331,1,0,0:0:0:0:
329,192,69331,1,0,0:0:0:0:
475,192,69331,1,0,0:0:0:0:
256,192,69507,128,0,69772:0:0:0:0:
329,192,69507,1,0,0:0:0:0:
475,192,69507,1,0,0:0:0:0:
402,192,69596,1,0,0:0:0:0:
109,192,69684,128,0,69949:0:0:0:0:
182,192,69684,1,0,0:0:0:0:
475,192,69684,1,0,0:0:0:0:
36,192,69684,128,0,69860:0:0:0:0:
329,192,69860,128,0,70125:0:0:0:0:
475,192,69860,1,0,0:0:0:0:
256,192,69949,1,0,0:0:0:0:
182,192,70037,128,0,70302:0:0:0:0:
475,192,70037,1,0,0:0:0:0:
256,192,70125,1,0,0:0:0:0:
402,192,70213,128,0,70478:0:0:0:0:
475,192,70213,1,0,0:0:0:0:
36,192,70213,1,0,0:0:0:0:
329,192,70213,1,0,0:0:0:0:
109,192,70302,1,0,0:0:0:0:
182,192,70390,128,0,70654:0:0:0:0:
36,192,70390,1,0,0:0:0:0:
475,192,70390,1,0,0:0:0:0:
256,192,70390,128,0,70566:0:0:0:0:
329,192,70566,128,0,70831:0:0:0:0:
109,192,70743,128,0,71007:0:0:0:0:
475,192,70743,1,0,0:0:0:0:
36,192,70743,1,0,0:0:0:0:
256,192,70919,128,0,71184:0:0:0:0:
402,192,70919,1,0,0:0:0:0:
109,192,71096,128,0,71360:0:0:0:0:
402,192,71096,1,0,0:0:0:0:
182,192,71096,1,0,0:0:0:0:
329,192,71272,128,0,71537:0:0:0:0:
475,192,71272,1,0,0:0:0:0:
402,192,71272,1,0,0:0:0:0:
256,192,71272,1,0,0:0:0:0:
36,192,71360,1,0,0:0:0:0:
182,192,71449,128,0,71713:0:0:0:0:
256,192,71449,1,0,0:0:0:0:
36,192,71537,1,0,0:0:0:0:
402,192,71625,128,0,71890:0:0:0:0:
256,192,71625,1,0,0:0:0:0:
256,192,71802,128,0,72066:0:0:0:0:
329,192,71802,1,0,0:0:0:0:
475,192,71802,1,0,0:0:0:0:
109,192,71802,128,0,71978:0:0:0:0:
402,192,71978,128,0,72243:0:0:0:0:
109,192,72154,128,0,72419:0:0:0:0:
182,192,72154,1,0,0:0:0:0:
36,192,72154,1,0,0:0:0:0:
475,192,72243,1,0,0:0:0:0:
256,192,72331,128,0,72596:0:0:0:0:
36,192,72331,1,0,0:0:0:0:
182,192,72331,1,0,0:0:0:0:
475,192,72419,1,0,0:0:0:0:
109,192,72507,128,0,72772:0:0:0:0:
182,192,72507,1,0,0:0:0:0:
36,192,72507,1,0,0:0:0:0:
329,192,72507,128,0,72684:0:0:0:0:
402,192,72684,128,0,72949:0:0:0:0:
182,192,72772,1,0,0:0:0:0:
475,192,72772,1,0,0:0:0:0:
256,192,72860,128,0,73125:0:0:0:0:
329,192,72860,1,0,0:0:0:0:
182,192,72949,1,0,0:0:0:0:
475,192,72949,1,0,0:0:0:0:
402,192,73037,128,0,73302:0:0:0:0:
329,192,73037,1,0,0:0:0:0:
36,192,73037,1,0,0:0:0:0:
109,192,73037,1,0,0:0:0:0:
182,192,73081,1,0,0:0:0:0:
475,192,73125,1,0,0:0:0:0:
36,192,73169,1,0,0:0:0:0:
182,192,73213,128,0,73478:0:0:0:0:
109,192,73213,1,0,0:0:0:0:
329,192,73213,1,0,0:0:0:0:
256,192,73213,128,0,73390:0:0:0:0:
329,192,73390,128,0,73654:0:0:0:0:
182,192,73566,128,0,73831:0:0:0:0:
36,192,73566,1,0,0:0:0:0:
475,192,73566,1,0,0:0:0:0:
256,192,73743,128,0,74007:0:0:0:0:
402,192,73743,1,0,0:0:0:0:
475,192,73831,1,0,0:0:0:0:
109,192,73919,128,0,74184:0:0:0:0:
182,192,73919,1,0,0:0:0:0:
36,192,73919,1,0,0:0:0:0:
329,192,73919,128,0,74096:0:0:0:0:
402,192,74096,128,0,74360:0:0:0:0:
182,192,74096,1,0,0:0:0:0:
475,192,74096,1,0,0:0:0:0:
36,192,74184,1,0,0:0:0:0:
256,192,74272,128,0,74537:0:0:0:0:
182,192,74272,1,0,0:0:0:0:
475,192,74272,1,0,0:0:0:0:
36,192,74360,1,0,0:0:0:0:
329,192,74449,128,0,74713:0:0:0:0:
109,192,74449,1,0,0:0:0:0:
475,192,74537,1,0,0:0:0:0:
182,192,74625,128,0,74890:0:0:0:0:
36,192,74625,1,0,0:0:0:0:
109,192,74625,1,0,0:0:0:0:
402,192,74625,128,0,74802:0:0:0:0:
329,192,74802,128,0,75066:0:0:0:0:
109,192,74978,128,0,75243:0:0:0:0:
182,192,74978,1,0,0:0:0:0:
475,192,74978,1,0,0:0:0:0:
256,192,75154,128,0,75419:0:0:0:0:
182,192,75154,1,0,0:0:0:0:
475,192,75154,1,0,0:0:0:0:
402,192,75243,1,0,0:0:0:0:
182,192,75331,128,0,75596:0:0:0:0:
109,192,75331,1,0,0:0:0:0:
475,192,75331,1,0,0:0:0:0:
36,192,75331,128,0,75507:0:0:0:0:
329,192,75507,128,0,75772:0:0:0:0:
256,192,75507,1,0,0:0:0:0:
109,192,75596,1,0,0:0:0:0:
182,192,75684,128,0,75949:0:0:0:0:
256,192,75684,1,0,0:0:0:0:
109,192,75772,1,0,0:0:0:0:
329,192,75860,128,0,76125:0:0:0:0:
36,192,75860,1,0,0:0:0:0:
475,192,75860,1,0,0:0:0:0:
402,192,75949,1,0,0:0:0:0:
256,192,76037,128,0,76302:0:0:0:0:
182,192,76037,1,0,0:0:0:0:
36,192,76037,1,0,0:0:0:0:
109,192,76037,128,0,76213:0:0:0:0:
402,192,76213,128,0,76478:0:0:0:0:
329,192,76390,128,0,76654:0:0:0:0:
36,192,76390,1,0,0:0:0:0:
256,192,76390,1,0,0:0:0:0:
182,192,76566,128,0,76831:0:0:0:0:
475,192,76566,1,0,0:0:0:0:
109,192,76743,128,0,77007:0:0:0:0:
402,192,76743,1,0,0:0:0:0:
475,192,76743,1,0,0:0:0:0:
256,192,76743,1,0,0:0:0:0:
256,192,76919,128,0,77184:0:0:0:0:
475,192,76919,1,0,0:0:0:0:
36,192,76919,1,0,0:0:0:0:
329,192,77007,1,0,0:0:0:0:
402,192,77096,128,0,77360:0:0:0:0:
36,192,77096,1,0,0:0:0:0:
329,192,77184,1,0,0:0:0:0:
182,192,77272,128,0,77537:0:0:0:0:
36,192,77272,1,0,0:0:0:0:
329,192,77449,128,0,77713:0:0:0:0:
109,192,77449,1,0,0:0:0:0:
402,192,77449,1,0,0:0:0:0:
475,192,77449,128,0,77625:0:0:0:0:
256,192,77625,128,0,77890:0:0:0:0:
402,192,77802,128,0,78066:0:0:0:0:
109,192,77802,1,0,0:0:0:0:
36,192,77802,1,0,0:0:0:0:
475,192,77890,1,0,0:0:0:0:
182,192,77978,128,0,78243:0:0:0:0:
36,192,77978,1,0,0:0:0:0:
109,192,77978,1,0,0:0:0:0:
475,192,78066,1,0,0:0:0:0:
329,192,78154,128,0,78419:0:0:0:0:
109,192,78154,1,0,0:0:0:0:
402,192,78154,1,0,0:0:0:0:
36,192,78154,128,0,78331:0:0:0:0:
109,192,78331,128,0,78596:0:0:0:0:
182,192,78419,1,0,0:0:0:0:
475,192,78419,1,0,0:0:0:0:
256,192,78507,128,0,78772:0:0:0:0:
329,192,78507,1,0,0:0:0:0:
182,192,78596,1,0,0:0:0:0:
475,192,78596,1,0,0:0:0:0:
109,192,78684,128,0,78949:0:0:0:0:
329,192,78684,1,0,0:0:0:0:
36,192,78728,1,0,0:0:0:0:
475,192,78772,1,0,0:0:0:0:
182,192,78816,1,0,0:0:0:0:
402,192,78860,128,0,79125:0:0:0:0:
329,192,78860,1,0,0:0:0:0:
256,192,78860,1,0,0:0:0:0:
36,192,78860,128,0,79037:0:0:0:0:
256,192,79037,128,0,79302:0:0:0:0:
182,192,79213,128,0,79478:0:0:0:0:
109,192,79213,1,0,0:0:0:0:
475,192,79213,1,0,0:0:0:0:
402,192,79390,128,0,79654:0:0:0:0:
329,192,79390,1,0,0:0:0:0:
256,192,79478,1,0,0:0:0:0:
109,192,79566,128,0,79831:0:0:0:0:
182,192,79566,1,0,0:0:0:0:
36,192,79566,1,0,0:0:0:0:
475,192,79566,128,0,79743:0:0:0:0:
329,192,79743,128,0,80007:0:0:0:0:
256,192,79743,1,0,0:0:0:0:
182,192,79743,1,0,0:0:0:0:
36,192,79831,1,0,0:0:0:0:
256,192,79919,128,0,80184:0:0:0:0:
182,192,79919,1,0,0:0:0:0:
36,192,80007,1,0,0:0:0:0:
329,192,80096,128,0,80360:0:0:0:0:
182,192,80096,1,0,0:0:0:0:
182,192,80272,128,0,80537:0:0:0:0:
109,192,80272,1,0,0:0:0:0:
36,192,80272,1,0,0:0:0:0:
475,192,80272,128,0,80449:0:0:0:0:
402,192,80449,128,0,80713:0:0:0:0:
109,192,80449,1,0,0:0:0:0:
109,192,80537,1,0,0:0:0:0:
109,192,80625,128,0,80890:0:0:0:0:
36,192,80625,1,0,0:0:0:0:
256,192,80625,1,0,0:0:0:0:
329,192,80625,1,0,0:0:0:0:
475,192,80625,1,0,0:0:0:0:
256,192,80802,128,0,81066:0:0:0:0:
329,192,80802,1,0,0:0:0:0:
36,192,80802,1,0,0:0:0:0:
402,192,80890,1,0,0:0:0:0:
109,192,80978,128,0,81243:0:0:0:0:
182,192,80978,1,0,0:0:0:0:
36,192,80978,1,0,0:0:0:0:
475,192,80978,128,0,81154:0:0:0:0:
402,192,81154,128,0,81419:0:0:0:0:
329,192,81243,1,0,0:0:0:0:
36,192,81243,1,0,0:0:0:0:
256,192,81331,128,0,81596:0:0:0:0:
182,192,81331,1,0,0:0:0:0:
36,192,81419,1,0,0:0:0:0:
329,192,81419,1,0,0:0:0:0:
402,192,81507,128,0,81772:0:0:0:0:
182,192,81507,1,0,0:0:0:0:
475,192,81507,1,0,0:0:0:0:
182,192,81684,128,0,81949:0:0:0:0:
256,192,81684,1,0,0:0:0:0:
475,192,81684,1,0,0:0:0:0:
36,192,81684,128,0,81860:0:0:0:0:
329,192,81860,128,0,82125:0:0:0:0:
256,192,82037,128,0,82302:0:0:0:0:
36,192,82037,1,0,0:0:0:0:
475,192,82037,1,0,0:0:0:0:
109,192,82213,128,0,82478:0:0:0:0:
402,192,82213,1,0,0:0:0:0:
256,192,82390,128,0,82654:0:0:0:0:
402,192,82390,1,0,0:0:0:0:
475,192,82390,1,0,0:0:0:0:
182,192,82566,128,0,82831:0:0:0:0:
402,192,82566,1,0,0:0:0:0:
36,192,82566,1,0,0:0:0:0:
475,192,82566,1,0,0:0:0:0:
109,192,82654,1,0,0:0:0:0:
329,192,82743,128,0,83007:0:0:0:0:
402,192,82743,1,0,0:0:0:0:
109,192,82831,1,0,0:0:0:0:
182,192,82919,128,0,83184:0:0:0:0:
475,192,82919,1,0,0:0:0:0:
402,192,83096,128,0,83360:0:0:0:0:
329,192,83096,1,0,0:0:0:0:
475,192,83096,1,0,0:0:0:0:
36,192,83096,128,0,83272:0:0:0:0:
256,192,83272,128,0,83537:0:0:0:0:
329,192,83449,128,0,83713:0:0:0:0:
109,192,83449,1,0,0:0:0:0:
36,192,83449,1,0,0:0:0:0:
402,192,83625,128,0,83890:0:0:0:0:
36,192,83625,1,0,0:0:0:0:
109,192,83625,1,0,0:0:0:0:
256,192,83713,1,0,0:0:0:0:
182,192,83802,128,0,84066:0:0:0:0:
109,192,83802,1,0,0:0:0:0:
475,192,83802,1,0,0:0:0:0:
329,192,83802,128,0,83978:0:0:0:0:
402,192,83978,128,0,84243:0:0:0:0:
36,192,84066,1,0,0:0:0:0:
475,192,84066,1,0,0:0:0:0:
256,192,84154,128,0,84419:0:0:0:0:
109,192,84154,1,0,0:0:0:0:
36,192,84243,1,0,0:0:0:0:
475,192,84243,1,0,0:0:0:0:
329,192,84331,128,0,84596:0:0:0:0:
109,192,84331,1,0,0:0:0:0:
402,192,84375,1,0,0:0:0:0:
475,192,84419,1,0,0:0:0:0:
36,192,84463,1,0,0:0:0:0:
109,192,84507,128,0,84772:0:0:0:0:
182,192,84507,1,0,0:0:0:0:
402,192,84507,1,0,0:0:0:0:
256,192,84507,128,0,84684:0:0:0:0:
182,192,84684,128,0,84949:0:0:0:0:
402,192,84860,128,0,85125:0:0:0:0:
36,192,84860,1,0,0:0:0:0:
475,192,84860,1,0,0:0:0:0:
256,192,85037,128,0,85302:0:0:0:0:
109,192,85037,1,0,0:0:0:0:
182,192,85125,1,0,0:0:0:0:
402,192,85213,128,0,85478:0:0:0:0:
329,192,85213,1,0,0:0:0:0:
475,192,85213,1,0,0:0:0:0:
36,192,85213,128,0,85390:0:0:0:0:
182,192,85390,128,0,85654:0:0:0:0:
256,192,85390,1,0,0:0:0:0:
475,192,85390,1,0,0:0:0:0:
109,192,85478,1,0,0:0:0:0:
329,192,85566,128,0,85831:0:0:0:0:
475,192,85566,128,0,90507:0:0:0:0:
36,192,85566,128,0,90507:0:0:0:0:
256,192,85566,1,0,0:0:0:0:
109,192,85654,1,0,0:0:0:0:
182,192,85743,128,0,86007:0:0:0:0:
256,192,85743,1,0,0:0:0:0:
256,192,85919,128,0,86184:0:0:0:0:
109,192,85919,1,0,0:0:0:0:
329,192,85919,1,0,0:0:0:0:
402,192,85919,128,0,86096:0:0:0:0:
109,192,86096,128,0,86360:0:0:0:0:
402,192,86272,128,0,86537:0:0:0:0:
329,192,86272,1,0,0:0:0:0:
182,192,86272,1,0,0:0:0:0:
256,192,86449,128,0,86713:0:0:0:0:
182,192,86449,1,0,0:0:0:0:
329,192,86449,1,0,0:0:0:0:
109,192,86537,1,0,0:0:0:0:
329,192,86625,128,0,86890:0:0:0:0:
182,192,86625,1,0,0:0:0:0:
402,192,86625,128,0,86802:0:0:0:0:
182,192,86802,128,0,87066:0:0:0:0:
109,192,86890,1,0,0:0:0:0:
402,192,86890,1,0,0:0:0:0:
256,192,86978,128,0,87243:0:0:0:0:
329,192,86978,1,0,0:0:0:0:
402,192,87066,1,0,0:0:0:0:
109,192,87154,128,0,87419:0:0:0:0:
182,192,87154,1,0,0:0:0:0:
329,192,87154,1,0,0:0:0:0:
329,192,87331,128,0,87596:0:0:0:0:
182,192,87331,1,0,0:0:0:0:
402,192,87331,1,0,0:0:0:0:
256,192,87331,128,0,87507:0:0:0:0:
182,192,87507,128,0,87772:0:0:0:0:
402,192,87684,128,0,87949:0:0:0:0:
256,192,87684,1,0,0:0:0:0:
109,192,87684,1,0,0:0:0:0:
256,192,87860,128,0,88125:0:0:0:0:
329,192,87860,1,0,0:0:0:0:
109,192,88037,128,0,88302:0:0:0:0:
329,192,88037,1,0,0:0:0:0:
402,192,88037,1,0,0:0:0:0:
256,192,88213,128,0,88478:0:0:0:0:
329,192,88213,1,0,0:0:0:0:
402,192,88213,1,0,0:0:0:0:
182,192,88302,1,0,0:0:0:0:
402,192,88390,128,0,88654:0:0:0:0:
329,192,88390,1,0,0:0:0:0:
182,192,88478,1,0,0:0:0:0:
329,192,88566,128,0,88831:0:0:0:0:
109,192,88566,1,0,0:0:0:0:
182,192,88743,128,0,89007:0:0:0:0:
109,192,88743,1,0,0:0:0:0:
402,192,88743,1,0,0:0:0:0:
256,192,88743,128,0,88919:0:0:0:0:
329,192,88919,128,0,89184:0:0:0:0:
109,192,89096,128,0,89360:0:0:0:0:
182,192,89096,1,0,0:0:0:0:
402,192,89096,1,0,0:0:0:0:
256,192,89272,128,0,89537:0:0:0:0:
402,192,89272,1,0,0:0:0:0:
182,192,89272,1,0,0:0:0:0:
329,192,89360,1,0,0:0:0:0:
402,192,89449,128,0,89713:0:0:0:0:
109,192,89449,1,0,0:0:0:0:
182,192,89449,128,0,89625:0:0:0:0:
256,192,89625,128,0,89890:0:0:0:0:
329,192,89713,1,0,0:0:0:0:
109,192,89802,128,0,90066:0:0:0:0:
182,192,89802,1,0,0:0:0:0:
329,192,89890,1,0,0:0:0:0:
256,192,89978,128,0,90243:0:0:0:0:
182,192,89978,1,0,0:0:0:0:
402,192,89978,1,0,0:0:0:0:
329,192,90022,1,0,0:0:0:0:
182,192,90066,1,0,0:0:0:0:
109,192,90110,1,0,0:0:0:0:
402,192,90154,128,0,90419:0:0:0:0:
182,192,90154,1,0,0:0:0:0:
329,192,90154,128,0,90331:0:0:0:0:
256,192,90331,128,0,90507:0:0:0:0:
182,192,90507,1,0,0:0:0:0:
329,192,90507,1,0,0:0:0:0:
402,192,90507,1,0,0:0:0:0:
109,192,90507,1,0,0:0:0:0:
182,192,90684,1,0,0:0:0:0:
256,192,90860,1,0,0:0:0:0:
329,192,91037,1,0,0:0:0:0:
182,192,91213,1,0,0:0:0:0:
36,192,91213,1,0,0:0:0:0:
402,192,91213,1,0,0:0:0:0:
475,192,91390,1,0,0:0:0:0:
182,192,91390,1,0,0:0:0:0:
256,192,91390,1,0,0:0:0:0:
329,192,91566,128,0,91831:0:0:0:0:
109,192,91566,128,0,91831:0:0:0:0:
402,192,91566,1,0,0:0:0:0:
256,192,91566,1,0,0:0:0:0:
182,192,91566,1,0,0:0:0:0:
36,192,91566,1,0,0:0:0:0:
402,192,91743,128,0,92007:0:0:0:0:
36,192,91743,128,0,92007:0:0:0:0:
475,192,91743,1,0,0:0:0:0:
182,192,91743,1,0,0:0:0:0:
182,192,91831,1,0,0:0:0:0:
475,192,91919,128,0,92184:0:0:0:0:
182,192,91919,128,0,92096:0:0:0:0:
329,192,91919,1,0,0:0:0:0:
109,192,91919,1,0,0:0:0:0:
256,192,91919,128,0,92007:0:0:0:0:
402,192,92096,128,0,92360:0:0:0:0:
109,192,92096,128,0,92360:0:0:0:0:
329,192,92096,1,0,0:0:0:0:
36,192,92096,1,0,0:0:0:0:
182,192,92184,1,0,0:0:0:0:
329,192,92272,128,0,92713:0:0:0:0:
36,192,92272,128,0,92537:0:0:0:0:
256,192,92272,1,0,0:0:0:0:
475,192,92272,128,0,92360:0:0:0:0:
182,192,92449,128,0,92713:0:0:0:0:
402,192,92449,128,0,92625:0:0:0:0:
475,192,92449,1,0,0:0:0:0:
109,192,92449,128,0,92537:0:0:0:0:
256,192,92537,1,0,0:0:0:0:
109,192,92625,128,0,92890:0:0:0:0:
475,192,92625,128,0,92802:0:0:0:0:
36,192,92625,1,0,0:0:0:0:
402,192,92713,1,0,0:0:0:0:
36,192,92802,128,0,93066:0:0:0:0:
329,192,92802,128,0,93066:0:0:0:0:
256,192,92802,1,0,0:0:0:0:
182,192,92802,128,0,92890:0:0:0:0:
475,192,92890,1,0,0:0:0:0:
402,192,92978,128,0,93154:0:0:0:0:
182,192,92978,128,0,93154:0:0:0:0:
109,192,92978,1,0,0:0:0:0:
256,192,92978,1,0,0:0:0:0:
109,192,93154,128,0,93507:0:0:0:0:
475,192,93154,128,0,93507:0:0:0:0:
182,192,93507,128,0,93684:0:0:0:0:
402,192,93507,128,0,93684:0:0:0:0:
329,192,93684,128,0,93860:0:0:0:0:
36,192,93684,128,0,93860:0:0:0:0:
475,192,93860,128,0,94037:0:0:0:0:
109,192,93860,128,0,94037:0:0:0:0:
182,192,94037,128,0,94213:0:0:0:0:
402,192,94037,128,0,94213:0:0:0:0:
36,192,94213,128,0,94390:0:0:0:0:
329,192,94213,128,0,94390:0:0:0:0:
182,192,94390,128,0,94566:0:0:0:0:
475,192,94390,128,0,94566:0:0:0:0:
109,192,94566,128,0,94743:0:0:0:0:
329,192,94566,128,0,94743:0:0:0:0:
182,192,94743,128,0,94919:0:0:0:0:
402,192,94743,128,0,94919:0:0:0:0:
36,192,94919,128,0,95096:0:0:0:0:
475,192,94919,128,0,95096:0:0:0:0:
182,192,95096,128,0,95272:0:0:0:0:
329,192,95096,128,0,95272:0:0:0:0:
36,192,95272,128,0,95449:0:0:0:0:
402,192,95272,128,0,95449:0:0:0:0:
109,192,95449,128,0,95625:0:0:0:0:
329,192,95449,128,0,95625:0:0:0:0:
182,192,95625,128,0,95802:0:0:0:0:
475,192,95625,128,0,95802:0:0:0:0:
109,192,95802,128,0,95978:0:0:0:0:
329,192,95802,128,0,95978:0:0:0:0:
36,192,95978,128,0,96154:0:0:0:0:
402,192,95978,128,0,96154:0:0:0:0:
182,192,96154,128,0,96331:0:0:0:0:
475,192,96154,128,0,96331:0:0:0:0:
109,192,96331,128,0,96507:0:0:0:0:
402,192,96331,128,0,96507:0:0:0:0:
182,192,96507,128,0,96684:0:0:0:0:
329,192,96507,128,0,96684:0:0:0:0:
36,192,96684,128,0,96860:0:0:0:0:
402,192,96684,128,0,96860:0:0:0:0:
109,192,96860,128,0,97037:0:0:0:0:
329,192,96860,128,0,97037:0:0:0:0:
36,192,97037,128,0,97213:0:0:0:0:
475,192,97037,128,0,97213:0:0:0:0:
182,192,97213,128,0,97390:0:0:0:0:
402,192,97213,128,0,97390:0:0:0:0:
109,192,97390,128,0,97566:0:0:0:0:
475,192,97390,128,0,97566:0:0:0:0:
329,192,97566,128,0,97743:0:0:0:0:
36,192,97566,128,0,97743:0:0:0:0:
475,192,97743,128,0,97919:0:0:0:0:
109,192,97743,128,0,97919:0:0:0:0:
402,192,97919,128,0,98096:0:0:0:0:
36,192,97919,128,0,98096:0:0:0:0:
329,192,98096,128,0,98272:0:0:0:0:
182,192,98096,128,0,98272:0:0:0:0:
475,192,98272,128,0,98449:0:0:0:0:
109,192,98272,128,0,98449:0:0:0:0:
402,192,98449,128,0,98625:0:0:0:0:
36,192,98449,128,0,98625:0:0:0:0:
475,192,98625,128,0,98802:0:0:0:0:
109,192,98625,128,0,98802:0:0:0:0:
329,192,98802,128,0,99154:0:0:0:0:
36,192,98802,128,0,99154:0:0:0:0:
475,192,99154,128,0,99331:0:0:0:0:
109,192,99154,128,0,99331:0:0:0:0:
402,192,99331,128,0,99507:0:0:0:0:
182,192,99331,128,0,99507:0:0:0:0:
475,192,99507,128,0,99684:0:0:0:0:
36,192,99507,128,0,99684:0:0:0:0:
329,192,99684,128,0,99860:0:0:0:0:
109,192,99684,128,0,99860:0:0:0:0:
475,192,99860,128,0,100037:0:0:0:0:
36,192,99860,128,0,100037:0:0:0:0:
329,192,100037,128,0,100213:0:0:0:0:
182,192,100037,128,0,100213:0:0:0:0:
402,192,100213,128,0,100743:0:0:0:0:
36,192,100213,128,0,100743:0:0:0:0:
475,192,100743,128,0,101096:0:0:0:0:
109,192,100743,128,0,101096:0:0:0:0:
329,192,101096,128,0,101449:0:0:0:0:
182,192,101096,128,0,101449:0:0:0:0:
402,192,101449,128,0,101802:0:0:0:0:
36,192,101449,128,0,101802:0:0:0:0:
329,192,101802,128,0,101978:0:0:0:0:
109,192,101802,128,0,101978:0:0:0:0:
402,192,101978,128,0,102154:0:0:0:0:
36,192,101978,128,0,102154:0:0:0:0:
475,192,102154,128,0,102331:0:0:0:0:
182,192,102154,128,0,102331:0:0:0:0:
402,192,102331,128,0,102684:0:0:0:0:
109,192,102331,128,0,102684:0:0:0:0:
329,192,102684,128,0,102860:0:0:0:0:
182,192,102684,128,0,102860:0:0:0:0:
475,192,102860,128,0,103037:0:0:0:0:
109,192,102860,128,0,103037:0:0:0:0:
402,192,103037,128,0,103213:0:0:0:0:
36,192,103037,128,0,103213:0:0:0:0:
256,192,176625,5,0,0:0:0:0:
329,192,176625,1,0,0:0:0:0:
402,192,176625,1,0,0:0:0:0:
182,192,176625,1,0,0:0:0:0:
109,192,176625,1,0,0:0:0:0:
256,192,178037,5,0,0:0:0:0:
182,192,178037,1,0,0:0:0:0:
109,192,178037,1,0,0:0:0:0:
329,192,178037,1,0,0:0:0:0:
402,192,178037,1,0,0:0:0:0:
402,192,179449,1,0,0:0:0:0:
329,192,179449,1,0,0:0:0:0:
256,192,179449,1,0,0:0:0:0:
182,192,179449,1,0,0:0:0:0:
109,192,179449,1,0,0:0:0:0:
109,192,180154,1,0,0:0:0:0:
182,192,180154,1,0,0:0:0:0:
256,192,180154,1,0,0:0:0:0:
329,192,180154,1,0,0:0:0:0:
402,192,180154,1,0,0:0:0:0:
402,192,180860,1,0,0:0:0:0:
329,192,180860,1,0,0:0:0:0:
256,192,180860,1,0,0:0:0:0:
182,192,180860,1,0,0:0:0:0:
109,192,180860,1,0,0:0:0:0:
256,192,181566,1,0,0:0:0:0:
402,192,181566,1,0,0:0:0:0:
109,192,181566,1,0,0:0:0:0:
182,192,181743,1,0,0:0:0:0:
329,192,181743,1,0,0:0:0:0:
256,192,181919,1,0,0:0:0:0:
109,192,181919,1,0,0:0:0:0:
402,192,181919,1,0,0:0:0:0:
256,192,182096,1,0,0:0:0:0:
109,192,182096,1,0,0:0:0:0:
402,192,182096,1,0,0:0:0:0:
109,192,182184,1,0,0:0:0:0:
256,192,182184,1,0,0:0:0:0:
402,192,182184,1,0,0:0:0:0:
182,192,182272,1,0,0:0:0:0:
36,192,182272,1,0,0:0:0:0:
475,192,182272,128,0,182449:0:0:0:0:
329,192,182272,128,0,182449:0:0:0:0:
109,192,182449,1,0,0:0:0:0:
402,192,182449,128,0,182625:0:0:0:0:
256,192,182449,128,0,182625:0:0:0:0:
36,192,182537,1,0,0:0:0:0:
182,192,182625,128,0,182802:0:0:0:0:
109,192,182625,1,0,0:0:0:0:
329,192,182625,128,0,182802:0:0:0:0:
402,192,182802,1,0,0:0:0:0:
109,192,182802,128,0,182978:0:0:0:0:
475,192,182802,1,0,0:0:0:0:
36,192,182802,128,0,182978:0:0:0:0:
329,192,182978,1,0,0:0:0:0:
256,192,182978,128,0,183154:0:0:0:0:
402,192,182978,128,0,183154:0:0:0:0:
475,192,183154,1,0,0:0:0:0:
36,192,183154,128,0,183331:0:0:0:0:
329,192,183154,128,0,183331:0:0:0:0:
109,192,183331,1,0,0:0:0:0:
402,192,183331,1,0,0:0:0:0:
256,192,183331,128,0,183507:0:0:0:0:
182,192,183331,128,0,183507:0:0:0:0:
402,192,183507,128,0,183860:0:0:0:0:
36,192,183507,128,0,183860:0:0:0:0:
182,192,183684,1,0,0:0:0:0:
475,192,183860,1,0,0:0:0:0:
329,192,183860,128,0,184037:0:0:0:0:
109,192,183860,128,0,184037:0:0:0:0:
402,192,184037,1,0,0:0:0:0:
256,192,184037,128,0,184213:0:0:0:0:
36,192,184037,1,0,0:0:0:0:
475,192,184037,128,0,184213:0:0:0:0:
402,192,184213,1,0,0:0:0:0:
329,192,184213,1,0,0:0:0:0:
109,192,184213,128,0,184390:0:0:0:0:
182,192,184213,128,0,184390:0:0:0:0:
475,192,184390,1,0,0:0:0:0:
36,192,184390,1,0,0:0:0:0:
329,192,184390,128,0,184566:0:0:0:0:
256,192,184390,128,0,184566:0:0:0:0:
182,192,184566,128,0,184743:0:0:0:0:
475,192,184566,1,0,0:0:0:0:
402,192,184566,128,0,184743:0:0:0:0:
36,192,184743,128,0,184919:0:0:0:0:
256,192,184743,128,0,184919:0:0:0:0:
109,192,184919,128,0,185096:0:0:0:0:
402,192,184919,128,0,185096:0:0:0:0:
36,192,185096,1,0,0:0:0:0:
182,192,185096,1,0,0:0:0:0:
329,192,185096,128,0,185272:0:0:0:0:
256,192,185096,1,0,0:0:0:0:
475,192,185096,128,0,185272:0:0:0:0:
109,192,185184,1,0,0:0:0:0:
256,192,185272,1,0,0:0:0:0:
182,192,185272,128,0,185449:0:0:0:0:
402,192,185272,128,0,185449:0:0:0:0:
109,192,185360,1,0,0:0:0:0:
256,192,185449,128,0,185625:0:0:0:0:
36,192,185449,128,0,185537:0:0:0:0:
329,192,185449,128,0,185625:0:0:0:0:
182,192,185625,1,0,0:0:0:0:
402,192,185625,1,0,0:0:0:0:
475,192,185625,128,0,185802:0:0:0:0:
109,192,185625,128,0,185802:0:0:0:0:
329,192,185802,128,0,185978:0:0:0:0:
256,192,185802,128,0,185978:0:0:0:0:
36,192,185802,1,0,0:0:0:0:
182,192,185846,1,0,0:0:0:0:
402,192,185890,1,0,0:0:0:0:
109,192,185934,1,0,0:0:0:0:
182,192,185978,128,0,186154:0:0:0:0:
475,192,185978,128,0,186154:0:0:0:0:
36,192,185978,1,0,0:0:0:0:
402,192,186022,1,0,0:0:0:0:
109,192,186066,1,0,0:0:0:0:
36,192,186110,1,0,0:0:0:0:
256,192,186154,128,0,186331:0:0:0:0:
109,192,186154,1,0,0:0:0:0:
329,192,186154,128,0,186331:0:0:0:0:
402,192,186154,1,0,0:0:0:0:
402,192,186331,128,0,186507:0:0:0:0:
36,192,186331,128,0,186507:0:0:0:0:
329,192,186507,128,0,186684:0:0:0:0:
475,192,186507,128,0,186684:0:0:0:0:
182,192,186684,128,0,186860:0:0:0:0:
109,192,186684,1,0,0:0:0:0:
402,192,186684,128,0,186860:0:0:0:0:
36,192,186772,1,0,0:0:0:0:
109,192,186860,128,0,187037:0:0:0:0:
256,192,186860,1,0,0:0:0:0:
475,192,186860,1,0,0:0:0:0:
329,192,186860,128,0,187037:0:0:0:0:
182,192,187037,128,0,187213:0:0:0:0:
475,192,187037,128,0,187213:0:0:0:0:
402,192,187213,128,0,187390:0:0:0:0:
36,192,187213,1,0,0:0:0:0:
109,192,187213,128,0,187390:0:0:0:0:
256,192,187390,128,0,187566:0:0:0:0:
36,192,187390,1,0,0:0:0:0:
329,192,187390,128,0,187566:0:0:0:0:
182,192,187478,1,0,0:0:0:0:
109,192,187566,128,0,187743:0:0:0:0:
402,192,187566,1,0,0:0:0:0:
475,192,187566,1,0,0:0:0:0:
36,192,187566,128,0,187743:0:0:0:0:
182,192,187743,128,0,187919:0:0:0:0:
402,192,187743,128,0,187919:0:0:0:0:
